  0
SECTION
  2
HEADER
  9
$ACADVER
  1
AC1027
  9
$ACADMAINTVER
 70
    20
  9
$DWGCODEPAGE
  3
ANSI_932
  9
$LASTSAVEDBY
  1
lineeyeKH1
  9
$REQUIREDVERSIONS
160
                 0
  9
$INSBASE
 10
0.0
 20
0.0
 30
0.0
  9
$EXTMIN
 10
43.67178260245402
 20
38.23640400918015
 30
0.0
  9
$EXTMAX
 10
224.0932027097599
 20
180.9188375929324
 30
0.0
  9
$LIMMIN
 10
0.0
 20
0.0
  9
$LIMMAX
 10
420.0
 20
297.0
  9
$ORTHOMODE
 70
     1
  9
$REGENMODE
 70
     1
  9
$FILLMODE
 70
     1
  9
$QTEXTMODE
 70
     0
  9
$MIRRTEXT
 70
     1
  9
$LTSCALE
 40
0.5
  9
$ATTMODE
 70
     1
  9
$TEXTSIZE
 40
2.5
  9
$TRACEWID
 40
1.0
  9
$TEXTSTYLE
  7
Standard
  9
$CLAYER
  8
GAIKEI
  9
$CELTYPE
  6
ByLayer
  9
$CECOLOR
 62
   256
  9
$CELTSCALE
 40
1.0
  9
$DISPSILH
 70
     0
  9
$DIMSCALE
 40
1.0
  9
$DIMASZ
 40
2.5
  9
$DIMEXO
 40
1.0
  9
$DIMDLI
 40
7.0
  9
$DIMRND
 40
0.0
  9
$DIMDLE
 40
0.0
  9
$DIMEXE
 40
1.0
  9
$DIMTP
 40
0.0
  9
$DIMTM
 40
0.0
  9
$DIMTXT
 40
2.5
  9
$DIMCEN
 40
0.0
  9
$DIMTSZ
 40
0.0
  9
$DIMTOL
 70
     0
  9
$DIMLIM
 70
     0
  9
$DIMTIH
 70
     0
  9
$DIMTOH
 70
     1
  9
$DIMSE1
 70
     0
  9
$DIMSE2
 70
     0
  9
$DIMTAD
 70
     1
  9
$DIMZIN
 70
     8
  9
$DIMBLK
  1

  9
$DIMASO
 70
     1
  9
$DIMSHO
 70
     1
  9
$DIMPOST
  1

  9
$DIMAPOST
  1

  9
$DIMALT
 70
     0
  9
$DIMALTD
 70
     2
  9
$DIMALTF
 40
0.0394
  9
$DIMLFAC
 40
1.0
  9
$DIMTOFL
 70
     1
  9
$DIMTVP
 40
0.0
  9
$DIMTIX
 70
     0
  9
$DIMSOXD
 70
     0
  9
$DIMSAH
 70
     0
  9
$DIMBLK1
  1

  9
$DIMBLK2
  1

  9
$DIMSTYLE
  2
LINEEYE
  9
$DIMCLRD
 70
   256
  9
$DIMCLRE
 70
   256
  9
$DIMCLRT
 70
   256
  9
$DIMTFAC
 40
1.0
  9
$DIMGAP
 40
1.0
  9
$DIMJUST
 70
     0
  9
$DIMSD1
 70
     0
  9
$DIMSD2
 70
     0
  9
$DIMTOLJ
 70
     1
  9
$DIMTZIN
 70
     0
  9
$DIMALTZ
 70
     0
  9
$DIMALTTZ
 70
     0
  9
$DIMUPT
 70
     0
  9
$DIMDEC
 70
     1
  9
$DIMTDEC
 70
     1
  9
$DIMALTU
 70
     2
  9
$DIMALTTD
 70
     2
  9
$DIMTXSTY
  7
Standard
  9
$DIMAUNIT
 70
     0
  9
$DIMADEC
 70
     0
  9
$DIMALTRND
 40
0.0
  9
$DIMAZIN
 70
     0
  9
$DIMDSEP
 70
    46
  9
$DIMATFIT
 70
     3
  9
$DIMFRAC
 70
     0
  9
$DIMLDRBLK
  1

  9
$DIMLUNIT
 70
     2
  9
$DIMLWD
 70
    -1
  9
$DIMLWE
 70
    -1
  9
$DIMTMOVE
 70
     0
  9
$DIMFXL
 40
1.0
  9
$DIMFXLON
 70
     0
  9
$DIMJOGANG
 40
0.7853981633974483
  9
$DIMTFILL
 70
     0
  9
$DIMTFILLCLR
 70
     0
  9
$DIMARCSYM
 70
     0
  9
$DIMLTYPE
  6

  9
$DIMLTEX1
  6

  9
$DIMLTEX2
  6

  9
$DIMTXTDIRECTION
 70
     0
  9
$LUNITS
 70
     2
  9
$LUPREC
 70
     4
  9
$SKETCHINC
 40
1.0
  9
$FILLETRAD
 40
1.0
  9
$AUNITS
 70
     0
  9
$AUPREC
 70
     0
  9
$MENU
  1
.
  9
$ELEVATION
 40
0.0
  9
$PELEVATION
 40
0.0
  9
$THICKNESS
 40
0.0
  9
$LIMCHECK
 70
     0
  9
$CHAMFERA
 40
10.0
  9
$CHAMFERB
 40
10.0
  9
$CHAMFERC
 40
20.0
  9
$CHAMFERD
 40
0.0
  9
$SKPOLY
 70
     0
  9
$TDCREATE
 40
2452964.722255856
  9
$TDUCREATE
 40
2452964.347255857
  9
$TDUPDATE
 40
2458166.406710891
  9
$TDUUPDATE
 40
2458166.031710891
  9
$TDINDWG
 40
0.7411925694
  9
$TDUSRTIMER
 40
0.7411925694
  9
$USRTIMER
 70
     1
  9
$ANGBASE
 50
0.0
  9
$ANGDIR
 70
     0
  9
$PDMODE
 70
     0
  9
$PDSIZE
 40
0.0
  9
$PLINEWID
 40
0.0
  9
$SPLFRAME
 70
     0
  9
$SPLINETYPE
 70
     6
  9
$SPLINESEGS
 70
     8
  9
$HANDSEED
  5
3BAA
  9
$SURFTAB1
 70
     6
  9
$SURFTAB2
 70
     6
  9
$SURFTYPE
 70
     6
  9
$SURFU
 70
     6
  9
$SURFV
 70
     6
  9
$UCSBASE
  2

  9
$UCSNAME
  2

  9
$UCSORG
 10
0.0
 20
0.0
 30
0.0
  9
$UCSXDIR
 10
1.0
 20
0.0
 30
0.0
  9
$UCSYDIR
 10
0.0
 20
1.0
 30
0.0
  9
$UCSORTHOREF
  2

  9
$UCSORTHOVIEW
 70
     0
  9
$UCSORGTOP
 10
0.0
 20
0.0
 30
0.0
  9
$UCSORGBOTTOM
 10
0.0
 20
0.0
 30
0.0
  9
$UCSORGLEFT
 10
0.0
 20
0.0
 30
0.0
  9
$UCSORGRIGHT
 10
0.0
 20
0.0
 30
0.0
  9
$UCSORGFRONT
 10
0.0
 20
0.0
 30
0.0
  9
$UCSORGBACK
 10
0.0
 20
0.0
 30
0.0
  9
$PUCSBASE
  2

  9
$PUCSNAME
  2

  9
$PUCSORG
 10
0.0
 20
0.0
 30
0.0
  9
$PUCSXDIR
 10
1.0
 20
0.0
 30
0.0
  9
$PUCSYDIR
 10
0.0
 20
1.0
 30
0.0
  9
$PUCSORTHOREF
  2

  9
$PUCSORTHOVIEW
 70
     0
  9
$PUCSORGTOP
 10
0.0
 20
0.0
 30
0.0
  9
$PUCSORGBOTTOM
 10
0.0
 20
0.0
 30
0.0
  9
$PUCSORGLEFT
 10
0.0
 20
0.0
 30
0.0
  9
$PUCSORGRIGHT
 10
0.0
 20
0.0
 30
0.0
  9
$PUCSORGFRONT
 10
0.0
 20
0.0
 30
0.0
  9
$PUCSORGBACK
 10
0.0
 20
0.0
 30
0.0
  9
$USERI1
 70
     0
  9
$USERI2
 70
     0
  9
$USERI3
 70
     0
  9
$USERI4
 70
     0
  9
$USERI5
 70
     0
  9
$USERR1
 40
0.0
  9
$USERR2
 40
0.0
  9
$USERR3
 40
0.0
  9
$USERR4
 40
0.0
  9
$USERR5
 40
0.0
  9
$WORLDVIEW
 70
     1
  9
$SHADEDGE
 70
     3
  9
$SHADEDIF
 70
    70
  9
$TILEMODE
 70
     0
  9
$MAXACTVP
 70
    64
  9
$PINSBASE
 10
0.0
 20
0.0
 30
0.0
  9
$PLIMCHECK
 70
     0
  9
$PEXTMIN
 10
-1.098149247322339
 20
-0.9305688206987383
 30
0.0
  9
$PEXTMAX
 10
296.2236510207624
 20
209.2771364922563
 30
0.0
  9
$PLIMMIN
 10
-0.7937499880790711
 20
-0.7937499880790711
  9
$PLIMMAX
 10
296.2062500119209
 20
209.2062500119209
  9
$UNITMODE
 70
     0
  9
$VISRETAIN
 70
     1
  9
$PLINEGEN
 70
     0
  9
$PSLTSCALE
 70
     1
  9
$TREEDEPTH
 70
  3020
  9
$CMLSTYLE
  2
Standard
  9
$CMLJUST
 70
     0
  9
$CMLSCALE
 40
20.0
  9
$PROXYGRAPHICS
 70
     1
  9
$MEASUREMENT
 70
     1
  9
$CELWEIGHT
370
    -1
  9
$ENDCAPS
280
     0
  9
$JOINSTYLE
280
     0
  9
$LWDISPLAY
290
     1
  9
$INSUNITS
 70
     4
  9
$HYPERLINKBASE
  1

  9
$STYLESHEET
  1
GRAYSCALE.CTB
  9
$XEDIT
290
     1
  9
$CEPSNTYPE
380
     0
  9
$PSTYLEMODE
290
     1
  9
$FINGERPRINTGUID
  2
{8D857D7B-D612-449F-BAF4-CB0812802B13}
  9
$VERSIONGUID
  2
{A2C06795-BBF8-4958-8FF3-6014480E9F0F}
  9
$EXTNAMES
290
     1
  9
$PSVPSCALE
 40
0.0
  9
$OLESTARTUP
290
     0
  9
$SORTENTS
280
   112
  9
$INDEXCTL
280
     0
  9
$HIDETEXT
280
     1
  9
$XCLIPFRAME
280
     2
  9
$HALOGAP
280
     0
  9
$OBSCOLOR
 70
   257
  9
$OBSLTYPE
280
     0
  9
$INTERSECTIONDISPLAY
280
     0
  9
$INTERSECTIONCOLOR
 70
   257
  9
$DIMASSOC
280
     2
  9
$PROJECTNAME
  1

  9
$CAMERADISPLAY
290
     0
  9
$LENSLENGTH
 40
50.0
  9
$CAMERAHEIGHT
 40
0.0
  9
$STEPSPERSEC
 40
2.0
  9
$STEPSIZE
 40
6.0
  9
$3DDWFPREC
 40
2.0
  9
$PSOLWIDTH
 40
0.25
  9
$PSOLHEIGHT
 40
4.0
  9
$LOFTANG1
 40
1.570796326794896
  9
$LOFTANG2
 40
1.570796326794896
  9
$LOFTMAG1
 40
0.0
  9
$LOFTMAG2
 40
0.0
  9
$LOFTPARAM
 70
     7
  9
$LOFTNORMALS
280
     1
  9
$LATITUDE
 40
37.795
  9
$LONGITUDE
 40
-122.394
  9
$NORTHDIRECTION
 40
0.0
  9
$TIMEZONE
 70
 -8000
  9
$LIGHTGLYPHDISPLAY
280
     1
  9
$TILEMODELIGHTSYNCH
280
     1
  9
$CMATERIAL
347
36BE
  9
$SOLIDHIST
280
     0
  9
$SHOWHIST
280
     1
  9
$DWFFRAME
280
     2
  9
$DGNFRAME
280
     0
  9
$REALWORLDSCALE
290
     1
  9
$INTERFERECOLOR
 62
     1
  9
$INTERFEREOBJVS
345
36E0
  9
$INTERFEREVPVS
346
36DD
  9
$CSHADOW
280
     0
  9
$SHADOWPLANELOCATION
 40
0.0
  0
ENDSEC
  0
SECTION
  2
CLASSES
  0
CLASS
  1
ACDBDICTIONARYWDFLT
  2
AcDbDictionaryWithDefault
  3
ObjectDBX Classes
 90
        0
 91
        1
280
     0
281
     0
  0
CLASS
  1
DIMASSOC
  2
AcDbDimAssoc
  3
"AcDbDimAssoc|Product Desc:     AcDim ARX App For Dimension|Company:          Autodesk, Inc.|WEB Address:      www.autodesk.com"
 90
        0
 91
       30
280
     0
281
     0
  0
CLASS
  1
DICTIONARYVAR
  2
AcDbDictionaryVar
  3
ObjectDBX Classes
 90
        0
 91
       16
280
     0
281
     0
  0
CLASS
  1
SORTENTSTABLE
  2
AcDbSortentsTable
  3
ObjectDBX Classes
 90
        0
 91
        2
280
     0
281
     0
  0
CLASS
  1
MATERIAL
  2
AcDbMaterial
  3
ObjectDBX Classes
 90
     1153
 91
        3
280
     0
281
     0
  0
CLASS
  1
VISUALSTYLE
  2
AcDbVisualStyle
  3
ObjectDBX Classes
 90
     4095
 91
       24
280
     0
281
     0
  0
CLASS
  1
TABLESTYLE
  2
AcDbTableStyle
  3
ObjectDBX Classes
 90
     4095
 91
        1
280
     0
281
     0
  0
CLASS
  1
SCALE
  2
AcDbScale
  3
ObjectDBX Classes
 90
     1153
 91
       17
280
     0
281
     0
  0
CLASS
  1
MLEADERSTYLE
  2
AcDbMLeaderStyle
  3
ACDB_MLEADERSTYLE_CLASS
 90
     4095
 91
        1
280
     0
281
     0
  0
CLASS
  1
ACDBSECTIONVIEWSTYLE
  2
AcDbSectionViewStyle
  3
ObjectDBX Classes
 90
     1025
 91
        1
280
     0
281
     0
  0
CLASS
  1
ACDBDETAILVIEWSTYLE
  2
AcDbDetailViewStyle
  3
ObjectDBX Classes
 90
     1025
 91
        1
280
     0
281
     0
  0
CLASS
  1
MULTILEADER
  2
AcDbMLeader
  3
ACDB_MLEADER_CLASS
 90
     1025
 91
        1
280
     0
281
     1
  0
CLASS
  1
CELLSTYLEMAP
  2
AcDbCellStyleMap
  3
ObjectDBX Classes
 90
     1152
 91
        1
280
     0
281
     0
  0
ENDSEC
  0
SECTION
  2
TABLES
  0
TABLE
  2
VPORT
  5
8
330
0
100
AcDbSymbolTable
 70
     1
  0
VPORT
  5
36B7
330
8
100
AcDbSymbolTableRecord
100
AcDbViewportTableRecord
  2
*Active
 70
     0
 10
0.0
 20
0.0
 11
1.0
 21
1.0
 12
103.7389602519206
 22
136.5819741822875
 13
0.0
 23
0.0
 14
10.0
 24
10.0
 15
10.0
 25
10.0
 16
0.0
 26
0.0
 36
1.0
 17
0.0
 27
0.0
 37
0.0
 40
213.3436517672359
 41
1.506586826347305
 42
50.0
 43
0.0
 44
0.0
 50
0.0
 51
0.0
 71
     0
 72
   100
 73
     1
 74
     3
 75
     0
 76
     0
 77
     0
 78
     0
281
     0
 65
     1
110
0.0
120
0.0
130
0.0
111
1.0
121
0.0
131
0.0
112
0.0
122
1.0
132
0.0
 79
     0
146
0.0
348
36DC
 60
     3
 61
     5
292
     1
282
     1
141
0.0
142
0.0
 63
   250
421
  3355443
1001
ACAD_NAV_VCDISPLAY
1070
     3
  0
ENDTAB
  0
TABLE
  2
LTYPE
  5
5
330
0
100
AcDbSymbolTable
 70
     8
  0
LTYPE
  5
14
330
5
100
AcDbSymbolTableRecord
100
AcDbLinetypeTableRecord
  2
ByBlock
 70
     0
  3

 72
    65
 73
     0
 40
0.0
  0
LTYPE
  5
15
330
5
100
AcDbSymbolTableRecord
100
AcDbLinetypeTableRecord
  2
ByLayer
 70
     0
  3

 72
    65
 73
     0
 40
0.0
  0
LTYPE
  5
16
330
5
100
AcDbSymbolTableRecord
100
AcDbLinetypeTableRecord
  2
Continuous
 70
     0
  3
Solid line
 72
    65
 73
     0
 40
0.0
  0
LTYPE
  5
ABF
330
5
100
AcDbSymbolTableRecord
100
AcDbLinetypeTableRecord
  2
CENTER2
 70
     0
  3
Center (.5x) ___ _ ___ _ ___ _ ___ _ ___ _ ___
 72
    65
 73
     4
 40
28.57499999999999
 49
19.05
 74
     0
 49
-3.174999999999998
 74
     0
 49
3.174999999999998
 74
     0
 49
-3.174999999999998
 74
     0
  0
LTYPE
  5
AC9
330
5
100
AcDbSymbolTableRecord
100
AcDbLinetypeTableRecord
  2
CENTERX2
 70
     0
  3
Center (2x) ________  __  ________  __  _____
 72
    65
 73
     4
 40
101.6
 49
63.5
 74
     0
 49
-12.7
 74
     0
 49
12.7
 74
     0
 49
-12.7
 74
     0
  0
LTYPE
  5
BF3
330
5
100
AcDbSymbolTableRecord
100
AcDbLinetypeTableRecord
  2
HIDDEN2
 70
     0
  3
Hidden (.5x) _ _ _ _ _ _ _ _ _ _ _ _ _ _ _ _ _
 72
    65
 73
     2
 40
4.762499999999998
 49
3.174999999999998
 74
     0
 49
-1.587499999999999
 74
     0
  0
LTYPE
  5
1977
330
5
100
AcDbSymbolTableRecord
100
AcDbLinetypeTableRecord
  2
DASHED2
 70
     0
  3
Dashed (.5x) _ _ _ _ _ _ _ _ _ _ _ _ _ _ _ _ _
 72
    65
 73
     2
 40
9.524999999999996
 49
6.349999999999998
 74
     0
 49
-3.174999999999998
 74
     0
  0
LTYPE
  5
24EE
330
5
100
AcDbSymbolTableRecord
100
AcDbLinetypeTableRecord
  2
CENTER
 70
     0
  3
____ _ ____ _ ____ _ ____ _ ____ _ ____ _ ____
 72
    65
 73
     4
 40
2.0
 49
1.25
 74
     0
 49
-0.25
 74
     0
 49
0.25
 74
     0
 49
-0.25
 74
     0
  0
LTYPE
  5
24EF
330
5
100
AcDbSymbolTableRecord
100
AcDbLinetypeTableRecord
  2
HIDDEN
 70
     0
  3
_ _ _ _ _ _ _ _ _ _ _ _ _ _ _ _ _ _ _ _ _ _ _
 72
    65
 73
     2
 40
0.375
 49
0.25
 74
     0
 49
-0.125
 74
     0
  0
ENDTAB
  0
TABLE
  2
LAYER
  5
2
102
{ACAD_XDICTIONARY
360
3729
102
}
330
0
100
AcDbSymbolTable
 70
    14
  0
LAYER
  5
10
102
{ACAD_XDICTIONARY
360
391A
102
}
330
2
100
AcDbSymbolTableRecord
100
AcDbLayerTableRecord
  2
0
 70
     0
 62
     7
  6
Continuous
370
    -3
390
F
347
36CE
348
0
  0
LAYER
  5
6A
102
{ACAD_XDICTIONARY
360
391C
102
}
330
2
100
AcDbSymbolTableRecord
100
AcDbLayerTableRecord
  2
外形１
 70
     0
 62
     5
  6
Continuous
370
    30
390
F
347
36CE
348
0
  0
LAYER
  5
6B
102
{ACAD_XDICTIONARY
360
391E
102
}
330
2
100
AcDbSymbolTableRecord
100
AcDbLayerTableRecord
  2
外形２
 70
     0
 62
     7
  6
Continuous
370
    -3
390
F
347
36CE
348
0
  0
LAYER
  5
960
102
{ACAD_XDICTIONARY
360
3920
102
}
330
2
100
AcDbSymbolTableRecord
100
AcDbLayerTableRecord
  2
寸法
 70
     0
 62
     5
  6
Continuous
370
    25
390
F
347
36CE
348
0
  0
LAYER
  5
961
330
2
100
AcDbSymbolTableRecord
100
AcDbLayerTableRecord
  2
Defpoints
 70
     0
 62
    -7
  6
Continuous
290
     0
370
    -3
390
F
347
36CE
348
0
  0
LAYER
  5
AC0
102
{ACAD_XDICTIONARY
360
3922
102
}
330
2
100
AcDbSymbolTableRecord
100
AcDbLayerTableRecord
  2
中心線
 70
     0
 62
     2
  6
CENTER2
370
    18
390
F
347
36CE
348
0
  0
LAYER
  5
AC7
102
{ACAD_XDICTIONARY
360
3924
102
}
330
2
100
AcDbSymbolTableRecord
100
AcDbLayerTableRecord
  2
隠れ線
 70
     0
 62
     3
  6
HIDDEN2
370
    -3
390
F
347
36CE
348
0
  0
LAYER
  5
1978
102
{ACAD_XDICTIONARY
360
3926
102
}
330
2
100
AcDbSymbolTableRecord
100
AcDbLayerTableRecord
  2
細線
 70
     0
 62
     7
  6
DASHED2
370
     5
390
F
347
36CE
348
0
  0
LAYER
  5
1979
102
{ACAD_XDICTIONARY
360
3928
102
}
330
2
100
AcDbSymbolTableRecord
100
AcDbLayerTableRecord
  2
文字
 70
     0
 62
     7
  6
Continuous
370
    25
390
F
347
36CE
348
0
  0
LAYER
  5
197A
102
{ACAD_XDICTIONARY
360
392A
102
}
330
2
100
AcDbSymbolTableRecord
100
AcDbLayerTableRecord
  2
GAIKEI
 70
     0
 62
     7
  6
Continuous
370
    -3
390
F
347
36CE
348
0
  0
LAYER
  5
24F0
102
{ACAD_XDICTIONARY
360
392C
102
}
330
2
100
AcDbSymbolTableRecord
100
AcDbLayerTableRecord
  2
CONTINUOUS
 70
     0
 62
     7
  6
Continuous
370
    30
390
F
347
36CE
348
0
  0
LAYER
  5
24F1
102
{ACAD_XDICTIONARY
360
392E
102
}
330
2
100
AcDbSymbolTableRecord
100
AcDbLayerTableRecord
  2
CENTER
 70
     0
 62
     1
  6
CENTER
370
    -3
390
F
347
36CE
348
0
  0
LAYER
  5
24F2
102
{ACAD_XDICTIONARY
360
3930
102
}
330
2
100
AcDbSymbolTableRecord
100
AcDbLayerTableRecord
  2
DOTTED
 70
     0
 62
     6
  6
HIDDEN
370
    -3
390
F
347
36CE
348
0
  0
LAYER
  5
2A6C
102
{ACAD_XDICTIONARY
360
3932
102
}
330
2
100
AcDbSymbolTableRecord
100
AcDbLayerTableRecord
  2
板金
 70
     0
 62
     1
  6
Continuous
370
    30
390
F
347
36CE
348
0
  0
ENDTAB
  0
TABLE
  2
STYLE
  5
3
330
0
100
AcDbSymbolTable
 70
     5
  0
STYLE
  5
11
330
3
100
AcDbSymbolTableRecord
100
AcDbTextStyleTableRecord
  2
Standard
 70
     0
 40
0.0
 41
1.0
 50
0.0
 71
     0
 42
2.5
  3
txt
  4

  0
STYLE
  5
6C
330
3
100
AcDbSymbolTableRecord
100
AcDbTextStyleTableRecord
  2
STD
 70
     0
 40
0.0
 41
1.0
 50
0.0
 71
     0
 42
0.0
  3
txt
  4

  0
STYLE
  5
6D
330
3
100
AcDbSymbolTableRecord
100
AcDbTextStyleTableRecord
  2
0615
 70
     0
 40
0.0
 41
1.0
 50
0.0
 71
     0
 42
2.5
  3
simplex.shx
  4
bigfont.shx
  0
STYLE
  5
ABE
330
3
100
AcDbSymbolTableRecord
100
AcDbTextStyleTableRecord
  2

 70
     1
 40
0.0
 41
1.0
 50
0.0
 71
     0
 42
2.5
  3
ltypeshp.shx
  4

  0
ENDTAB
  0
TABLE
  2
VIEW
  5
6
330
0
100
AcDbSymbolTable
 70
     2
  0
ENDTAB
  0
TABLE
  2
UCS
  5
7
330
0
100
AcDbSymbolTable
 70
     0
  0
ENDTAB
  0
TABLE
  2
APPID
  5
9
330
0
100
AcDbSymbolTable
 70
     6
  0
APPID
  5
12
330
9
100
AcDbSymbolTableRecord
100
AcDbRegAppTableRecord
  2
ACAD
 70
     0
  0
APPID
  5
3711
330
9
100
AcDbSymbolTableRecord
100
AcDbRegAppTableRecord
  2
ACAD_NAV_VCDISPLAY
 70
     0
  0
APPID
  5
3750
330
9
100
AcDbSymbolTableRecord
100
AcDbRegAppTableRecord
  2
ACAD_PSEXT
 70
     0
  0
APPID
  5
3752
330
9
100
AcDbSymbolTableRecord
100
AcDbRegAppTableRecord
  2
ACAD_EXEMPT_FROM_CAD_STANDARDS
 70
     0
  0
APPID
  5
393B
330
9
100
AcDbSymbolTableRecord
100
AcDbRegAppTableRecord
  2
ACAD_DSTYLE_DIMJAG
 70
     0
  0
APPID
  5
393C
330
9
100
AcDbSymbolTableRecord
100
AcDbRegAppTableRecord
  2
ACAD_DSTYLE_DIMTALN
 70
     0
  0
ENDTAB
  0
TABLE
  2
DIMSTYLE
  5
A
330
0
100
AcDbSymbolTable
 70
     6
100
AcDbDimStyleTable
 71
     3
340
6F
340
27
340
6E
  0
DIMSTYLE
105
27
102
{ACAD_REACTORS
330
2774
330
2777
330
277A
330
278B
330
2796
330
279A
330
27AC
330
27AF
330
27B2
330
27CE
330
27DC
330
27DF
330
27E4
102
}
330
A
100
AcDbSymbolTableRecord
100
AcDbDimStyleTableRecord
  2
ISO-25
 70
     0
 41
2.5
 42
0.625
 43
3.75
 44
1.25
 73
     0
 74
     0
 77
     1
 78
     8
140
2.5
141
2.5
143
0.03937007874016
147
0.625
171
     3
172
     1
271
     2
272
     2
274
     3
283
     0
284
     8
340
11
  0
DIMSTYLE
105
6E
330
A
100
AcDbSymbolTableRecord
100
AcDbDimStyleTableRecord
  2
Standard
 70
     0
340
11
  0
DIMSTYLE
105
6F
102
{ACAD_REACTORS
330
2AEE
330
2B0B
330
2B4C
330
2ED5
330
2ED9
330
2F0D
330
312C
330
3179
330
31C7
330
31FB
330
322B
330
3243
330
325B
330
3273
330
32AB
330
32D2
330
32EA
330
3302
330
3669
330
3681
102
}
330
A
100
AcDbSymbolTableRecord
100
AcDbDimStyleTableRecord
  2
LINEEYE
 70
     0
 41
2.5
 42
1.0
 43
7.0
 44
1.0
 73
     0
 77
     1
 78
     8
140
2.5
141
0.0
143
0.0394
147
1.0
172
     1
176
   256
177
   256
178
   256
271
     1
272
     1
340
11
371
    -1
372
    -1
1001
ACAD_DSTYLE_DIMJAG
1070
   388
1040
1.5
1001
ACAD_DSTYLE_DIMTALN
1070
   392
1070
     0
  0
DIMSTYLE
105
2A6D
330
A
100
AcDbSymbolTableRecord
100
AcDbDimStyleTableRecord
  2
JIS
 70
     0
 41
2.5
 42
1.0
 43
7.0
 44
1.0
 73
     0
 74
     0
 77
     1
 78
     8
140
2.5
141
0.0
143
0.0394
147
0.0
172
     1
174
     1
175
     1
340
11
  0
ENDTAB
  0
TABLE
  2
BLOCK_RECORD
  5
1
330
0
100
AcDbSymbolTable
 70
    41
  0
BLOCK_RECORD
  5
1F
102
{ACAD_XDICTIONARY
360
F87
102
}
330
1
100
AcDbSymbolTableRecord
100
AcDbBlockTableRecord
  2
*Model_Space
340
22
 70
     0
280
     1
281
     0
  0
BLOCK_RECORD
  5
1B
102
{ACAD_XDICTIONARY
360
375D
102
}
330
1
100
AcDbSymbolTableRecord
100
AcDbBlockTableRecord
  2
*Paper_Space
340
1E
 70
     0
280
     1
281
     0
  0
BLOCK_RECORD
  5
2B
330
1
100
AcDbSymbolTableRecord
100
AcDbBlockTableRecord
  2
AI9-BLK1
340
0
 70
     0
280
     1
281
     0
  0
BLOCK_RECORD
  5
2F
330
1
100
AcDbSymbolTableRecord
100
AcDbBlockTableRecord
  2
AI9-BLK2
340
0
 70
     0
280
     1
281
     0
  0
BLOCK_RECORD
  5
34
330
1
100
AcDbSymbolTableRecord
100
AcDbBlockTableRecord
  2
AI9-BLK3
340
0
102
{BLKREFS
331
30
102
}
 70
     0
280
     1
281
     0
  0
BLOCK_RECORD
  5
3E
330
1
100
AcDbSymbolTableRecord
100
AcDbBlockTableRecord
  2
AI9-BLK4
340
0
102
{BLKREFS
331
3A
102
}
 70
     0
280
     1
281
     0
  0
BLOCK_RECORD
  5
42
330
1
100
AcDbSymbolTableRecord
100
AcDbBlockTableRecord
  2
AI9-BLK5
340
0
 70
     0
280
     1
281
     0
  0
BLOCK_RECORD
  5
26CF
330
1
100
AcDbSymbolTableRecord
100
AcDbBlockTableRecord
  2
*D5
340
0
 70
     0
280
     1
281
     0
  0
BLOCK_RECORD
  5
26DB
330
1
100
AcDbSymbolTableRecord
100
AcDbBlockTableRecord
  2
*D6
340
0
 70
     0
280
     1
281
     0
  0
BLOCK_RECORD
  5
26E7
330
1
100
AcDbSymbolTableRecord
100
AcDbBlockTableRecord
  2
*D7
340
0
 70
     0
280
     1
281
     0
  0
BLOCK_RECORD
  5
26F3
330
1
100
AcDbSymbolTableRecord
100
AcDbBlockTableRecord
  2
*D8
340
0
 70
     0
280
     1
281
     0
  0
BLOCK_RECORD
  5
26FF
330
1
100
AcDbSymbolTableRecord
100
AcDbBlockTableRecord
  2
*D9
340
0
 70
     0
280
     1
281
     0
  0
BLOCK_RECORD
  5
270D
330
1
100
AcDbSymbolTableRecord
100
AcDbBlockTableRecord
  2
*D10
340
0
 70
     0
280
     1
281
     0
  0
BLOCK_RECORD
  5
2719
330
1
100
AcDbSymbolTableRecord
100
AcDbBlockTableRecord
  2
*D11
340
0
 70
     0
280
     1
281
     0
  0
BLOCK_RECORD
  5
2725
330
1
100
AcDbSymbolTableRecord
100
AcDbBlockTableRecord
  2
*D12
340
0
 70
     0
280
     1
281
     0
  0
BLOCK_RECORD
  5
2733
330
1
100
AcDbSymbolTableRecord
100
AcDbBlockTableRecord
  2
*D13
340
0
 70
     0
280
     1
281
     0
  0
BLOCK_RECORD
  5
273F
330
1
100
AcDbSymbolTableRecord
100
AcDbBlockTableRecord
  2
*D14
340
0
 70
     0
280
     1
281
     0
  0
BLOCK_RECORD
  5
274B
330
1
100
AcDbSymbolTableRecord
100
AcDbBlockTableRecord
  2
*D15
340
0
 70
     0
280
     1
281
     0
  0
BLOCK_RECORD
  5
2759
330
1
100
AcDbSymbolTableRecord
100
AcDbBlockTableRecord
  2
*D16
340
0
 70
     0
280
     1
281
     0
  0
BLOCK_RECORD
  5
2764
330
1
100
AcDbSymbolTableRecord
100
AcDbBlockTableRecord
  2
*D17
340
0
 70
     0
280
     1
281
     0
  0
BLOCK_RECORD
  5
2772
330
1
100
AcDbSymbolTableRecord
100
AcDbBlockTableRecord
  2
A$C27BD67DC
340
0
 70
     0
280
     1
281
     0
  0
BLOCK_RECORD
  5
2C35
330
1
100
AcDbSymbolTableRecord
100
AcDbBlockTableRecord
  2
*D19
340
0
 70
     0
280
     1
281
     0
  0
BLOCK_RECORD
  5
2C78
330
1
100
AcDbSymbolTableRecord
100
AcDbBlockTableRecord
  2
*D20
340
0
 70
     0
280
     1
281
     0
  0
BLOCK_RECORD
  5
2CD0
330
1
100
AcDbSymbolTableRecord
100
AcDbBlockTableRecord
  2
*D21
340
0
 70
     0
280
     1
281
     0
  0
BLOCK_RECORD
  5
2F7D
330
1
100
AcDbSymbolTableRecord
100
AcDbBlockTableRecord
  2
*D22
340
0
 70
     0
280
     1
281
     0
  0
BLOCK_RECORD
  5
2F89
330
1
100
AcDbSymbolTableRecord
100
AcDbBlockTableRecord
  2
*D23
340
0
 70
     0
280
     1
281
     0
  0
BLOCK_RECORD
  5
2FB9
330
1
100
AcDbSymbolTableRecord
100
AcDbBlockTableRecord
  2
*D24
340
0
 70
     0
280
     1
281
     0
  0
BLOCK_RECORD
  5
312D
330
1
100
AcDbSymbolTableRecord
100
AcDbBlockTableRecord
  2
*D25
340
0
 70
     0
280
     1
281
     0
  0
BLOCK_RECORD
  5
317A
330
1
100
AcDbSymbolTableRecord
100
AcDbBlockTableRecord
  2
*D26
340
0
 70
     0
280
     1
281
     0
  0
BLOCK_RECORD
  5
31C8
330
1
100
AcDbSymbolTableRecord
100
AcDbBlockTableRecord
  2
*D27
340
0
 70
     0
280
     1
281
     0
  0
BLOCK_RECORD
  5
31FC
330
1
100
AcDbSymbolTableRecord
100
AcDbBlockTableRecord
  2
*D28
340
0
 70
     0
280
     1
281
     0
  0
BLOCK_RECORD
  5
322C
330
1
100
AcDbSymbolTableRecord
100
AcDbBlockTableRecord
  2
*D29
340
0
 70
     0
280
     1
281
     0
  0
BLOCK_RECORD
  5
3244
330
1
100
AcDbSymbolTableRecord
100
AcDbBlockTableRecord
  2
*D30
340
0
 70
     0
280
     1
281
     0
  0
BLOCK_RECORD
  5
325C
330
1
100
AcDbSymbolTableRecord
100
AcDbBlockTableRecord
  2
*D31
340
0
 70
     0
280
     1
281
     0
  0
BLOCK_RECORD
  5
3274
330
1
100
AcDbSymbolTableRecord
100
AcDbBlockTableRecord
  2
*D32
340
0
 70
     0
280
     1
281
     0
  0
BLOCK_RECORD
  5
32AC
330
1
100
AcDbSymbolTableRecord
100
AcDbBlockTableRecord
  2
*D33
340
0
 70
     0
280
     1
281
     0
  0
BLOCK_RECORD
  5
32D3
330
1
100
AcDbSymbolTableRecord
100
AcDbBlockTableRecord
  2
*D34
340
0
 70
     0
280
     1
281
     0
  0
BLOCK_RECORD
  5
32EB
330
1
100
AcDbSymbolTableRecord
100
AcDbBlockTableRecord
  2
*D35
340
0
 70
     0
280
     1
281
     0
  0
BLOCK_RECORD
  5
3303
330
1
100
AcDbSymbolTableRecord
100
AcDbBlockTableRecord
  2
*D36
340
0
 70
     0
280
     1
281
     0
  0
BLOCK_RECORD
  5
366A
330
1
100
AcDbSymbolTableRecord
100
AcDbBlockTableRecord
  2
*D37
340
0
 70
     0
280
     1
281
     0
  0
BLOCK_RECORD
  5
3682
330
1
100
AcDbSymbolTableRecord
100
AcDbBlockTableRecord
  2
*D38
340
0
 70
     0
280
     1
281
     0
  0
ENDTAB
  0
ENDSEC
  0
SECTION
  2
BLOCKS
  0
BLOCK
  5
20
330
1F
100
AcDbEntity
  8
0
100
AcDbBlockBegin
  2
*Model_Space
 70
     0
 10
0.0
 20
0.0
 30
0.0
  3
*Model_Space
  1

  0
ENDBLK
  5
21
330
1F
100
AcDbEntity
  8
0
100
AcDbBlockEnd
  0
BLOCK
  5
1C
330
1B
100
AcDbEntity
 67
     1
  8
0
100
AcDbBlockBegin
  2
*Paper_Space
 70
     0
 10
0.0
 20
0.0
 30
0.0
  3
*Paper_Space
  1

  0
ENDBLK
  5
1D
330
1B
100
AcDbEntity
 67
     1
  8
0
100
AcDbBlockEnd
  0
BLOCK
  5
2D
330
2B
100
AcDbEntity
  8
外形１
 62
     7
100
AcDbBlockBegin
  2
AI9-BLK1
 70
     0
 10
0.0
 20
0.0
 30
0.0
  3
AI9-BLK1
  1

  0
HATCH
  5
2C
330
2B
100
AcDbEntity
  8
外形１
 62
     7
100
AcDbHatch
 10
0.0
 20
0.0
 30
0.0
210
0.0
220
0.0
230
1.0
  2
SOLID
 70
     1
 71
     0
 91
        1
 92
        1
 93
        1
 72
     4
 94
        3
 73
     0
 74
     0
 95
       17
 96
       13
 40
0.0
 40
0.0
 40
0.0
 40
0.0
 40
1.0
 40
1.0
 40
1.0
 40
2.0
 40
2.0
 40
2.0
 40
3.0
 40
3.0
 40
3.0
 40
4.0
 40
4.0
 40
4.0
 40
4.0
 10
-0.4265028211805557
 20
-0.2425347222222222
 10
-0.4265028211805557
 20
-0.2425347222222222
 10
-0.4265028211805557
 20
0.2425347222222222
 10
-0.4265028211805557
 20
0.2425347222222222
 10
-0.4265028211805557
 20
0.2425347222222222
 10
0.4265028211805557
 20
0.2425347222222222
 10
0.4265028211805557
 20
0.2425347222222222
 10
0.4265028211805557
 20
0.2425347222222222
 10
0.4265028211805557
 20
-0.2425347222222222
 10
0.4265028211805557
 20
-0.2425347222222222
 10
0.4265028211805557
 20
-0.2425347222222222
 10
-0.4265028211805557
 20
-0.2425347222222222
 10
-0.4265028211805557
 20
-0.2425347222222222
 97
        0
 97
        0
 75
     0
 76
     1
 98
        1
 10
0.0
 20
0.0
450
        0
451
        0
460
0.0
461
0.0
452
        0
462
0.0
453
        0
470

  0
ENDBLK
  5
2E
330
2B
100
AcDbEntity
  8
外形１
100
AcDbBlockEnd
  0
BLOCK
  5
32
330
2F
100
AcDbEntity
  8
外形１
 62
     7
100
AcDbBlockBegin
  2
AI9-BLK2
 70
     0
 10
0.0
 20
0.0
 30
0.0
  3
AI9-BLK2
  1

  0
INSERT
  5
30
330
2F
100
AcDbEntity
  8
外形１
 62
     7
100
AcDbBlockReference
  2
AI9-BLK3
 10
0.0
 20
0.0
 30
0.0
  0
HATCH
  5
31
330
2F
100
AcDbEntity
  8
外形１
 62
     7
100
AcDbHatch
 10
0.0
 20
0.0
 30
0.0
210
0.0
220
0.0
230
1.0
  2
SOLID
 70
     1
 71
     0
 91
        1
 92
        1
 93
        1
 72
     4
 94
        3
 73
     0
 74
     0
 95
       32
 96
       28
 40
0.0
 40
0.0
 40
0.0
 40
0.0
 40
1.0
 40
1.0
 40
1.0
 40
2.0
 40
2.0
 40
2.0
 40
3.0
 40
3.0
 40
3.0
 40
4.0
 40
4.0
 40
4.0
 40
5.0
 40
5.0
 40
5.0
 40
6.0
 40
6.0
 40
6.0
 40
7.0
 40
7.0
 40
7.0
 40
8.0
 40
8.0
 40
8.0
 40
9.0
 40
9.0
 40
9.0
 40
9.0
 10
5.68897230360243
 20
2.320444064670137
 10
5.684838189019097
 20
2.327678765190971
 10
5.677258978949653
 20
2.331468370225693
 10
5.669679768880207
 20
2.331468370225693
 10
5.669679768880207
 20
2.331468370225693
 10
4.733302815755208
 20
2.331468370225693
 10
4.733302815755208
 20
2.331468370225693
 10
4.72503458658854
 20
2.331468370225693
 10
4.717455376519096
 20
2.327678765190971
 10
4.713321261935762
 20
2.320444064670137
 10
4.708498128255206
 20
2.313553873697915
 10
4.708498128255206
 20
2.305285644531249
 10
4.711943223741318
 20
2.297361924913194
 10
4.806338840060762
 20
2.086866590711804
 10
5.058519829644096
 20
1.55838894314236
 10
5.177031114366318
 20
1.323433430989582
 10
5.180476209852429
 20
1.315165201822916
 10
5.189433458116318
 20
1.309653049045137
 10
5.197701687282985
 20
1.309653049045137
 10
5.206658935546873
 20
1.309653049045137
 10
5.21492716471354
 20
1.315165201822916
 10
5.219061279296873
 20
1.323433430989582
 10
5.337572564019096
 20
1.55563286675347
 10
5.59319864908854
 20
2.084110514322916
 10
5.690350341796873
 20
2.297706434461805
 10
5.693795437282985
 20
2.305630154079859
 10
5.693106418185761
 20
2.313553873697915
 10
5.68897230360243
 20
2.320444064670137
 97
        0
 97
        0
 75
     0
 76
     1
 98
        1
 10
0.0
 20
0.0
450
        0
451
        0
460
0.0
461
0.0
452
        0
462
0.0
453
        0
470

  0
ENDBLK
  5
33
330
2F
100
AcDbEntity
  8
外形１
100
AcDbBlockEnd
  0
BLOCK
  5
3C
330
34
100
AcDbEntity
  8
外形１
 62
     7
100
AcDbBlockBegin
  2
AI9-BLK3
 70
     0
 10
0.0
 20
0.0
 30
0.0
  3
AI9-BLK3
  1

  0
HATCH
  5
35
330
34
100
AcDbEntity
  8
外形１
 62
     7
100
AcDbHatch
 10
0.0
 20
0.0
 30
0.0
210
0.0
220
0.0
230
1.0
  2
SOLID
 70
     1
 71
     0
 91
        1
 92
        1
 93
        1
 72
     4
 94
        3
 73
     0
 74
     0
 95
       47
 96
       43
 40
0.0
 40
0.0
 40
0.0
 40
0.0
 40
1.0
 40
1.0
 40
1.0
 40
2.0
 40
2.0
 40
2.0
 40
3.0
 40
3.0
 40
3.0
 40
4.0
 40
4.0
 40
4.0
 40
5.0
 40
5.0
 40
5.0
 40
6.0
 40
6.0
 40
6.0
 40
7.0
 40
7.0
 40
7.0
 40
8.0
 40
8.0
 40
8.0
 40
9.0
 40
9.0
 40
9.0
 40
10.0
 40
10.0
 40
10.0
 40
11.0
 40
11.0
 40
11.0
 40
12.0
 40
12.0
 40
12.0
 40
13.0
 40
13.0
 40
13.0
 40
14.0
 40
14.0
 40
14.0
 40
14.0
 10
-6.96675821940104
 20
-1.544264051649304
 10
-6.96675821940104
 20
-1.544264051649304
 10
-7.655432807074652
 20
-1.544264051649304
 10
-7.655432807074652
 20
-1.544264051649304
 10
-7.877985975477429
 20
-1.544264051649304
 10
-8.029225667317707
 20
-1.504989963107638
 10
-8.143602837456597
 20
-1.305174424913194
 10
-8.226974148220485
 20
-1.162547471788194
 10
-8.232830810546875
 20
-0.9413723415798608
 10
-8.232830810546875
 20
-0.5941067165798609
 10
-8.232830810546875
 20
-0.5941067165798609
 10
-8.232830810546875
 20
1.80643581814236
 10
-8.232830810546875
 20
1.80643581814236
 10
-8.232830810546875
 20
1.838130696614583
 10
-8.258324517144096
 20
1.863624403211805
 10
-8.289674886067707
 20
1.863624403211805
 10
-8.289674886067707
 20
1.863624403211805
 10
-8.873618570963538
 20
1.863624403211805
 10
-8.873618570963538
 20
1.863624403211805
 10
-8.905313449435762
 20
1.863624403211805
 10
-8.930807156032983
 20
1.838130696614583
 10
-8.930807156032983
 20
1.80643581814236
 10
-8.930807156032983
 20
1.80643581814236
 10
-8.930807156032983
 20
-0.6223564995659722
 10
-8.930807156032983
 20
-0.6223564995659722
 10
-8.930807156032983
 20
-1.177705891927083
 10
-8.889466010199649
 20
-1.542196994357638
 10
-8.670357937282982
 20
-1.882572428385415
 10
-8.401295979817707
 20
-2.30218505859375
 10
-8.100539143880206
 20
-2.334568956163193
 10
-7.705731201171873
 20
-2.334568956163193
 10
-7.705731201171873
 20
-2.334568956163193
 10
-6.96675821940104
 20
-2.334568956163193
 10
-6.96675821940104
 20
-2.334568956163193
 10
-6.935407850477429
 20
-2.334568956163193
 10
-6.909914143880207
 20
-2.30907524956597
 10
-6.909914143880207
 20
-2.27806939019097
 10
-6.909914143880207
 20
-2.27806939019097
 10
-6.909914143880207
 20
-1.601108127170137
 10
-6.909914143880207
 20
-1.601108127170137
 10
-6.909914143880207
 20
-1.569757758246526
 10
-6.935407850477429
 20
-1.544264051649304
 10
-6.96675821940104
 20
-1.544264051649304
 97
        0
 97
        0
 75
     0
 76
     1
 98
        1
 10
0.0
 20
0.0
450
        0
451
        0
460
0.0
461
0.0
452
        0
462
0.0
453
        0
470

  0
HATCH
  5
36
330
34
100
AcDbEntity
  8
外形１
 62
     7
100
AcDbHatch
 10
0.0
 20
0.0
 30
0.0
210
0.0
220
0.0
230
1.0
  2
SOLID
 70
     1
 71
     0
 91
        1
 92
        1
 93
        1
 72
     4
 94
        3
 73
     0
 74
     0
 95
       29
 96
       25
 40
0.0
 40
0.0
 40
0.0
 40
0.0
 40
1.0
 40
1.0
 40
1.0
 40
2.0
 40
2.0
 40
2.0
 40
3.0
 40
3.0
 40
3.0
 40
4.0
 40
4.0
 40
4.0
 40
5.0
 40
5.0
 40
5.0
 40
6.0
 40
6.0
 40
6.0
 40
7.0
 40
7.0
 40
7.0
 40
8.0
 40
8.0
 40
8.0
 40
8.0
 10
-5.704130723741317
 20
1.863624403211805
 10
-5.704130723741317
 20
1.863624403211805
 10
-6.315979682074653
 20
1.863624403211805
 10
-6.315979682074653
 20
1.863624403211805
 10
-6.346985541449653
 20
1.863624403211805
 10
-6.372479248046873
 20
1.838130696614583
 10
-6.372479248046873
 20
1.80643581814236
 10
-6.372479248046873
 20
1.80643581814236
 10
-6.372479248046873
 20
-2.27806939019097
 10
-6.372479248046873
 20
-2.27806939019097
 10
-6.372479248046873
 20
-2.30907524956597
 10
-6.346985541449653
 20
-2.334568956163193
 10
-6.315979682074653
 20
-2.334568956163193
 10
-6.315979682074653
 20
-2.334568956163193
 10
-5.704130723741317
 20
-2.334568956163193
 10
-5.704130723741317
 20
-2.334568956163193
 10
-5.672780354817707
 20
-2.334568956163193
 10
-5.647631157769096
 20
-2.30907524956597
 10
-5.647631157769096
 20
-2.27806939019097
 10
-5.647631157769096
 20
-2.27806939019097
 10
-5.647631157769096
 20
1.80643581814236
 10
-5.647631157769096
 20
1.80643581814236
 10
-5.647631157769096
 20
1.838130696614583
 10
-5.672780354817707
 20
1.863624403211805
 10
-5.704130723741317
 20
1.863624403211805
 97
        0
 97
        0
 75
     0
 76
     1
 98
        1
 10
0.0
 20
0.0
450
        0
451
        0
460
0.0
461
0.0
452
        0
462
0.0
453
        0
470

  0
HATCH
  5
37
330
34
100
AcDbEntity
  8
外形１
 62
     7
100
AcDbHatch
 10
0.0
 20
0.0
 30
0.0
210
0.0
220
0.0
230
1.0
  2
SOLID
 70
     1
 71
     0
 91
        1
 92
        1
 93
        1
 72
     4
 94
        3
 73
     0
 74
     0
 95
       65
 96
       61
 40
0.0
 40
0.0
 40
0.0
 40
0.0
 40
1.0
 40
1.0
 40
1.0
 40
2.0
 40
2.0
 40
2.0
 40
3.0
 40
3.0
 40
3.0
 40
4.0
 40
4.0
 40
4.0
 40
5.0
 40
5.0
 40
5.0
 40
6.0
 40
6.0
 40
6.0
 40
7.0
 40
7.0
 40
7.0
 40
8.0
 40
8.0
 40
8.0
 40
9.0
 40
9.0
 40
9.0
 40
10.0
 40
10.0
 40
10.0
 40
11.0
 40
11.0
 40
11.0
 40
12.0
 40
12.0
 40
12.0
 40
13.0
 40
13.0
 40
13.0
 40
14.0
 40
14.0
 40
14.0
 40
15.0
 40
15.0
 40
15.0
 40
16.0
 40
16.0
 40
16.0
 40
17.0
 40
17.0
 40
17.0
 40
18.0
 40
18.0
 40
18.0
 40
19.0
 40
19.0
 40
19.0
 40
20.0
 40
20.0
 40
20.0
 40
20.0
 10
-2.609056939019095
 20
1.863624403211805
 10
-2.609056939019095
 20
1.863624403211805
 10
-3.205058458116318
 20
1.863624403211805
 10
-3.205058458116318
 20
1.863624403211805
 10
-3.220216878255206
 20
1.863624403211805
 10
-3.234686279296874
 20
1.858112250434026
 10
-3.245366075303818
 20
1.84674343532986
 10
-3.256045871310763
 20
1.836063639322915
 10
-3.261558024088541
 20
1.821594238281249
 10
-3.261558024088541
 20
1.80643581814236
 10
-3.261558024088541
 20
1.80643581814236
 10
-3.242265489366318
 20
-0.3181545681423611
 10
-3.237786865234373
 20
-0.81700439453125
 10
-3.420721435546874
 20
-0.3443372938368055
 10
-4.262013753255208
 20
1.827106391059026
 10
-4.262013753255208
 20
1.827106391059026
 10
-4.270281982421873
 20
1.849155002170137
 10
-4.291986083984374
 20
1.863624403211805
 10
-4.315068223741318
 20
1.863624403211805
 10
-4.315068223741318
 20
1.863624403211805
 10
-5.054385715060762
 20
1.863624403211805
 10
-5.054385715060762
 20
1.863624403211805
 10
-5.085391574435762
 20
1.863624403211805
 10
-5.110885281032985
 20
1.838130696614583
 10
-5.110885281032985
 20
1.80643581814236
 10
-5.110885281032985
 20
1.80643581814236
 10
-5.110885281032985
 20
-2.27806939019097
 10
-5.110885281032985
 20
-2.27806939019097
 10
-5.110885281032985
 20
-2.30907524956597
 10
-5.085391574435762
 20
-2.334568956163193
 10
-5.054385715060762
 20
-2.334568956163193
 10
-5.054385715060762
 20
-2.334568956163193
 10
-4.454250081380208
 20
-2.334568956163193
 10
-4.454250081380208
 20
-2.334568956163193
 10
-4.439091661241318
 20
-2.334568956163193
 10
-4.424622260199652
 20
-2.328367784288194
 10
-4.414286973741318
 20
-2.318032497829859
 10
-4.403262668185762
 20
-2.307697211371526
 10
-4.397750515407985
 20
-2.29322781032986
 10
-4.397750515407985
 20
-2.27806939019097
 10
-4.397750515407985
 20
-2.27806939019097
 10
-4.41738755967882
 20
-0.0049953884548611
 10
-4.421866183810762
 20
0.4993665907118057
 10
-4.236520046657984
 20
0.0211873372395833
 10
-3.339072672526041
 20
-2.298739963107637
 10
-3.339072672526041
 20
-2.298739963107637
 10
-3.330459933810764
 20
-2.320788574218749
 10
-3.309444851345484
 20
-2.334568956163193
 10
-3.28636271158854
 20
-2.334568956163193
 10
-3.28636271158854
 20
-2.334568956163193
 10
-2.609056939019095
 20
-2.334568956163193
 10
-2.609056939019095
 20
-2.334568956163193
 10
-2.578051079644095
 20
-2.334568956163193
 10
-2.552557373046874
 20
-2.30907524956597
 10
-2.552557373046874
 20
-2.27806939019097
 10
-2.552557373046874
 20
-2.27806939019097
 10
-2.552557373046874
 20
1.80643581814236
 10
-2.552557373046874
 20
1.80643581814236
 10
-2.552557373046874
 20
1.838130696614583
 10
-2.578051079644095
 20
1.863624403211805
 10
-2.609056939019095
 20
1.863624403211805
 97
        0
 97
        0
 75
     0
 76
     1
 98
        1
 10
0.0
 20
0.0
450
        0
451
        0
460
0.0
461
0.0
452
        0
462
0.0
453
        0
470

  0
HATCH
  5
38
330
34
100
AcDbEntity
  8
外形１
 62
     7
100
AcDbHatch
 10
0.0
 20
0.0
 30
0.0
210
0.0
220
0.0
230
1.0
  2
SOLID
 70
     1
 71
     0
 91
        1
 92
        1
 93
        1
 72
     4
 94
        3
 73
     0
 74
     0
 95
       65
 96
       61
 40
0.0
 40
0.0
 40
0.0
 40
0.0
 40
1.0
 40
1.0
 40
1.0
 40
2.0
 40
2.0
 40
2.0
 40
3.0
 40
3.0
 40
3.0
 40
4.0
 40
4.0
 40
4.0
 40
5.0
 40
5.0
 40
5.0
 40
6.0
 40
6.0
 40
6.0
 40
7.0
 40
7.0
 40
7.0
 40
8.0
 40
8.0
 40
8.0
 40
9.0
 40
9.0
 40
9.0
 40
10.0
 40
10.0
 40
10.0
 40
11.0
 40
11.0
 40
11.0
 40
12.0
 40
12.0
 40
12.0
 40
13.0
 40
13.0
 40
13.0
 40
14.0
 40
14.0
 40
14.0
 40
15.0
 40
15.0
 40
15.0
 40
16.0
 40
16.0
 40
16.0
 40
17.0
 40
17.0
 40
17.0
 40
18.0
 40
18.0
 40
18.0
 40
19.0
 40
19.0
 40
19.0
 40
20.0
 40
20.0
 40
20.0
 40
20.0
 10
0.1876715766059028
 20
1.863624403211805
 10
0.1876715766059028
 20
1.863624403211805
 10
-0.7831563313802084
 20
1.863624403211805
 10
-0.7831563313802084
 20
1.863624403211805
 10
-1.714021131727429
 20
1.863624403211805
 10
-2.147758653428819
 20
1.173227267795137
 10
-2.147758653428819
 20
-0.3088528103298611
 10
-2.147758653428819
 20
-1.07159695095486
 10
-2.004098171657985
 20
-1.609720865885416
 10
-1.708853488498263
 20
-1.956297471788194
 10
-1.410852728949651
 20
-2.306319173177083
 10
-1.120775689019096
 20
-2.334568956163193
 10
-0.7986592610677084
 20
-2.334568956163193
 10
-0.7986592610677084
 20
-2.334568956163193
 10
0.1876715766059028
 20
-2.334568956163193
 10
0.1876715766059028
 20
-2.334568956163193
 10
0.2186774359809028
 20
-2.334568956163193
 10
0.2448601616753472
 20
-2.30907524956597
 10
0.2448601616753472
 20
-2.27806939019097
 10
0.2448601616753472
 20
-2.27806939019097
 10
0.2448601616753472
 20
-1.567001681857638
 10
0.2448601616753472
 20
-1.567001681857638
 10
0.2448601616753472
 20
-1.535306803385416
 10
0.2186774359809028
 20
-1.509813096788194
 10
0.1876715766059028
 20
-1.509813096788194
 10
0.1876715766059028
 20
-1.509813096788194
 10
-0.7721320258246527
 20
-1.509813096788194
 10
-0.7721320258246527
 20
-1.509813096788194
 10
-1.132489013671873
 20
-1.509813096788194
 10
-1.357798258463541
 20
-1.355472819010415
 10
-1.373645697699652
 20
-0.6223564995659722
 10
-1.263402642144096
 20
-0.6223564995659722
 10
0.1876715766059028
 20
-0.6223564995659722
 10
0.1876715766059028
 20
-0.6223564995659722
 10
0.2186774359809028
 20
-0.6223564995659722
 10
0.2448601616753472
 20
-0.59686279296875
 10
0.2448601616753472
 20
-0.5655124240451388
 10
0.2448601616753472
 20
-0.5655124240451388
 10
0.2448601616753472
 20
0.1452107747395833
 10
0.2448601616753472
 20
0.1452107747395833
 10
0.2448601616753472
 20
0.1769056532118055
 10
0.2186774359809028
 20
0.2023993598090278
 10
0.1876715766059028
 20
0.2023993598090278
 10
0.1876715766059028
 20
0.2023993598090278
 10
-1.252378336588541
 20
0.2023993598090278
 10
-1.367444525824651
 20
0.2023993598090278
 10
-1.323347303602429
 20
0.9455064561631944
 10
-1.009154595269097
 20
1.038868543836805
 10
-0.7721320258246527
 20
1.038868543836805
 10
-0.7721320258246527
 20
1.038868543836805
 10
0.1876715766059028
 20
1.038868543836805
 10
0.1876715766059028
 20
1.038868543836805
 10
0.2186774359809028
 20
1.038868543836805
 10
0.2448601616753472
 20
1.064362250434027
 10
0.2448601616753472
 20
1.096057128906249
 10
0.2448601616753472
 20
1.096057128906249
 10
0.2448601616753472
 20
1.80643581814236
 10
0.2448601616753472
 20
1.80643581814236
 10
0.2448601616753472
 20
1.838130696614583
 10
0.2186774359809028
 20
1.863624403211805
 10
0.1876715766059028
 20
1.863624403211805
 97
        0
 97
        0
 75
     0
 76
     1
 98
        1
 10
0.0
 20
0.0
450
        0
451
        0
460
0.0
461
0.0
452
        0
462
0.0
453
        0
470

  0
HATCH
  5
39
330
34
100
AcDbEntity
  8
外形１
 62
     7
100
AcDbHatch
 10
0.0
 20
0.0
 30
0.0
210
0.0
220
0.0
230
1.0
  2
SOLID
 70
     1
 71
     0
 91
        1
 92
        1
 93
        1
 72
     4
 94
        3
 73
     0
 74
     0
 95
       65
 96
       61
 40
0.0
 40
0.0
 40
0.0
 40
0.0
 40
1.0
 40
1.0
 40
1.0
 40
2.0
 40
2.0
 40
2.0
 40
3.0
 40
3.0
 40
3.0
 40
4.0
 40
4.0
 40
4.0
 40
5.0
 40
5.0
 40
5.0
 40
6.0
 40
6.0
 40
6.0
 40
7.0
 40
7.0
 40
7.0
 40
8.0
 40
8.0
 40
8.0
 40
9.0
 40
9.0
 40
9.0
 40
10.0
 40
10.0
 40
10.0
 40
11.0
 40
11.0
 40
11.0
 40
12.0
 40
12.0
 40
12.0
 40
13.0
 40
13.0
 40
13.0
 40
14.0
 40
14.0
 40
14.0
 40
15.0
 40
15.0
 40
15.0
 40
16.0
 40
16.0
 40
16.0
 40
17.0
 40
17.0
 40
17.0
 40
18.0
 40
18.0
 40
18.0
 40
19.0
 40
19.0
 40
19.0
 40
20.0
 40
20.0
 40
20.0
 40
20.0
 10
3.387820773654513
 20
1.863624403211805
 10
3.387820773654513
 20
1.863624403211805
 10
2.417337375217012
 20
1.863624403211805
 10
2.417337375217012
 20
1.863624403211805
 10
1.486128065321179
 20
1.863624403211805
 10
1.05239054361979
 20
1.173227267795137
 10
1.05239054361979
 20
-0.3088528103298611
 10
1.05239054361979
 20
-1.07159695095486
 10
1.195706515842012
 20
-1.609720865885416
 10
1.491640218098958
 20
-1.956297471788194
 10
1.788951958550346
 20
-2.306319173177083
 10
2.079373508029513
 20
-2.334568956163193
 10
2.401489935980901
 20
-2.334568956163193
 10
2.401489935980901
 20
-2.334568956163193
 10
3.387820773654513
 20
-2.334568956163193
 10
3.387820773654513
 20
-2.334568956163193
 10
3.419171142578123
 20
-2.334568956163193
 10
3.444320339626735
 20
-2.30907524956597
 10
3.444320339626735
 20
-2.27806939019097
 10
3.444320339626735
 20
-2.27806939019097
 10
3.444320339626735
 20
-1.567001681857638
 10
3.444320339626735
 20
-1.567001681857638
 10
3.444320339626735
 20
-1.535306803385416
 10
3.419171142578123
 20
-1.509813096788194
 10
3.387820773654513
 20
-1.509813096788194
 10
3.387820773654513
 20
-1.509813096788194
 10
2.428361680772568
 20
-1.509813096788194
 10
2.428361680772568
 20
-1.509813096788194
 10
2.068004692925346
 20
-1.509813096788194
 10
1.84269544813368
 20
-1.355472819010415
 10
1.826848008897569
 20
-0.6223564995659722
 10
1.936402045355901
 20
-0.6223564995659722
 10
3.387820773654513
 20
-0.6223564995659722
 10
3.387820773654513
 20
-0.6223564995659722
 10
3.419171142578123
 20
-0.6223564995659722
 10
3.444320339626735
 20
-0.59686279296875
 10
3.444320339626735
 20
-0.5655124240451388
 10
3.444320339626735
 20
-0.5655124240451388
 10
3.444320339626735
 20
0.1452107747395833
 10
3.444320339626735
 20
0.1452107747395833
 10
3.444320339626735
 20
0.1769056532118055
 10
3.419171142578123
 20
0.2023993598090278
 10
3.387820773654513
 20
0.2023993598090278
 10
3.387820773654513
 20
0.2023993598090278
 10
1.947081841362845
 20
0.2023993598090278
 10
1.833049180772569
 20
0.2023993598090278
 10
1.877146402994791
 20
0.9455064561631944
 10
2.191339111328124
 20
1.038868543836805
 10
2.428361680772568
 20
1.038868543836805
 10
2.428361680772568
 20
1.038868543836805
 10
3.387820773654513
 20
1.038868543836805
 10
3.387820773654513
 20
1.038868543836805
 10
3.419171142578123
 20
1.038868543836805
 10
3.444320339626735
 20
1.064362250434027
 10
3.444320339626735
 20
1.096057128906249
 10
3.444320339626735
 20
1.096057128906249
 10
3.444320339626735
 20
1.80643581814236
 10
3.444320339626735
 20
1.80643581814236
 10
3.444320339626735
 20
1.838130696614583
 10
3.419171142578123
 20
1.863624403211805
 10
3.387820773654513
 20
1.863624403211805
 97
        0
 97
        0
 75
     0
 76
     1
 98
        1
 10
0.0
 20
0.0
450
        0
451
        0
460
0.0
461
0.0
452
        0
462
0.0
453
        0
470

  0
INSERT
  5
3A
330
34
100
AcDbEntity
  8
外形１
 62
     7
100
AcDbBlockReference
  2
AI9-BLK4
 10
5.210707
 20
0.0
 30
0.0
  0
HATCH
  5
3B
330
34
100
AcDbEntity
  8
外形１
 62
     7
100
AcDbHatch
 10
0.0
 20
0.0
 30
0.0
210
0.0
220
0.0
230
1.0
  2
SOLID
 70
     1
 71
     0
 91
        1
 92
        1
 93
        1
 72
     4
 94
        3
 73
     0
 74
     0
 95
       65
 96
       61
 40
0.0
 40
0.0
 40
0.0
 40
0.0
 40
1.0
 40
1.0
 40
1.0
 40
2.0
 40
2.0
 40
2.0
 40
3.0
 40
3.0
 40
3.0
 40
4.0
 40
4.0
 40
4.0
 40
5.0
 40
5.0
 40
5.0
 40
6.0
 40
6.0
 40
6.0
 40
7.0
 40
7.0
 40
7.0
 40
8.0
 40
8.0
 40
8.0
 40
9.0
 40
9.0
 40
9.0
 40
10.0
 40
10.0
 40
10.0
 40
11.0
 40
11.0
 40
11.0
 40
12.0
 40
12.0
 40
12.0
 40
13.0
 40
13.0
 40
13.0
 40
14.0
 40
14.0
 40
14.0
 40
15.0
 40
15.0
 40
15.0
 40
16.0
 40
16.0
 40
16.0
 40
17.0
 40
17.0
 40
17.0
 40
18.0
 40
18.0
 40
18.0
 40
19.0
 40
19.0
 40
19.0
 40
20.0
 40
20.0
 40
20.0
 40
20.0
 10
7.915193006727426
 20
1.038868543836805
 10
7.915193006727426
 20
1.038868543836805
 10
8.874307590060762
 20
1.038868543836805
 10
8.874307590060762
 20
1.038868543836805
 10
8.906002468532983
 20
1.038868543836805
 10
8.930807156032983
 20
1.064362250434027
 10
8.930807156032983
 20
1.096057128906249
 10
8.930807156032983
 20
1.096057128906249
 10
8.930807156032983
 20
1.80643581814236
 10
8.930807156032983
 20
1.80643581814236
 10
8.930807156032983
 20
1.838130696614583
 10
8.906002468532983
 20
1.863624403211805
 10
8.874307590060762
 20
1.863624403211805
 10
8.874307590060762
 20
1.863624403211805
 10
7.903479682074652
 20
1.863624403211805
 10
7.903479682074652
 20
1.863624403211805
 10
6.972614881727428
 20
1.863624403211805
 10
6.539221869574651
 20
1.173227267795137
 10
6.539221869574651
 20
-0.3088528103298611
 10
6.539221869574651
 20
-1.07159695095486
 10
6.682537841796873
 20
-1.609720865885416
 10
6.978127034505207
 20
-1.956297471788194
 10
7.275094265407985
 20
-2.306319173177083
 10
7.565860324435762
 20
-2.334568956163193
 10
7.888321261935762
 20
-2.334568956163193
 10
7.888321261935762
 20
-2.334568956163193
 10
8.874307590060762
 20
-2.334568956163193
 10
8.874307590060762
 20
-2.334568956163193
 10
8.906002468532983
 20
-2.334568956163193
 10
8.930807156032983
 20
-2.30907524956597
 10
8.930807156032983
 20
-2.27806939019097
 10
8.930807156032983
 20
-2.27806939019097
 10
8.930807156032983
 20
-1.567001681857638
 10
8.930807156032983
 20
-1.567001681857638
 10
8.930807156032983
 20
-1.535306803385416
 10
8.906002468532983
 20
-1.509813096788194
 10
8.874307590060762
 20
-1.509813096788194
 10
8.874307590060762
 20
-1.509813096788194
 10
7.915193006727426
 20
-1.509813096788194
 10
7.915193006727426
 20
-1.509813096788194
 10
7.554836018880206
 20
-1.509813096788194
 10
7.328837754991316
 20
-1.355472819010415
 10
7.312990315755207
 20
-0.6223564995659722
 10
7.423233371310762
 20
-0.6223564995659722
 10
8.874307590060762
 20
-0.6223564995659722
 10
8.874307590060762
 20
-0.6223564995659722
 10
8.906002468532983
 20
-0.6223564995659722
 10
8.930807156032983
 20
-0.59686279296875
 10
8.930807156032983
 20
-0.5655124240451388
 10
8.930807156032983
 20
-0.5655124240451388
 10
8.930807156032983
 20
0.1452107747395833
 10
8.930807156032983
 20
0.1452107747395833
 10
8.930807156032983
 20
0.1769056532118055
 10
8.906002468532983
 20
0.2023993598090278
 10
8.874307590060762
 20
0.2023993598090278
 10
8.874307590060762
 20
0.2023993598090278
 10
7.434257676866316
 20
0.2023993598090278
 10
7.319191487630206
 20
0.2023993598090278
 10
7.36328870985243
 20
0.9455064561631944
 10
7.677481418185761
 20
1.038868543836805
 10
7.915193006727426
 20
1.038868543836805
 97
        0
 97
        0
 75
     0
 76
     1
 98
        1
 10
0.0
 20
0.0
450
        0
451
        0
460
0.0
461
0.0
452
        0
462
0.0
453
        0
470

  0
ENDBLK
  5
3D
330
34
100
AcDbEntity
  8
外形１
100
AcDbBlockEnd
  0
BLOCK
  5
40
330
3E
100
AcDbEntity
  8
外形１
 62
     7
100
AcDbBlockBegin
  2
AI9-BLK4
 70
     0
 10
0.0
 20
0.0
 30
0.0
  3
AI9-BLK4
  1

  0
HATCH
  5
3F
330
3E
100
AcDbEntity
  8
外形１
 62
     7
100
AcDbHatch
 10
0.0
 20
0.0
 30
0.0
210
0.0
220
0.0
230
1.0
  2
SOLID
 70
     1
 71
     0
 91
        1
 92
        1
 93
        1
 72
     4
 94
        3
 73
     0
 74
     0
 95
       62
 96
       58
 40
0.0
 40
0.0
 40
0.0
 40
0.0
 40
1.0
 40
1.0
 40
1.0
 40
2.0
 40
2.0
 40
2.0
 40
3.0
 40
3.0
 40
3.0
 40
4.0
 40
4.0
 40
4.0
 40
5.0
 40
5.0
 40
5.0
 40
6.0
 40
6.0
 40
6.0
 40
7.0
 40
7.0
 40
7.0
 40
8.0
 40
8.0
 40
8.0
 40
9.0
 40
9.0
 40
9.0
 40
10.0
 40
10.0
 40
10.0
 40
11.0
 40
11.0
 40
11.0
 40
12.0
 40
12.0
 40
12.0
 40
13.0
 40
13.0
 40
13.0
 40
14.0
 40
14.0
 40
14.0
 40
15.0
 40
15.0
 40
15.0
 40
16.0
 40
16.0
 40
16.0
 40
17.0
 40
17.0
 40
17.0
 40
18.0
 40
18.0
 40
18.0
 40
19.0
 40
19.0
 40
19.0
 40
19.0
 10
1.626860215928819
 20
2.334568956163193
 10
1.626860215928819
 20
2.334568956163193
 10
0.9502434624565971
 20
2.334568956163193
 10
0.9502434624565971
 20
2.334568956163193
 10
0.9268168131510416
 20
2.334568956163193
 10
0.9075242784288192
 20
2.322166612413193
 10
0.8978780110677082
 20
2.301840549045138
 10
0.8978780110677082
 20
2.301840549045138
 10
0.075189208984375
 20
0.7260538736979166
 10
-0.0150722927517361
 20
0.5338175455729166
 10
-0.1032667371961805
 20
0.7260538736979166
 10
-0.9163092719184028
 20
2.301840549045138
 10
-0.9163092719184028
 20
2.301840549045138
 10
-0.9259555392795135
 20
2.321477593315971
 10
-0.9459370930989582
 20
2.334568956163193
 10
-0.9693637424045139
 20
2.334568956163193
 10
-0.9693637424045139
 20
2.334568956163193
 10
-1.626171196831596
 20
2.334568956163193
 10
-1.626171196831596
 20
2.334568956163193
 10
-1.64615275065104
 20
2.334568956163193
 10
-1.664067247178819
 20
2.32457817925347
 10
-1.674402533637151
 20
2.30873074001736
 10
-1.680603705512151
 20
2.300462510850693
 10
-1.683359781901041
 20
2.290127224392359
 10
-1.683359781901041
 20
2.279791937934028
 10
-1.683359781901041
 20
2.27186821831597
 10
-1.681981743706596
 20
2.264289008246528
 10
-1.678192138671874
 20
2.257054307725693
 10
-1.678192138671874
 20
2.257054307725693
 10
-0.365093994140625
 20
-0.2840481228298611
 10
-0.3540696885850694
 20
-0.3057522243923611
 10
-0.3540696885850694
 20
-0.3295233832465278
 10
-0.3540696885850694
 20
-2.280136447482638
 10
-0.3540696885850694
 20
-2.280136447482638
 10
-0.3540696885850694
 20
-2.310453287760415
 10
-0.3292650010850694
 20
-2.334568956163193
 10
-0.2975701226128472
 20
-2.334568956163193
 10
-0.2975701226128472
 20
-2.334568956163193
 10
0.286029052734375
 20
-2.334568956163193
 10
0.286029052734375
 20
-2.334568956163193
 10
0.3177239312065972
 20
-2.334568956163193
 10
0.3432176378038194
 20
-2.310453287760415
 10
0.3432176378038194
 20
-2.280136447482638
 10
0.3432176378038194
 20
-2.280136447482638
 10
0.3432176378038194
 20
-0.33021240234375
 10
0.3432176378038194
 20
-0.3057522243923611
 10
0.354241943359375
 20
-0.2840481228298611
 10
1.678536648220485
 20
2.256709798177082
 10
1.678536648220485
 20
2.256709798177082
 10
1.681981743706596
 20
2.264289008246528
 10
1.683359781901041
 20
2.27186821831597
 10
1.683359781901041
 20
2.279791937934028
 10
1.683359781901041
 20
2.290127224392359
 10
1.680603705512151
 20
2.300462510850693
 10
1.675091552734374
 20
2.30873074001736
 10
1.664067247178819
 20
2.32457817925347
 10
1.64615275065104
 20
2.334568956163193
 10
1.626860215928819
 20
2.334568956163193
 97
        0
 97
        0
 75
     0
 76
     1
 98
        1
 10
0.0
 20
0.0
450
        0
451
        0
460
0.0
461
0.0
452
        0
462
0.0
453
        0
470

  0
ENDBLK
  5
41
330
3E
100
AcDbEntity
  8
外形１
100
AcDbBlockEnd
  0
BLOCK
  5
44
330
42
100
AcDbEntity
  8
外形１
 62
     7
100
AcDbBlockBegin
  2
AI9-BLK5
 70
     0
 10
0.0
 20
0.0
 30
0.0
  3
AI9-BLK5
  1

  0
HATCH
  5
43
330
42
100
AcDbEntity
  8
外形１
 62
     7
100
AcDbHatch
 10
0.0
 20
0.0
 30
0.0
210
0.0
220
0.0
230
1.0
  2
SOLID
 70
     1
 71
     0
 91
        1
 92
        1
 93
        1
 72
     4
 94
        3
 73
     0
 74
     0
 95
       17
 96
       13
 40
0.0
 40
0.0
 40
0.0
 40
0.0
 40
1.0
 40
1.0
 40
1.0
 40
2.0
 40
2.0
 40
2.0
 40
3.0
 40
3.0
 40
3.0
 40
4.0
 40
4.0
 40
4.0
 40
4.0
 10
-0.49144287109375
 20
-1.306380208333332
 10
-0.49144287109375
 20
-1.306380208333332
 10
0.2416734483506944
 20
1.306380208333332
 10
0.2416734483506944
 20
1.306380208333332
 10
0.2416734483506944
 20
1.306380208333332
 10
0.49144287109375
 20
1.306380208333332
 10
0.49144287109375
 20
1.306380208333332
 10
0.49144287109375
 20
1.306380208333332
 10
-0.2416734483506944
 20
-1.306380208333332
 10
-0.2416734483506944
 20
-1.306380208333332
 10
-0.2416734483506944
 20
-1.306380208333332
 10
-0.49144287109375
 20
-1.306380208333332
 10
-0.49144287109375
 20
-1.306380208333332
 97
        0
 97
        0
 75
     0
 76
     1
 98
        1
 10
0.0
 20
0.0
450
        0
451
        0
460
0.0
461
0.0
452
        0
462
0.0
453
        0
470

  0
ENDBLK
  5
45
330
42
100
AcDbEntity
  8
外形１
100
AcDbBlockEnd
  0
BLOCK
  5
26D9
330
26CF
100
AcDbEntity
  8
0
100
AcDbBlockBegin
  2
*D5
 70
     1
 10
0.0
 20
0.0
 30
0.0
  3
*D5
  1

  0
LINE
  5
26D0
330
26CF
100
AcDbEntity
  8
0
 62
     0
370
    -2
100
AcDbLine
 10
133.5799496199762
 20
194.8688128573029
 30
0.0
 11
133.5799496199762
 21
207.4015254713744
 31
0.0
  0
LINE
  5
26D1
330
26CF
100
AcDbEntity
  8
0
 62
     0
370
    -2
100
AcDbLine
 10
210.5799496199761
 20
194.8688128573029
 30
0.0
 11
210.5799496199761
 21
207.4015254713744
 31
0.0
  0
LINE
  5
26D2
330
26CF
100
AcDbEntity
  8
0
 62
     0
370
    -2
100
AcDbLine
 10
136.0799496199762
 20
206.1515254713745
 30
0.0
 11
208.0799496199762
 21
206.1515254713745
 31
0.0
  0
SOLID
  5
26D3
330
26CF
100
AcDbEntity
  8
0
 62
     0
100
AcDbTrace
 10
136.0799496199762
 20
206.5681921380411
 30
0.0
 11
136.0799496199762
 21
205.7348588047078
 31
0.0
 12
133.5799496199762
 22
206.1515254713745
 32
0.0
 13
133.5799496199762
 23
206.1515254713745
 33
0.0
  0
SOLID
  5
26D4
330
26CF
100
AcDbEntity
  8
0
 62
     0
100
AcDbTrace
 10
208.0799496199762
 20
206.5681921380411
 30
0.0
 11
208.0799496199762
 21
205.7348588047078
 31
0.0
 12
210.5799496199761
 22
206.1515254713745
 32
0.0
 13
210.5799496199761
 23
206.1515254713745
 33
0.0
  0
MTEXT
  5
26D5
330
26CF
100
AcDbEntity
  8
0
 62
     0
100
AcDbMText
 10
172.2136151148542
 20
208.0265254713745
 30
0.0
 40
2.5
 41
0.0
 46
0.0
 71
     5
 72
     1
  1
77
 73
     1
 44
1.0
  0
POINT
  5
26D6
330
26CF
100
AcDbEntity
  8
Defpoints
 62
     0
100
AcDbPoint
 10
133.5799496199762
 20
194.2438128573029
 30
0.0
  0
POINT
  5
26D7
330
26CF
100
AcDbEntity
  8
Defpoints
 62
     0
100
AcDbPoint
 10
210.5799496199761
 20
194.2438128573029
 30
0.0
  0
POINT
  5
26D8
330
26CF
100
AcDbEntity
  8
Defpoints
 62
     0
100
AcDbPoint
 10
210.5799496199761
 20
206.1515254713745
 30
0.0
  0
ENDBLK
  5
26DA
330
26CF
100
AcDbEntity
  8
0
100
AcDbBlockEnd
  0
BLOCK
  5
26E5
330
26DB
100
AcDbEntity
  8
0
100
AcDbBlockBegin
  2
*D6
 70
     1
 10
0.0
 20
0.0
 30
0.0
  3
*D6
  1

  0
LINE
  5
26DC
330
26DB
100
AcDbEntity
  8
0
 62
     0
370
    -2
100
AcDbLine
 10
132.9549496199762
 20
194.2438128573029
 30
0.0
 11
119.6841173115653
 21
194.2438128573029
 31
0.0
  0
LINE
  5
26DD
330
26DB
100
AcDbEntity
  8
0
 62
     0
370
    -2
100
AcDbLine
 10
132.9549496199762
 20
161.2438128573029
 30
0.0
 11
119.6841173115653
 21
161.2438128573029
 31
0.0
  0
LINE
  5
26DE
330
26DB
100
AcDbEntity
  8
0
 62
     0
370
    -2
100
AcDbLine
 10
120.9341173115653
 20
191.7438128573029
 30
0.0
 11
120.9341173115653
 21
163.7438128573029
 31
0.0
  0
SOLID
  5
26DF
330
26DB
100
AcDbEntity
  8
0
 62
     0
100
AcDbTrace
 10
120.5174506448987
 20
191.7438128573029
 30
0.0
 11
121.350783978232
 21
191.7438128573029
 31
0.0
 12
120.9341173115653
 22
194.2438128573029
 32
0.0
 13
120.9341173115653
 23
194.2438128573029
 33
0.0
  0
SOLID
  5
26E0
330
26DB
100
AcDbEntity
  8
0
 62
     0
100
AcDbTrace
 10
120.5174506448987
 20
163.7438128573029
 30
0.0
 11
121.350783978232
 21
163.7438128573029
 31
0.0
 12
120.9341173115653
 22
161.2438128573029
 32
0.0
 13
120.9341173115653
 23
161.2438128573029
 33
0.0
  0
MTEXT
  5
26E1
330
26DB
100
AcDbEntity
  8
0
 62
     0
100
AcDbMText
 10
119.0591173115653
 20
177.7438128573029
 30
0.0
 40
2.5
 41
0.0
 46
0.0
 71
     5
 72
     1
  1
33
 11
0.0000000000000001
 21
1.0
 31
0.0
 73
     1
 44
1.0
  0
POINT
  5
26E2
330
26DB
100
AcDbEntity
  8
Defpoints
 62
     0
100
AcDbPoint
 10
133.5799496199762
 20
194.2438128573029
 30
0.0
  0
POINT
  5
26E3
330
26DB
100
AcDbEntity
  8
Defpoints
 62
     0
100
AcDbPoint
 10
133.5799496199762
 20
161.2438128573029
 30
0.0
  0
POINT
  5
26E4
330
26DB
100
AcDbEntity
  8
Defpoints
 62
     0
100
AcDbPoint
 10
120.9341173115653
 20
161.2438128573029
 30
0.0
  0
ENDBLK
  5
26E6
330
26DB
100
AcDbEntity
  8
0
100
AcDbBlockEnd
  0
BLOCK
  5
26F1
330
26E7
100
AcDbEntity
  8
0
100
AcDbBlockBegin
  2
*D7
 70
     1
 10
0.0
 20
0.0
 30
0.0
  3
*D7
  1

  0
LINE
  5
26E8
330
26E7
100
AcDbEntity
  8
0
 62
     0
370
    -2
100
AcDbLine
 10
233.9562856199762
 20
194.8688128573029
 30
0.0
 11
233.9562856199762
 21
207.4015254713744
 31
0.0
  0
LINE
  5
26E9
330
26E7
100
AcDbEntity
  8
0
 62
     0
370
    -2
100
AcDbLine
 10
241.9562856199762
 20
194.8688128573029
 30
0.0
 11
241.9562856199762
 21
207.4015254713744
 31
0.0
  0
LINE
  5
26EA
330
26E7
100
AcDbEntity
  8
0
 62
     0
370
    -2
100
AcDbLine
 10
236.4562856199762
 20
206.1515254713745
 30
0.0
 11
239.4562856199761
 21
206.1515254713745
 31
0.0
  0
SOLID
  5
26EB
330
26E7
100
AcDbEntity
  8
0
 62
     0
100
AcDbTrace
 10
236.4562856199762
 20
206.5681921380411
 30
0.0
 11
236.4562856199762
 21
205.7348588047078
 31
0.0
 12
233.9562856199762
 22
206.1515254713745
 32
0.0
 13
233.9562856199762
 23
206.1515254713745
 33
0.0
  0
SOLID
  5
26EC
330
26E7
100
AcDbEntity
  8
0
 62
     0
100
AcDbTrace
 10
239.4562856199761
 20
206.5681921380411
 30
0.0
 11
239.4562856199761
 21
205.7348588047078
 31
0.0
 12
241.9562856199762
 22
206.1515254713745
 32
0.0
 13
241.9562856199762
 23
206.1515254713745
 33
0.0
  0
MTEXT
  5
26ED
330
26E7
100
AcDbEntity
  8
0
 62
     0
100
AcDbMText
 10
237.9562856199762
 20
208.0265254713745
 30
0.0
 40
2.5
 41
0.0
 46
0.0
 71
     5
 72
     1
  1
8
 73
     1
 44
1.0
  0
POINT
  5
26EE
330
26E7
100
AcDbEntity
  8
Defpoints
 62
     0
100
AcDbPoint
 10
233.9562856199762
 20
194.2438128573029
 30
0.0
  0
POINT
  5
26EF
330
26E7
100
AcDbEntity
  8
Defpoints
 62
     0
100
AcDbPoint
 10
241.9562856199762
 20
194.2438128573029
 30
0.0
  0
POINT
  5
26F0
330
26E7
100
AcDbEntity
  8
Defpoints
 62
     0
100
AcDbPoint
 10
241.9562856199762
 20
206.1515254713745
 30
0.0
  0
ENDBLK
  5
26F2
330
26E7
100
AcDbEntity
  8
0
100
AcDbBlockEnd
  0
BLOCK
  5
26FD
330
26F3
100
AcDbEntity
  8
0
100
AcDbBlockBegin
  2
*D8
 70
     1
 10
0.0
 20
0.0
 30
0.0
  3
*D8
  1

  0
LINE
  5
26F4
330
26F3
100
AcDbEntity
  8
0
 62
     0
370
    -2
100
AcDbLine
 10
216.2049496199761
 20
186.2438128573029
 30
0.0
 11
225.4365162135802
 21
186.2438128573029
 31
0.0
  0
LINE
  5
26F5
330
26F3
100
AcDbEntity
  8
0
 62
     0
370
    -2
100
AcDbLine
 10
216.2049496199761
 20
169.2438128573029
 30
0.0
 11
225.4365162135802
 21
169.2438128573029
 31
0.0
  0
LINE
  5
26F6
330
26F3
100
AcDbEntity
  8
0
 62
     0
370
    -2
100
AcDbLine
 10
224.1865162135802
 20
183.7438128573029
 30
0.0
 11
224.1865162135802
 21
171.7438128573029
 31
0.0
  0
SOLID
  5
26F7
330
26F3
100
AcDbEntity
  8
0
 62
     0
100
AcDbTrace
 10
223.7698495469135
 20
183.7438128573029
 30
0.0
 11
224.6031828802469
 21
183.7438128573029
 31
0.0
 12
224.1865162135802
 22
186.2438128573029
 32
0.0
 13
224.1865162135802
 23
186.2438128573029
 33
0.0
  0
SOLID
  5
26F8
330
26F3
100
AcDbEntity
  8
0
 62
     0
100
AcDbTrace
 10
223.7698495469135
 20
171.7438128573029
 30
0.0
 11
224.6031828802469
 21
171.7438128573029
 31
0.0
 12
224.1865162135802
 22
169.2438128573029
 32
0.0
 13
224.1865162135802
 23
169.2438128573029
 33
0.0
  0
MTEXT
  5
26F9
330
26F3
100
AcDbEntity
  8
0
 62
     0
100
AcDbMText
 10
222.3115162135802
 20
177.743812857303
 30
0.0
 40
2.5
 41
0.0
 46
0.0
 71
     5
 72
     1
  1
17
 11
0.0000000000000001
 21
1.0
 31
0.0
 73
     1
 44
1.0
  0
POINT
  5
26FA
330
26F3
100
AcDbEntity
  8
Defpoints
 62
     0
100
AcDbPoint
 10
215.5799496199761
 20
186.2438128573029
 30
0.0
  0
POINT
  5
26FB
330
26F3
100
AcDbEntity
  8
Defpoints
 62
     0
100
AcDbPoint
 10
215.5799496199761
 20
169.2438128573029
 30
0.0
  0
POINT
  5
26FC
330
26F3
100
AcDbEntity
  8
Defpoints
 62
     0
100
AcDbPoint
 10
224.1865162135802
 20
169.2438128573029
 30
0.0
  0
ENDBLK
  5
26FE
330
26F3
100
AcDbEntity
  8
0
100
AcDbBlockEnd
  0
BLOCK
  5
270B
330
26FF
100
AcDbEntity
  8
0
100
AcDbBlockBegin
  2
*D9
 70
     1
 10
0.0
 20
0.0
 30
0.0
  3
*D9
  1

  0
LINE
  5
2700
330
26FF
100
AcDbEntity
  8
0
 62
     0
370
    -2
100
AcDbLine
 10
216.0799496199762
 20
186.3688128573029
 30
0.0
 11
216.0799496199762
 21
207.4015254713744
 31
0.0
  0
LINE
  5
2701
330
26FF
100
AcDbEntity
  8
0
 62
     0
370
    -2
100
AcDbLine
 10
210.5799496199761
 20
194.8688128573029
 30
0.0
 11
210.5799496199761
 21
207.4015254713744
 31
0.0
  0
LINE
  5
2702
330
26FF
100
AcDbEntity
  8
0
 62
     0
370
    -2
100
AcDbLine
 10
218.5799496199761
 20
206.1515254713745
 30
0.0
 11
221.0799496199761
 21
206.1515254713745
 31
0.0
  0
LINE
  5
2703
330
26FF
100
AcDbEntity
  8
0
 62
     0
370
    -2
100
AcDbLine
 10
208.0799496199762
 20
206.1515254713745
 30
0.0
 11
198.9132829533095
 21
206.1515254713745
 31
0.0
  0
LINE
  5
2704
330
26FF
100
AcDbEntity
  8
0
 62
     0
370
    -2
100
AcDbLine
 10
216.0799496199762
 20
206.1515254713745
 30
0.0
 11
210.5799496199761
 21
206.1515254713745
 31
0.0
  0
SOLID
  5
2705
330
26FF
100
AcDbEntity
  8
0
 62
     0
100
AcDbTrace
 10
218.5799496199761
 20
206.5681921380411
 30
0.0
 11
218.5799496199761
 21
205.7348588047078
 31
0.0
 12
216.0799496199762
 22
206.1515254713745
 32
0.0
 13
216.0799496199762
 23
206.1515254713745
 33
0.0
  0
SOLID
  5
2706
330
26FF
100
AcDbEntity
  8
0
 62
     0
100
AcDbTrace
 10
208.0799496199762
 20
206.5681921380411
 30
0.0
 11
208.0799496199762
 21
205.7348588047078
 31
0.0
 12
210.5799496199761
 22
206.1515254713745
 32
0.0
 13
210.5799496199761
 23
206.1515254713745
 33
0.0
  0
MTEXT
  5
2707
330
26FF
100
AcDbEntity
  8
0
 62
     0
100
AcDbMText
 10
202.2466162866428
 20
208.2348588047078
 30
0.0
 40
2.5
 41
0.0
 46
0.0
 71
     5
 72
     1
  1
5,5
 73
     1
 44
1.0
  0
POINT
  5
2708
330
26FF
100
AcDbEntity
  8
Defpoints
 62
     0
100
AcDbPoint
 10
216.0799496199762
 20
185.7438128573028
 30
0.0
  0
POINT
  5
2709
330
26FF
100
AcDbEntity
  8
Defpoints
 62
     0
100
AcDbPoint
 10
210.5799496199761
 20
194.2438128573029
 30
0.0
  0
POINT
  5
270A
330
26FF
100
AcDbEntity
  8
Defpoints
 62
     0
100
AcDbPoint
 10
210.5799496199761
 20
206.1515254713745
 30
0.0
  0
ENDBLK
  5
270C
330
26FF
100
AcDbEntity
  8
0
100
AcDbBlockEnd
  0
BLOCK
  5
2717
330
270D
100
AcDbEntity
  8
0
100
AcDbBlockBegin
  2
*D10
 70
     1
 10
0.0
 20
0.0
 30
0.0
  3
*D10
  1

  0
LINE
  5
270E
330
270D
100
AcDbEntity
  8
DOTTED
  6
Continuous
 62
     0
370
    -2
100
AcDbLine
 10
132.4549496199762
 20
190.2438128573029
 30
0.0
 11
129.2768849943368
 21
190.2438128573029
 31
0.0
  0
LINE
  5
270F
330
270D
100
AcDbEntity
  8
DOTTED
  6
Continuous
 62
     0
370
    -2
100
AcDbLine
 10
132.4549496199762
 20
165.2438128573029
 30
0.0
 11
129.2768849943368
 21
165.2438128573029
 31
0.0
  0
LINE
  5
2710
330
270D
100
AcDbEntity
  8
DOTTED
  6
Continuous
 62
     0
370
    -2
100
AcDbLine
 10
130.5268849943368
 20
187.7438128573029
 30
0.0
 11
130.5268849943368
 21
167.7438128573029
 31
0.0
  0
SOLID
  5
2711
330
270D
100
AcDbEntity
  8
DOTTED
  6
Continuous
 62
     0
100
AcDbTrace
 10
130.1102183276702
 20
187.7438128573029
 30
0.0
 11
130.9435516610035
 21
187.7438128573029
 31
0.0
 12
130.5268849943368
 22
190.2438128573029
 32
0.0
 13
130.5268849943368
 23
190.2438128573029
 33
0.0
  0
SOLID
  5
2712
330
270D
100
AcDbEntity
  8
DOTTED
  6
Continuous
 62
     0
100
AcDbTrace
 10
130.1102183276702
 20
167.7438128573029
 30
0.0
 11
130.9435516610035
 21
167.7438128573029
 31
0.0
 12
130.5268849943368
 22
165.2438128573029
 32
0.0
 13
130.5268849943368
 23
165.2438128573029
 33
0.0
  0
MTEXT
  5
2713
330
270D
100
AcDbEntity
  8
DOTTED
  6
Continuous
 62
     0
100
AcDbMText
 10
128.6518849943368
 20
177.7438128573029
 30
0.0
 40
2.5
 41
0.0
 46
0.0
 71
     5
 72
     1
  1
25
 11
0.0000000000000001
 21
1.0
 31
0.0
 73
     1
 44
1.0
  0
POINT
  5
2714
330
270D
100
AcDbEntity
  8
Defpoints
  6
Continuous
 62
     0
100
AcDbPoint
 10
133.0799496199762
 20
190.2438128573029
 30
0.0
  0
POINT
  5
2715
330
270D
100
AcDbEntity
  8
Defpoints
  6
Continuous
 62
     0
100
AcDbPoint
 10
133.0799496199762
 20
165.2438128573029
 30
0.0
  0
POINT
  5
2716
330
270D
100
AcDbEntity
  8
Defpoints
  6
Continuous
 62
     0
100
AcDbPoint
 10
130.5268849943368
 20
165.2438128573029
 30
0.0
  0
ENDBLK
  5
2718
330
270D
100
AcDbEntity
  8
0
100
AcDbBlockEnd
  0
BLOCK
  5
2723
330
2719
100
AcDbEntity
  8
0
100
AcDbBlockBegin
  2
*D11
 70
     1
 10
0.0
 20
0.0
 30
0.0
  3
*D11
  1

  0
LINE
  5
271A
330
2719
100
AcDbEntity
  8
DOTTED
  6
Continuous
 62
     0
370
    -2
100
AcDbLine
 10
137.0799496199762
 20
194.8688128573029
 30
0.0
 11
137.0799496199762
 21
198.9310023240239
 31
0.0
  0
LINE
  5
271B
330
2719
100
AcDbEntity
  8
DOTTED
  6
Continuous
 62
     0
370
    -2
100
AcDbLine
 10
207.0799496199761
 20
194.8688128573029
 30
0.0
 11
207.0799496199761
 21
198.9310023240239
 31
0.0
  0
LINE
  5
271C
330
2719
100
AcDbEntity
  8
DOTTED
  6
Continuous
 62
     0
370
    -2
100
AcDbLine
 10
139.5799496199762
 20
197.6810023240239
 30
0.0
 11
204.5799496199761
 21
197.6810023240239
 31
0.0
  0
SOLID
  5
271D
330
2719
100
AcDbEntity
  8
DOTTED
  6
Continuous
 62
     0
100
AcDbTrace
 10
139.5799496199762
 20
198.0976689906906
 30
0.0
 11
139.5799496199762
 21
197.2643356573573
 31
0.0
 12
137.0799496199762
 22
197.6810023240239
 32
0.0
 13
137.0799496199762
 23
197.6810023240239
 33
0.0
  0
SOLID
  5
271E
330
2719
100
AcDbEntity
  8
DOTTED
  6
Continuous
 62
     0
100
AcDbTrace
 10
204.5799496199761
 20
198.0976689906906
 30
0.0
 11
204.5799496199761
 21
197.2643356573573
 31
0.0
 12
207.0799496199761
 22
197.6810023240239
 32
0.0
 13
207.0799496199761
 23
197.6810023240239
 33
0.0
  0
MTEXT
  5
271F
330
2719
100
AcDbEntity
  8
DOTTED
  6
Continuous
 62
     0
100
AcDbMText
 10
172.0799496199762
 20
199.5560023240239
 30
0.0
 40
2.5
 41
0.0
 46
0.0
 71
     5
 72
     1
  1
70
 73
     1
 44
1.0
  0
POINT
  5
2720
330
2719
100
AcDbEntity
  8
Defpoints
  6
Continuous
 62
     0
100
AcDbPoint
 10
137.0799496199762
 20
194.2438128573029
 30
0.0
  0
POINT
  5
2721
330
2719
100
AcDbEntity
  8
Defpoints
  6
Continuous
 62
     0
100
AcDbPoint
 10
207.0799496199761
 20
194.2438128573029
 30
0.0
  0
POINT
  5
2722
330
2719
100
AcDbEntity
  8
Defpoints
  6
Continuous
 62
     0
100
AcDbPoint
 10
207.0799496199761
 20
197.6810023240239
 30
0.0
  0
ENDBLK
  5
2724
330
2719
100
AcDbEntity
  8
0
100
AcDbBlockEnd
  0
BLOCK
  5
2731
330
2725
100
AcDbEntity
  8
0
100
AcDbBlockBegin
  2
*D12
 70
     1
 10
0.0
 20
0.0
 30
0.0
  3
*D12
  1

  0
LINE
  5
2726
330
2725
100
AcDbEntity
  8
DOTTED
  6
Continuous
 62
     0
370
    -2
100
AcDbLine
 10
237.9562856199762
 20
193.8688128573028
 30
0.0
 11
237.9562856199762
 21
198.9310023240239
 31
0.0
  0
LINE
  5
2727
330
2725
100
AcDbEntity
  8
DOTTED
  6
Continuous
 62
     0
370
    -2
100
AcDbLine
 10
233.9562856199762
 20
194.8688128573029
 30
0.0
 11
233.9562856199762
 21
198.9310023240239
 31
0.0
  0
LINE
  5
2728
330
2725
100
AcDbEntity
  8
DOTTED
  6
Continuous
 62
     0
370
    -2
100
AcDbLine
 10
240.4562856199762
 20
197.6810023240239
 30
0.0
 11
242.9562856199761
 21
197.6810023240239
 31
0.0
  0
LINE
  5
2729
330
2725
100
AcDbEntity
  8
DOTTED
  6
Continuous
 62
     0
370
    -2
100
AcDbLine
 10
231.4562856199762
 20
197.6810023240239
 30
0.0
 11
228.9562856199761
 21
197.6810023240239
 31
0.0
  0
LINE
  5
272A
330
2725
100
AcDbEntity
  8
DOTTED
  6
Continuous
 62
     0
370
    -2
100
AcDbLine
 10
237.9562856199762
 20
197.6810023240239
 30
0.0
 11
233.9562856199762
 21
197.6810023240239
 31
0.0
  0
SOLID
  5
272B
330
2725
100
AcDbEntity
  8
DOTTED
  6
Continuous
 62
     0
100
AcDbTrace
 10
240.4562856199762
 20
198.0976689906906
 30
0.0
 11
240.4562856199762
 21
197.2643356573573
 31
0.0
 12
237.9562856199762
 22
197.6810023240239
 32
0.0
 13
237.9562856199762
 23
197.6810023240239
 33
0.0
  0
SOLID
  5
272C
330
2725
100
AcDbEntity
  8
DOTTED
  6
Continuous
 62
     0
100
AcDbTrace
 10
231.4562856199762
 20
198.0976689906906
 30
0.0
 11
231.4562856199762
 21
197.2643356573573
 31
0.0
 12
233.9562856199762
 22
197.6810023240239
 32
0.0
 13
233.9562856199762
 23
197.6810023240239
 33
0.0
  0
MTEXT
  5
272D
330
2725
100
AcDbEntity
  8
DOTTED
  6
Continuous
 62
     0
100
AcDbMText
 10
235.9562856199762
 20
199.5560023240239
 30
0.0
 40
2.5
 41
0.0
 46
0.0
 71
     5
 72
     1
  1
4
 73
     1
 44
1.0
  0
POINT
  5
272E
330
2725
100
AcDbEntity
  8
Defpoints
  6
Continuous
 62
     0
100
AcDbPoint
 10
237.9562856199762
 20
193.2438128573029
 30
0.0
  0
POINT
  5
272F
330
2725
100
AcDbEntity
  8
Defpoints
  6
Continuous
 62
     0
100
AcDbPoint
 10
233.9562856199762
 20
194.2438128573029
 30
0.0
  0
POINT
  5
2730
330
2725
100
AcDbEntity
  8
Defpoints
  6
Continuous
 62
     0
100
AcDbPoint
 10
233.9562856199762
 20
197.6810023240239
 30
0.0
  0
ENDBLK
  5
2732
330
2725
100
AcDbEntity
  8
0
100
AcDbBlockEnd
  0
BLOCK
  5
273D
330
2733
100
AcDbEntity
  8
0
100
AcDbBlockBegin
  2
*D13
 70
     1
 10
0.0
 20
0.0
 30
0.0
  3
*D13
  1

  0
LINE
  5
2734
330
2733
100
AcDbEntity
  8
0
 62
     0
370
    -2
100
AcDbLine
 10
157.5799496199761
 20
138.3993708573029
 30
0.0
 11
157.5799496199761
 21
116.1191556903644
 31
0.0
  0
LINE
  5
2735
330
2733
100
AcDbEntity
  8
0
 62
     0
370
    -2
100
AcDbLine
 10
193.079949619976
 20
138.3993708573029
 30
0.0
 11
193.079949619976
 21
116.1191556903644
 31
0.0
  0
LINE
  5
2736
330
2733
100
AcDbEntity
  8
0
 62
     0
370
    -2
100
AcDbLine
 10
160.0799496199762
 20
117.3691556903644
 30
0.0
 11
190.5799496199762
 21
117.3691556903644
 31
0.0
  0
SOLID
  5
2737
330
2733
100
AcDbEntity
  8
0
 62
     0
100
AcDbTrace
 10
160.0799496199762
 20
117.785822357031
 30
0.0
 11
160.0799496199762
 21
116.9524890236977
 31
0.0
 12
157.5799496199761
 22
117.3691556903644
 32
0.0
 13
157.5799496199761
 23
117.3691556903644
 33
0.0
  0
SOLID
  5
2738
330
2733
100
AcDbEntity
  8
0
 62
     0
100
AcDbTrace
 10
190.5799496199762
 20
117.785822357031
 30
0.0
 11
190.5799496199762
 21
116.9524890236977
 31
0.0
 12
193.079949619976
 22
117.3691556903644
 32
0.0
 13
193.079949619976
 23
117.3691556903644
 33
0.0
  0
MTEXT
  5
2739
330
2733
100
AcDbEntity
  8
0
 62
     0
100
AcDbMText
 10
175.329949619976
 20
119.4524890236977
 30
0.0
 40
2.5
 41
0.0
 46
0.0
 71
     5
 72
     1
  1
35,5
 73
     1
 44
1.0
  0
POINT
  5
273A
330
2733
100
AcDbEntity
  8
Defpoints
 62
     0
100
AcDbPoint
 10
157.5799496199761
 20
139.0243708573029
 30
0.0
  0
POINT
  5
273B
330
2733
100
AcDbEntity
  8
Defpoints
 62
     0
100
AcDbPoint
 10
193.079949619976
 20
139.0243708573029
 30
0.0
  0
POINT
  5
273C
330
2733
100
AcDbEntity
  8
Defpoints
 62
     0
100
AcDbPoint
 10
193.079949619976
 20
117.3691556903644
 30
0.0
  0
ENDBLK
  5
273E
330
2733
100
AcDbEntity
  8
0
100
AcDbBlockEnd
  0
BLOCK
  5
2749
330
273F
100
AcDbEntity
  8
0
100
AcDbBlockBegin
  2
*D14
 70
     1
 10
0.0
 20
0.0
 30
0.0
  3
*D14
  1

  0
LINE
  5
2740
330
273F
100
AcDbEntity
  8
0
 62
     0
370
    -2
100
AcDbLine
 10
157.5799496199761
 20
137.7743708573029
 30
0.0
 11
157.5799496199761
 21
128.8868446560878
 31
0.0
  0
LINE
  5
2741
330
273F
100
AcDbEntity
  8
0
 62
     0
370
    -2
100
AcDbLine
 10
172.079949619976
 20
142.8993708573029
 30
0.0
 11
172.079949619976
 21
128.8868446560878
 31
0.0
  0
LINE
  5
2742
330
273F
100
AcDbEntity
  8
0
 62
     0
370
    -2
100
AcDbLine
 10
160.0799496199762
 20
130.1368446560878
 30
0.0
 11
169.5799496199762
 21
130.1368446560878
 31
0.0
  0
SOLID
  5
2743
330
273F
100
AcDbEntity
  8
0
 62
     0
100
AcDbTrace
 10
160.0799496199762
 20
130.5535113227545
 30
0.0
 11
160.0799496199762
 21
129.7201779894211
 31
0.0
 12
157.5799496199761
 22
130.1368446560878
 32
0.0
 13
157.5799496199761
 23
130.1368446560878
 33
0.0
  0
SOLID
  5
2744
330
273F
100
AcDbEntity
  8
0
 62
     0
100
AcDbTrace
 10
169.5799496199762
 20
130.5535113227545
 30
0.0
 11
169.5799496199762
 21
129.7201779894211
 31
0.0
 12
172.079949619976
 22
130.1368446560878
 32
0.0
 13
172.079949619976
 23
130.1368446560878
 33
0.0
  0
MTEXT
  5
2745
330
273F
100
AcDbEntity
  8
0
 62
     0
100
AcDbMText
 10
164.8299496199761
 20
132.2201779894211
 30
0.0
 40
2.5
 41
0.0
 46
0.0
 71
     5
 72
     1
  1
14,5
 73
     1
 44
1.0
  0
POINT
  5
2746
330
273F
100
AcDbEntity
  8
Defpoints
 62
     0
100
AcDbPoint
 10
157.5799496199761
 20
138.3993708573029
 30
0.0
  0
POINT
  5
2747
330
273F
100
AcDbEntity
  8
Defpoints
 62
     0
100
AcDbPoint
 10
172.079949619976
 20
143.5243708573029
 30
0.0
  0
POINT
  5
2748
330
273F
100
AcDbEntity
  8
Defpoints
 62
     0
100
AcDbPoint
 10
172.079949619976
 20
130.1368446560878
 30
0.0
  0
ENDBLK
  5
274A
330
273F
100
AcDbEntity
  8
0
100
AcDbBlockEnd
  0
BLOCK
  5
2757
330
274B
100
AcDbEntity
  8
0
100
AcDbBlockBegin
  2
*D15
 70
     1
 10
0.0
 20
0.0
 30
0.0
  3
*D15
  1

  0
LINE
  5
274C
330
274B
100
AcDbEntity
  8
0
 62
     0
370
    -2
100
AcDbLine
 10
171.4549496199762
 20
147.0243708573029
 30
0.0
 11
165.9470525562604
 21
147.0243708573029
 31
0.0
  0
LINE
  5
274D
330
274B
100
AcDbEntity
  8
0
 62
     0
370
    -2
100
AcDbLine
 10
171.4549496199762
 20
144.5243708573029
 30
0.0
 11
165.9470525562604
 21
144.5243708573029
 31
0.0
  0
LINE
  5
274E
330
274B
100
AcDbEntity
  8
0
 62
     0
370
    -2
100
AcDbLine
 10
167.1970525562604
 20
142.0243708573029
 30
0.0
 11
167.1970525562604
 21
139.5243708573029
 31
0.0
  0
LINE
  5
274F
330
274B
100
AcDbEntity
  8
0
 62
     0
370
    -2
100
AcDbLine
 10
167.1970525562604
 20
149.5243708573029
 30
0.0
 11
167.1970525562604
 21
158.6910375239695
 31
0.0
  0
LINE
  5
2750
330
274B
100
AcDbEntity
  8
0
 62
     0
370
    -2
100
AcDbLine
 10
167.1970525562604
 20
144.5243708573029
 30
0.0
 11
167.1970525562604
 21
147.0243708573029
 31
0.0
  0
SOLID
  5
2751
330
274B
100
AcDbEntity
  8
0
 62
     0
100
AcDbTrace
 10
166.7803858895937
 20
142.0243708573029
 30
0.0
 11
167.6137192229271
 21
142.0243708573029
 31
0.0
 12
167.1970525562604
 22
144.5243708573029
 32
0.0
 13
167.1970525562604
 23
144.5243708573029
 33
0.0
  0
SOLID
  5
2752
330
274B
100
AcDbEntity
  8
0
 62
     0
100
AcDbTrace
 10
166.7803858895937
 20
149.5243708573029
 30
0.0
 11
167.6137192229271
 21
149.5243708573029
 31
0.0
 12
167.1970525562604
 22
147.0243708573029
 32
0.0
 13
167.1970525562604
 23
147.0243708573029
 33
0.0
  0
MTEXT
  5
2753
330
274B
100
AcDbEntity
  8
0
 62
     0
100
AcDbMText
 10
165.113719222927
 20
155.3577041906363
 30
0.0
 40
2.5
 41
0.0
 46
0.0
 71
     5
 72
     1
  1
2,5
 11
0.0000000000000001
 21
1.0
 31
0.0
 73
     1
 44
1.0
  0
POINT
  5
2754
330
274B
100
AcDbEntity
  8
Defpoints
 62
     0
100
AcDbPoint
 10
172.079949619976
 20
147.0243708573029
 30
0.0
  0
POINT
  5
2755
330
274B
100
AcDbEntity
  8
Defpoints
 62
     0
100
AcDbPoint
 10
172.079949619976
 20
144.5243708573029
 30
0.0
  0
POINT
  5
2756
330
274B
100
AcDbEntity
  8
Defpoints
 62
     0
100
AcDbPoint
 10
167.1970525562604
 20
144.5243708573029
 30
0.0
  0
ENDBLK
  5
2758
330
274B
100
AcDbEntity
  8
0
100
AcDbBlockEnd
  0
BLOCK
  5
2762
330
2759
100
AcDbEntity
  8
0
100
AcDbBlockBegin
  2
*D16
 70
     1
 10
0.0
 20
0.0
 30
0.0
  3
*D16
  1

  0
LINE
  5
275A
330
2759
100
AcDbEntity
  8
0
 62
     0
370
    -2
100
AcDbLine
 10
229.2460802370018
 20
150.9140530885325
 30
0.0
 11
210.5231101574966
 21
163.0179095546272
 31
0.0
  0
LINE
  5
275B
330
2759
100
AcDbEntity
  8
0
 62
     0
370
    -2
100
AcDbLine
 10
203.6367890824558
 20
167.4697161599785
 30
0.0
 11
201.5373009498214
 21
168.8269742713661
 31
0.0
  0
MTEXT
  5
275C
330
2759
100
AcDbEntity
  8
0
 62
     0
100
AcDbMText
 10
224.4904314557979
 20
156.2211289943242
 30
0.0
 40
2.5
 41
0.0
 46
0.0
 71
     5
 72
     1
  1
4-%%c3.2
 11
0.8397952530537502
 21
-0.5429032445550386
 31
0.0
 73
     1
 44
1.0
  0
LINE
  5
275D
330
2759
100
AcDbEntity
  8
0
 62
     0
370
    -2
100
AcDbLine
 10
205.7362772150901
 20
166.1124580485909
 30
0.0
 11
208.4236220248622
 21
164.3751676660148
 31
0.0
  0
SOLID
  5
275E
330
2759
100
AcDbEntity
  8
0
 62
     0
100
AcDbTrace
 10
203.862998767687
 20
167.819630848751
 30
0.0
 11
203.4105793972245
 21
167.1198014712062
 31
0.0
 12
205.7362772150901
 22
166.1124580485909
 32
0.0
 13
205.7362772150901
 23
166.1124580485909
 33
0.0
  0
SOLID
  5
275F
330
2759
100
AcDbEntity
  8
0
 62
     0
100
AcDbTrace
 10
210.7493198427278
 20
163.3678242433996
 30
0.0
 11
210.2969004722652
 21
162.6679948658549
 31
0.0
 12
208.4236220248622
 22
164.3751676660148
 32
0.0
 13
208.4236220248622
 23
164.3751676660148
 33
0.0
  0
POINT
  5
2760
330
2759
100
AcDbEntity
  8
Defpoints
 62
     0
100
AcDbPoint
 10
208.4236220248622
 20
164.3751676660148
 30
0.0
  0
POINT
  5
2761
330
2759
100
AcDbEntity
  8
Defpoints
 62
     0
100
AcDbPoint
 10
205.7362772150901
 20
166.1124580485909
 30
0.0
  0
ENDBLK
  5
2763
330
2759
100
AcDbEntity
  8
0
100
AcDbBlockEnd
  0
BLOCK
  5
2770
330
2764
100
AcDbEntity
  8
0
100
AcDbBlockBegin
  2
*D17
 70
     1
 10
0.0
 20
0.0
 30
0.0
  3
*D17
  1

  0
LINE
  5
2765
330
2764
100
AcDbEntity
  8
0
 62
     0
370
    -2
100
AcDbLine
 10
216.2049496199761
 20
144.5243708573029
 30
0.0
 11
225.4934390810709
 21
144.5243708573029
 31
0.0
  0
LINE
  5
2766
330
2764
100
AcDbEntity
  8
0
 62
     0
370
    -2
100
AcDbLine
 10
216.2049496199761
 20
140.5243708573029
 30
0.0
 11
225.4934390810709
 21
140.5243708573029
 31
0.0
  0
LINE
  5
2767
330
2764
100
AcDbEntity
  8
0
 62
     0
370
    -2
100
AcDbLine
 10
224.2434390810709
 20
147.0243708573029
 30
0.0
 11
224.2434390810709
 21
149.5243708573029
 31
0.0
  0
LINE
  5
2768
330
2764
100
AcDbEntity
  8
0
 62
     0
370
    -2
100
AcDbLine
 10
224.2434390810709
 20
138.0243708573029
 30
0.0
 11
224.2434390810709
 21
135.5243708573029
 31
0.0
  0
LINE
  5
2769
330
2764
100
AcDbEntity
  8
0
 62
     0
370
    -2
100
AcDbLine
 10
224.2434390810709
 20
144.5243708573029
 30
0.0
 11
224.2434390810709
 21
140.5243708573029
 31
0.0
  0
SOLID
  5
276A
330
2764
100
AcDbEntity
  8
0
 62
     0
100
AcDbTrace
 10
223.8267724144042
 20
147.0243708573029
 30
0.0
 11
224.6601057477376
 21
147.0243708573029
 31
0.0
 12
224.2434390810709
 22
144.5243708573029
 32
0.0
 13
224.2434390810709
 23
144.5243708573029
 33
0.0
  0
SOLID
  5
276B
330
2764
100
AcDbEntity
  8
0
 62
     0
100
AcDbTrace
 10
223.8267724144042
 20
138.0243708573029
 30
0.0
 11
224.6601057477376
 21
138.0243708573029
 31
0.0
 12
224.2434390810709
 22
140.5243708573029
 32
0.0
 13
224.2434390810709
 23
140.5243708573029
 33
0.0
  0
MTEXT
  5
276C
330
2764
100
AcDbEntity
  8
0
 62
     0
100
AcDbMText
 10
222.3684390810709
 20
142.5243708573029
 30
0.0
 40
2.5
 41
0.0
 46
0.0
 71
     5
 72
     1
  1
4
 11
0.0000000000000001
 21
1.0
 31
0.0
 73
     1
 44
1.0
  0
POINT
  5
276D
330
2764
100
AcDbEntity
  8
Defpoints
 62
     0
100
AcDbPoint
 10
215.5799496199761
 20
144.5243708573029
 30
0.0
  0
POINT
  5
276E
330
2764
100
AcDbEntity
  8
Defpoints
 62
     0
100
AcDbPoint
 10
215.5799496199761
 20
140.5243708573029
 30
0.0
  0
POINT
  5
276F
330
2764
100
AcDbEntity
  8
Defpoints
 62
     0
100
AcDbPoint
 10
224.2434390810709
 20
140.5243708573029
 30
0.0
  0
ENDBLK
  5
2771
330
2764
100
AcDbEntity
  8
0
100
AcDbBlockEnd
  0
BLOCK
  5
280A
330
2772
100
AcDbEntity
  8
0
100
AcDbBlockBegin
  2
A$C27BD67DC
 70
     0
 10
0.0
 20
0.0
 30
0.0
  3
A$C27BD67DC
  1

  0
LEADER
  5
2773
330
2772
100
AcDbEntity
  8
0
100
AcDbLeader
  3
ISO-25
 76
     2
 10
124.3772345200254
 20
21.90521495118309
 30
0.0
 10
130.372929216126
 20
15.33601465841211
 30
0.0
1001
ACAD
1000
DSTYLE
1002
{
1070
   147
1040
0.625
1070
    77
1070
     0
1002
}
  0
DIMENSION
  5
2774
102
{ACAD_XDICTIONARY
360
2775
102
}
102
{ACAD_REACTORS
330
2776
102
}
330
2772
100
AcDbEntity
  8
0
100
AcDbDimension
280
     0
  2
*D16
 10
123.0335621151394
 20
49.99330214247115
 30
0.0
 11
140.7697727723065
 21
38.5273569887286
 31
0.0
 12
-82.70271509995074
 22
-116.1191559061198
 32
0.0
 70
   131
  1
4-%%c3.2
 71
     5
 42
3.200000000000017
 73
     0
 74
     0
 75
     0
  3
ISO-25
100
AcDbDiametricDimension
 15
125.7209069249114
 25
48.25601175989501
 35
0.0
 40
0.0
1001
ACAD
1000
DSTYLE
1002
{
1070
   288
1070
     1
1002
}
  0
DIMENSION
  5
2777
102
{ACAD_XDICTIONARY
360
2778
102
}
102
{ACAD_REACTORS
330
2779
102
}
330
2772
100
AcDbEntity
  8
0
100
AcDbDimension
280
     0
  2
*D9
 10
127.8772345200254
 20
90.03236956525467
 30
0.0
 11
119.543901186692
 21
92.11570289858801
 31
0.0
 12
-82.70271509995074
 22
-116.1191559061198
 32
0.0
 71
     5
 42
5.5
 73
     0
 74
     0
 75
     0
  3
ISO-25
100
AcDbAlignedDimension
 13
133.3772345200254
 23
69.62465695118311
 33
0.0
 14
127.8772345200254
 24
78.12465695118311
 34
0.0
100
AcDbRotatedDimension
  0
DIMENSION
  5
277A
102
{ACAD_XDICTIONARY
360
277B
102
}
102
{ACAD_REACTORS
330
277C
102
}
330
2772
100
AcDbEntity
  8
0
100
AcDbDimension
280
     0
  2
*D5
 10
127.8772345200254
 20
90.03236956525467
 30
0.0
 11
89.51090001490355
 21
90.03236956525467
 31
0.0
 12
-82.70271509995074
 22
-116.1191559061198
 32
0.0
 70
   128
 71
     5
 42
76.99999999999997
 73
     0
 74
     0
 75
     0
  3
ISO-25
100
AcDbAlignedDimension
 13
50.87723452002546
 23
78.12465695118311
 33
0.0
 14
127.8772345200254
 24
78.12465695118311
 34
0.0
100
AcDbRotatedDimension
  0
LINE
  5
277D
330
2772
100
AcDbEntity
  8
CENTER
100
AcDbLine
 10
128.3772345200254
 20
74.12465695118311
 30
0.0
 11
120.3772345200254
 21
74.12465695118311
 31
0.0
  0
CIRCLE
  5
277E
330
2772
100
AcDbEntity
  8
DOTTED
100
AcDbCircle
 10
124.3772345200254
 20
49.12465695118311
 30
0.0
 40
3.0
  0
LINE
  5
277F
330
2772
100
AcDbEntity
  8
CENTER
100
AcDbLine
 10
128.3772345200254
 20
49.12465695118311
 30
0.0
 11
120.3772345200254
 21
49.12465695118311
 31
0.0
  0
LINE
  5
2780
330
2772
100
AcDbEntity
  8
DOTTED
100
AcDbLine
 10
110.3772345200254
 20
70.12465695118311
 30
0.0
 11
127.8772345200254
 21
70.12465695118311
 31
0.0
  0
LINE
  5
2781
330
2772
100
AcDbEntity
  8
DOTTED
100
AcDbLine
 10
110.3772345200254
 20
53.12465695118311
 30
0.0
 11
127.8772345200254
 21
53.12465695118311
 31
0.0
  0
CIRCLE
  5
2782
330
2772
100
AcDbEntity
  8
DOTTED
100
AcDbCircle
 10
124.3772345200254
 20
74.12465695118311
 30
0.0
 40
3.0
  0
LINE
  5
2783
330
2772
100
AcDbEntity
  8
DOTTED
100
AcDbLine
 10
127.3772345200254
 20
26.90521495118309
 30
0.0
 11
121.3772345200254
 21
26.90521495118309
 31
0.0
  0
LINE
  5
2784
102
{ACAD_REACTORS
330
2798
102
}
330
2772
100
AcDbEntity
  8
CONTINUOUS
100
AcDbLine
 10
110.3772345200254
 20
22.90521495118309
 30
0.0
 11
127.8772345200254
 21
22.90521495118309
 31
0.0
  0
LINE
  5
2785
330
2772
100
AcDbEntity
  8
DOTTED
100
AcDbLine
 10
110.3772345200254
 20
24.40521495118309
 30
0.0
 11
127.8772345200254
 21
24.40521495118309
 31
0.0
  0
LINE
  5
2786
330
2772
100
AcDbEntity
  8
DOTTED
100
AcDbLine
 10
110.3772345200254
 20
28.40521495118309
 30
0.0
 11
127.8772345200254
 21
28.40521495118309
 31
0.0
  0
LINE
  5
2787
102
{ACAD_REACTORS
330
277C
102
}
330
2772
100
AcDbEntity
  8
CONTINUOUS
100
AcDbLine
 10
50.87723452002546
 20
78.12465695118311
 30
0.0
 11
127.8772345200254
 21
78.12465695118311
 31
0.0
  0
LINE
  5
2788
102
{ACAD_REACTORS
330
27B4
102
}
330
2772
100
AcDbEntity
  8
CONTINUOUS
100
AcDbLine
 10
50.87723452002546
 20
45.12465695118311
 30
0.0
 11
127.8772345200254
 21
45.12465695118311
 31
0.0
  0
LINE
  5
2789
330
2772
100
AcDbEntity
  8
CENTER
100
AcDbLine
 10
49.87723452002548
 20
61.62465695118311
 30
0.0
 11
128.8772345200254
 21
61.62465695118311
 31
0.0
  0
LINE
  5
278A
102
{ACAD_REACTORS
330
278D
102
}
330
2772
100
AcDbEntity
  8
CONTINUOUS
100
AcDbLine
 10
50.87723452002546
 20
30.90521495118309
 30
0.0
 11
127.8772345200254
 21
30.90521495118309
 31
0.0
  0
DIMENSION
  5
278B
102
{ACAD_XDICTIONARY
360
278C
102
}
102
{ACAD_REACTORS
330
278D
102
}
330
2772
100
AcDbEntity
  8
0
100
AcDbDimension
280
     0
  2
*D15
 10
84.49433745630969
 20
28.40521495118309
 30
0.0
 11
84.49433745630967
 21
39.23854828451647
 31
0.0
 12
-82.70271509995074
 22
-116.1191559061198
 32
0.0
 70
   128
 71
     5
 42
2.5
 73
     0
 74
     0
 75
     0
  3
ISO-25
100
AcDbAlignedDimension
 13
89.37723452002543
 23
30.90521495118309
 33
0.0
 14
89.37723452002543
 24
28.40521495118309
 34
0.0
 50
90.0
100
AcDbRotatedDimension
  0
LINE
  5
278E
102
{ACAD_REACTORS
330
2798
102
}
330
2772
100
AcDbEntity
  8
CONTINUOUS
100
AcDbLine
 10
50.87723452002546
 20
22.90521495118309
 30
0.0
 11
74.87723452002544
 21
22.90521495118309
 31
0.0
  0
LINE
  5
278F
330
2772
100
AcDbEntity
  8
DOTTED
100
AcDbLine
 10
51.37723452002546
 20
26.90521495118309
 30
0.0
 11
57.37723452002548
 21
26.90521495118309
 31
0.0
  0
LINE
  5
2790
330
2772
100
AcDbEntity
  8
DOTTED
100
AcDbLine
 10
51.37723452002546
 20
26.90521495118309
 30
0.0
 11
51.37723452002546
 21
22.90521495118309
 31
0.0
  0
LINE
  5
2791
330
2772
100
AcDbEntity
  8
CONTINUOUS
100
AcDbLine
 10
50.87723452002546
 20
30.90521495118309
 30
0.0
 11
50.87723452002546
 21
22.90521495118309
 31
0.0
  0
LINE
  5
2792
330
2772
100
AcDbEntity
  8
DOTTED
100
AcDbLine
 10
52.77723452002543
 20
30.90521495118309
 30
0.0
 11
52.77723452002543
 21
26.90521495118309
 31
0.0
  0
LINE
  5
2793
330
2772
100
AcDbEntity
  8
DOTTED
100
AcDbLine
 10
57.37723452002548
 20
26.90521495118309
 30
0.0
 11
57.37723452002548
 21
22.90521495118309
 31
0.0
  0
LINE
  5
2794
330
2772
100
AcDbEntity
  8
CENTER
100
AcDbLine
 10
54.37723452002547
 20
31.90521495118309
 30
0.0
 11
54.37723452002547
 21
21.90521495118309
 31
0.0
  0
LINE
  5
2795
330
2772
100
AcDbEntity
  8
DOTTED
100
AcDbLine
 10
55.97723452002544
 20
30.90521495118309
 30
0.0
 11
55.97723452002544
 21
26.90521495118309
 31
0.0
  0
DIMENSION
  5
2796
102
{ACAD_XDICTIONARY
360
2797
102
}
102
{ACAD_REACTORS
330
2798
102
}
330
2772
100
AcDbEntity
  8
0
100
AcDbDimension
280
     0
  2
*D13
 10
110.3772345200254
 20
1.249999784244579
 30
0.0
 11
92.62723452002544
 21
3.333333117577907
 31
0.0
 12
-82.70271509995074
 22
-116.1191559061198
 32
0.0
 71
     5
 42
35.5
 73
     0
 74
     0
 75
     0
  3
ISO-25
100
AcDbAlignedDimension
 13
74.87723452002544
 23
22.90521495118309
 33
0.0
 14
110.3772345200254
 24
22.90521495118309
 34
0.0
100
AcDbRotatedDimension
  0
LINE
  5
2799
102
{ACAD_REACTORS
330
278D
102
}
330
2772
100
AcDbEntity
  8
CONTINUOUS
100
AcDbLine
 10
74.87723452002544
 20
28.40521495118309
 30
0.0
 11
110.3772345200254
 21
28.40521495118309
 31
0.0
  0
DIMENSION
  5
279A
102
{ACAD_XDICTIONARY
360
279B
102
}
102
{ACAD_REACTORS
330
279C
102
}
330
2772
100
AcDbEntity
  8
0
100
AcDbDimension
280
     0
  2
*D14
 10
89.37723452002543
 20
14.01768874996801
 30
0.0
 11
82.12723452002544
 21
16.10102208330135
 31
0.0
 12
-82.70271509995074
 22
-116.1191559061198
 32
0.0
 71
     5
 42
14.5
 73
     0
 74
     0
 75
     0
  3
ISO-25
100
AcDbAlignedDimension
 13
74.87723452002544
 23
22.28021495118309
 33
0.0
 14
89.37723452002543
 24
27.4052149511831
 34
0.0
100
AcDbRotatedDimension
  0
LINE
  5
279D
330
2772
100
AcDbEntity
  8
CONTINUOUS
100
AcDbLine
 10
76.37723452002544
 20
26.90521495118309
 30
0.0
 11
76.87723452002543
 21
26.4052149511831
 31
0.0
  0
LINE
  5
279E
330
2772
100
AcDbEntity
  8
CONTINUOUS
100
AcDbLine
 10
74.87723452002544
 20
22.90521495118309
 30
0.0
 11
74.87723452002544
 21
28.40521495118309
 31
0.0
  0
LINE
  5
279F
330
2772
100
AcDbEntity
  8
CONTINUOUS
100
AcDbLine
 10
76.87723452002543
 20
26.4052149511831
 30
0.0
 11
76.87723452002543
 21
25.90521495118309
 31
0.0
  0
LINE
  5
27A0
330
2772
100
AcDbEntity
  8
CONTINUOUS
100
AcDbLine
 10
76.87723452002543
 20
25.90521495118309
 30
0.0
 11
74.87723452002544
 21
22.90521495118309
 31
0.0
  0
LINE
  5
27A1
330
2772
100
AcDbEntity
  8
CONTINUOUS
100
AcDbLine
 10
74.87723452002544
 20
26.90521495118309
 30
0.0
 11
76.37723452002544
 21
26.90521495118309
 31
0.0
  0
LINE
  5
27A2
102
{ACAD_REACTORS
330
279C
330
278D
102
}
330
2772
100
AcDbEntity
  8
CENTER
100
AcDbLine
 10
89.37723452002543
 20
31.90521495118309
 30
0.0
 11
89.37723452002543
 21
27.4052149511831
 31
0.0
  0
LINE
  5
27A3
330
2772
100
AcDbEntity
  8
CONTINUOUS
100
AcDbLine
 10
110.3772345200254
 20
28.40521495118309
 30
0.0
 11
110.3772345200254
 21
22.90521495118309
 31
0.0
  0
LINE
  5
27A4
330
2772
100
AcDbEntity
  8
CONTINUOUS
100
AcDbLine
 10
107.5894215200254
 20
26.72839295118313
 30
0.0
 11
110.3772345200254
 21
24.40521495118309
 31
0.0
  0
LINE
  5
27A5
330
2772
100
AcDbEntity
  8
CONTINUOUS
100
AcDbLine
 10
108.8772345200254
 20
28.40521495118309
 30
0.0
 11
108.8772345200254
 21
26.90521495118309
 31
0.0
  0
ARC
  5
27A6
330
2772
100
AcDbEntity
  8
CONTINUOUS
100
AcDbCircle
 10
107.6534395200254
 20
26.80521495118313
 30
0.0
 40
0.1
100
AcDbArc
 50
90.0
 51
230.1944289999996
  0
LINE
  5
27A7
330
2772
100
AcDbEntity
  8
CONTINUOUS
100
AcDbLine
 10
107.6534395200254
 20
26.90521495118309
 30
0.0
 11
108.8772345200254
 21
26.90521495118309
 31
0.0
  0
LINE
  5
27A8
330
2772
100
AcDbEntity
  8
DOTTED
100
AcDbLine
 10
121.3772345200254
 20
26.90521495118309
 30
0.0
 11
121.3772345200254
 21
22.90521495118309
 31
0.0
  0
LINE
  5
27A9
330
2772
100
AcDbEntity
  8
CENTER
100
AcDbLine
 10
124.3772345200254
 20
31.90521495118309
 30
0.0
 11
124.3772345200254
 21
21.90521495118309
 31
0.0
  0
LINE
  5
27AA
330
2772
100
AcDbEntity
  8
DOTTED
100
AcDbLine
 10
122.7772345200254
 20
30.90521495118309
 30
0.0
 11
122.7772345200254
 21
26.90521495118309
 31
0.0
  0
LINE
  5
27AB
330
2772
100
AcDbEntity
  8
DOTTED
100
AcDbLine
 10
125.9772345200254
 20
30.90521495118309
 30
0.0
 11
125.9772345200254
 21
26.90521495118309
 31
0.0
  0
DIMENSION
  5
27AC
102
{ACAD_XDICTIONARY
360
27AD
102
}
102
{ACAD_REACTORS
330
27AE
102
}
330
2772
100
AcDbEntity
  8
DOTTED
  6
Continuous
100
AcDbDimension
280
     0
  2
*D11
 10
124.3772345200254
 20
81.56184641790416
 30
0.0
 11
89.37723452002547
 21
83.43684641790416
 31
0.0
 12
-82.70271509995074
 22
-116.1191559061198
 32
0.0
 71
     5
 42
69.99999999999997
 73
     0
 74
     0
 75
     0
  3
ISO-25
100
AcDbAlignedDimension
 13
54.37723452002547
 23
78.12465695118311
 33
0.0
 14
124.3772345200254
 24
78.12465695118311
 34
0.0
100
AcDbRotatedDimension
  0
DIMENSION
  5
27AF
102
{ACAD_XDICTIONARY
360
27B0
102
}
102
{ACAD_REACTORS
330
27B1
102
}
330
2772
100
AcDbEntity
  8
DOTTED
  6
Continuous
100
AcDbDimension
280
     0
  2
*D10
 10
47.8241698943861
 20
49.12465695118311
 30
0.0
 11
45.94916989438607
 21
61.62465695118314
 31
0.0
 12
-82.70271509995074
 22
-116.1191559061198
 32
0.0
 71
     5
 42
25.0
 73
     0
 74
     0
 75
     0
  3
ISO-25
100
AcDbAlignedDimension
 13
50.37723452002548
 23
74.12465695118311
 33
0.0
 14
50.37723452002548
 24
49.12465695118311
 34
0.0
 50
90.0
100
AcDbRotatedDimension
  0
DIMENSION
  5
27B2
102
{ACAD_XDICTIONARY
360
27B3
102
}
102
{ACAD_REACTORS
330
27B4
102
}
330
2772
100
AcDbEntity
  8
0
100
AcDbDimension
280
     0
  2
*D6
 10
38.23140221161464
 20
45.12465695118311
 30
0.0
 11
36.35640221161461
 21
61.62465695118314
 31
0.0
 12
-82.70271509995074
 22
-116.1191559061198
 32
0.0
 71
     5
 42
33.0
 73
     0
 74
     0
 75
     0
  3
ISO-25
100
AcDbAlignedDimension
 13
50.87723452002546
 23
78.12465695118311
 33
0.0
 14
50.87723452002546
 24
45.12465695118311
 34
0.0
 50
90.0
100
AcDbRotatedDimension
  0
LINE
  5
27B5
330
2772
100
AcDbEntity
  8
CONTINUOUS
100
AcDbLine
 10
50.87723452002546
 20
78.12465695118311
 30
0.0
 11
50.87723452002546
 21
45.12465695118311
 31
0.0
  0
CIRCLE
  5
27B6
330
2772
100
AcDbEntity
  8
DOTTED
100
AcDbCircle
 10
54.37723452002547
 20
49.12465695118311
 30
0.0
 40
3.0
  0
CIRCLE
  5
27B7
330
2772
100
AcDbEntity
  8
CONTINUOUS
100
AcDbCircle
 10
54.37723452002547
 20
49.12465695118311
 30
0.0
 40
1.6
  0
LINE
  5
27B8
102
{ACAD_REACTORS
330
27B1
102
}
330
2772
100
AcDbEntity
  8
CENTER
100
AcDbLine
 10
58.37723452002546
 20
49.12465695118311
 30
0.0
 11
50.37723452002548
 21
49.12465695118311
 31
0.0
  0
LINE
  5
27B9
330
2772
100
AcDbEntity
  8
CENTER
100
AcDbLine
 10
54.37723452002547
 20
53.12465695118311
 30
0.0
 11
54.37723452002547
 21
45.12465695118311
 31
0.0
  0
CIRCLE
  5
27BA
330
2772
100
AcDbEntity
  8
CONTINUOUS
100
AcDbCircle
 10
54.37723452002547
 20
74.12465695118311
 30
0.0
 40
1.6
  0
LINE
  5
27BB
102
{ACAD_REACTORS
330
27B1
102
}
330
2772
100
AcDbEntity
  8
CENTER
100
AcDbLine
 10
58.37723452002546
 20
74.12465695118311
 30
0.0
 11
50.37723452002548
 21
74.12465695118311
 31
0.0
  0
CIRCLE
  5
27BC
330
2772
100
AcDbEntity
  8
DOTTED
100
AcDbCircle
 10
54.37723452002547
 20
74.12465695118311
 30
0.0
 40
3.0
  0
LINE
  5
27BD
102
{ACAD_REACTORS
330
27AE
102
}
330
2772
100
AcDbEntity
  8
CENTER
100
AcDbLine
 10
54.37723452002547
 20
78.12465695118311
 30
0.0
 11
54.37723452002547
 21
70.12465695118311
 31
0.0
  0
LINE
  5
27BE
330
2772
100
AcDbEntity
  8
CENTER
100
AcDbLine
 10
89.37723452002543
 20
79.12465695118311
 30
0.0
 11
89.37723452002543
 21
44.12465695118311
 31
0.0
  0
LINE
  5
27BF
330
2772
100
AcDbEntity
  8
DOTTED
100
AcDbLine
 10
74.87723452002544
 20
78.12465695118311
 30
0.0
 11
74.87723452002544
 21
45.12465695118311
 31
0.0
  0
LINE
  5
27C0
330
2772
100
AcDbEntity
  8
DOTTED
100
AcDbLine
 10
76.87723452002543
 20
51.62465695118311
 30
0.0
 11
76.87723452002543
 21
48.62465695118311
 31
0.0
  0
LINE
  5
27C1
330
2772
100
AcDbEntity
  8
DOTTED
100
AcDbLine
 10
76.87723452002543
 20
48.62465695118311
 30
0.0
 11
74.87723452002544
 21
48.62465695118311
 31
0.0
  0
LINE
  5
27C2
330
2772
100
AcDbEntity
  8
DOTTED
100
AcDbLine
 10
74.87723452002544
 20
51.62465695118311
 30
0.0
 11
76.87723452002543
 21
51.62465695118311
 31
0.0
  0
LINE
  5
27C3
330
2772
100
AcDbEntity
  8
DOTTED
100
AcDbLine
 10
76.87723452002543
 20
74.62465695118311
 30
0.0
 11
76.87723452002543
 21
71.62465695118311
 31
0.0
  0
LINE
  5
27C4
330
2772
100
AcDbEntity
  8
DOTTED
100
AcDbLine
 10
74.87723452002544
 20
71.62465695118311
 30
0.0
 11
76.87723452002543
 21
71.62465695118311
 31
0.0
  0
LINE
  5
27C5
330
2772
100
AcDbEntity
  8
DOTTED
100
AcDbLine
 10
74.87723452002544
 20
74.62465695118311
 30
0.0
 11
76.87723452002543
 21
74.62465695118311
 31
0.0
  0
LINE
  5
27C6
330
2772
100
AcDbEntity
  8
DOTTED
100
AcDbLine
 10
107.3772345200254
 20
68.87465695118311
 30
0.0
 11
107.3772345200254
 21
54.37465695118311
 31
0.0
  0
LINE
  5
27C7
330
2772
100
AcDbEntity
  8
DOTTED
100
AcDbLine
 10
110.3772345200254
 20
78.12465695118311
 30
0.0
 11
110.3772345200254
 21
45.12465695118311
 31
0.0
  0
LINE
  5
27C8
330
2772
100
AcDbEntity
  8
DOTTED
100
AcDbLine
 10
110.3772345200254
 20
54.37465695118311
 30
0.0
 11
107.3772345200254
 21
54.37465695118311
 31
0.0
  0
LINE
  5
27C9
330
2772
100
AcDbEntity
  8
CENTER
100
AcDbLine
 10
124.3772345200254
 20
53.12465695118311
 30
0.0
 11
124.3772345200254
 21
45.12465695118311
 31
0.0
  0
CIRCLE
  5
27CA
102
{ACAD_REACTORS
330
2776
102
}
330
2772
100
AcDbEntity
  8
CONTINUOUS
100
AcDbCircle
 10
124.3772345200254
 20
49.12465695118311
 30
0.0
 40
1.6
  0
LINE
  5
27CB
330
2772
100
AcDbEntity
  8
DOTTED
100
AcDbLine
 10
107.3772345200254
 20
68.87465695118311
 30
0.0
 11
110.3772345200254
 21
68.87465695118311
 31
0.0
  0
CIRCLE
  5
27CC
330
2772
100
AcDbEntity
  8
CONTINUOUS
100
AcDbCircle
 10
124.3772345200254
 20
74.12465695118311
 30
0.0
 40
1.6
  0
LINE
  5
27CD
102
{ACAD_REACTORS
330
27AE
102
}
330
2772
100
AcDbEntity
  8
CENTER
100
AcDbLine
 10
124.3772345200254
 20
78.12465695118311
 30
0.0
 11
124.3772345200254
 21
70.12465695118311
 31
0.0
  0
DIMENSION
  5
27CE
102
{ACAD_XDICTIONARY
360
27CF
102
}
102
{ACAD_REACTORS
330
27D0
102
}
330
2772
100
AcDbEntity
  8
0
100
AcDbDimension
280
     0
  2
*D17
 10
141.5407239811202
 20
24.40521495118309
 30
0.0
 11
139.6657239811201
 21
26.40521495118315
 31
0.0
 12
-82.70271509995074
 22
-116.1191559061198
 32
0.0
 71
     5
 42
4.0
 73
     0
 74
     0
 75
     0
  3
ISO-25
100
AcDbAlignedDimension
 13
132.8772345200254
 23
28.40521495118309
 33
0.0
 14
132.8772345200254
 24
24.40521495118309
 34
0.0
 50
90.0
100
AcDbRotatedDimension
  0
MTEXT
  5
27D1
330
2772
100
AcDbEntity
  8
0
100
AcDbMText
 10
127.5840091692676
 20
14.18810364899849
 30
0.0
 40
2.5
 41
24.44409999999999
 46
0.0
 71
     1
 72
     5
  1
M3{\fMS UI Gothic|b0|i0|c128|p17;ネジ用穴}
 73
     1
 44
1.0
  0
LINE
  5
27D2
330
2772
100
AcDbEntity
  8
CONTINUOUS
100
AcDbLine
 10
133.3772345200254
 20
27.90521495118309
 30
0.0
 11
133.3772345200254
 21
24.9052149511831
 31
0.0
  0
LINE
  5
27D3
330
2772
100
AcDbEntity
  8
DOTTED
100
AcDbLine
 10
128.8772345200254
 20
28.40521495118309
 30
0.0
 11
128.8772345200254
 21
24.40521495118309
 31
0.0
  0
LINE
  5
27D4
102
{ACAD_REACTORS
330
27D0
102
}
330
2772
100
AcDbEntity
  8
DOTTED
100
AcDbLine
 10
132.8772345200254
 20
28.40521495118309
 30
0.0
 11
132.8772345200254
 21
24.40521495118309
 31
0.0
  0
LINE
  5
27D5
330
2772
100
AcDbEntity
  8
DOTTED
100
AcDbLine
 10
130.8772345200254
 20
28.40521495118309
 30
0.0
 11
130.8772345200254
 21
24.40521495118309
 31
0.0
  0
LINE
  5
27D6
330
2772
100
AcDbEntity
  8
DOTTED
100
AcDbLine
 10
127.3772345200254
 20
26.90521495118309
 30
0.0
 11
127.3772345200254
 21
22.90521495118309
 31
0.0
  0
LINE
  5
27D7
330
2772
100
AcDbEntity
  8
CONTINUOUS
100
AcDbLine
 10
127.8772345200254
 20
30.90521495118309
 30
0.0
 11
127.8772345200254
 21
22.90521495118309
 31
0.0
  0
LINE
  5
27D8
330
2772
100
AcDbEntity
  8
CONTINUOUS
100
AcDbLine
 10
127.8772345200254
 20
24.40521495118309
 30
0.0
 11
132.8772345200254
 21
24.40521495118309
 31
0.0
  0
ARC
  5
27D9
330
2772
100
AcDbEntity
  8
CONTINUOUS
100
AcDbCircle
 10
132.8772345200254
 20
24.9052149511831
 30
0.0
 40
0.5
100
AcDbArc
 50
270.0
 51
0.0
  0
LINE
  5
27DA
330
2772
100
AcDbEntity
  8
CONTINUOUS
100
AcDbLine
 10
127.8772345200254
 20
28.40521495118309
 30
0.0
 11
132.8772345200254
 21
28.40521495118309
 31
0.0
  0
ARC
  5
27DB
330
2772
100
AcDbEntity
  8
CONTINUOUS
100
AcDbCircle
 10
132.8772345200254
 20
27.90521495118309
 30
0.0
 40
0.5
100
AcDbArc
 50
0.0
 51
90.0
  0
DIMENSION
  5
27DC
102
{ACAD_XDICTIONARY
360
27DD
102
}
102
{ACAD_REACTORS
330
27DE
102
}
330
2772
100
AcDbEntity
  8
DOTTED
  6
Continuous
100
AcDbDimension
280
     0
  2
*D12
 10
151.2535705200254
 20
81.56184641790416
 30
0.0
 11
153.2535705200254
 21
83.43684641790416
 31
0.0
 12
-82.70271509995074
 22
-116.1191559061198
 32
0.0
 71
     5
 42
4.0
 73
     0
 74
     0
 75
     0
  3
ISO-25
100
AcDbAlignedDimension
 13
155.2535705200254
 23
77.12465695118311
 33
0.0
 14
151.2535705200254
 24
78.12465695118311
 34
0.0
100
AcDbRotatedDimension
  0
DIMENSION
  5
27DF
102
{ACAD_XDICTIONARY
360
27E0
102
}
102
{ACAD_REACTORS
330
27E1
102
}
330
2772
100
AcDbEntity
  8
0
100
AcDbDimension
280
     0
  2
*D7
 10
159.2535705200254
 20
90.03236956525467
 30
0.0
 11
155.2535705200254
 21
91.90736956525467
 31
0.0
 12
-82.70271509995074
 22
-116.1191559061198
 32
0.0
 71
     5
 42
8.0
 73
     0
 74
     0
 75
     0
  3
ISO-25
100
AcDbAlignedDimension
 13
151.2535705200254
 23
78.12465695118311
 33
0.0
 14
159.2535705200254
 24
78.12465695118311
 34
0.0
100
AcDbRotatedDimension
  0
LINE
  5
27E2
330
2772
100
AcDbEntity
  8
CENTER
100
AcDbLine
 10
150.2535705200254
 20
74.12465695118311
 30
0.0
 11
160.2535705200254
 21
74.12465695118311
 31
0.0
  0
LINE
  5
27E3
330
2772
100
AcDbEntity
  8
CENTER
100
AcDbLine
 10
150.2535705200254
 20
49.12465695118311
 30
0.0
 11
160.2535705200254
 21
49.12465695118311
 31
0.0
  0
DIMENSION
  5
27E4
102
{ACAD_XDICTIONARY
360
27E5
102
}
102
{ACAD_REACTORS
330
27E6
102
}
330
2772
100
AcDbEntity
  8
0
100
AcDbDimension
280
     0
  2
*D8
 10
141.4838011136295
 20
53.12465695118311
 30
0.0
 11
139.6088011136294
 21
61.62465695118317
 31
0.0
 12
-82.70271509995074
 22
-116.1191559061198
 32
0.0
 71
     5
 42
17.0
 73
     0
 74
     0
 75
     0
  3
ISO-25
100
AcDbAlignedDimension
 13
132.8772345200254
 23
70.12465695118311
 33
0.0
 14
132.8772345200254
 24
53.12465695118311
 34
0.0
 50
90.0
100
AcDbRotatedDimension
  0
LINE
  5
27E7
330
2772
100
AcDbEntity
  8
CONTINUOUS
100
AcDbLine
 10
153.7535705200254
 20
70.12465695118311
 30
0.0
 11
153.7535705200254
 21
53.12465695118311
 31
0.0
  0
LINE
  5
27E8
330
2772
100
AcDbEntity
  8
CONTINUOUS
100
AcDbLine
 10
157.7535705200254
 20
70.12465695118311
 30
0.0
 11
157.7535705200254
 21
53.12465695118311
 31
0.0
  0
LINE
  5
27E9
102
{ACAD_REACTORS
330
27E1
102
}
330
2772
100
AcDbEntity
  8
CONTINUOUS
100
AcDbLine
 10
151.2535705200254
 20
78.12465695118311
 30
0.0
 11
151.2535705200254
 21
45.12465695118311
 31
0.0
  0
LINE
  5
27EA
102
{ACAD_REACTORS
330
2779
102
}
330
2772
100
AcDbEntity
  8
CONTINUOUS
100
AcDbLine
 10
133.3772345200254
 20
69.62465695118311
 30
0.0
 11
133.3772345200254
 21
53.62465695118311
 31
0.0
  0
LINE
  5
27EB
330
2772
100
AcDbEntity
  8
CONTINUOUS
100
AcDbLine
 10
127.8772345200254
 20
78.12465695118311
 30
0.0
 11
127.8772345200254
 21
45.12465695118311
 31
0.0
  0
LINE
  5
27EC
102
{ACAD_REACTORS
330
27E6
102
}
330
2772
100
AcDbEntity
  8
CONTINUOUS
100
AcDbLine
 10
127.8772345200254
 20
53.12465695118311
 30
0.0
 11
132.8772345200254
 21
53.12465695118311
 31
0.0
  0
ARC
  5
27ED
330
2772
100
AcDbEntity
  8
CONTINUOUS
100
AcDbCircle
 10
132.8772345200254
 20
53.62465695118311
 30
0.0
 40
0.5
100
AcDbArc
 50
270.0
 51
0.0
  0
LINE
  5
27EE
330
2772
100
AcDbEntity
  8
DOTTED
100
AcDbLine
 10
151.2535705200254
 20
50.7246569511831
 30
0.0
 11
155.2535705200254
 21
50.7246569511831
 31
0.0
  0
LINE
  5
27EF
330
2772
100
AcDbEntity
  8
DOTTED
100
AcDbLine
 10
151.2535705200254
 20
47.52465695118312
 30
0.0
 11
155.2535705200254
 21
47.52465695118312
 31
0.0
  0
LINE
  5
27F0
330
2772
100
AcDbEntity
  8
CONTINUOUS
100
AcDbLine
 10
151.2535705200254
 20
45.12465695118311
 30
0.0
 11
159.2535705200254
 21
45.12465695118311
 31
0.0
  0
LINE
  5
27F1
330
2772
100
AcDbEntity
  8
CONTINUOUS
100
AcDbLine
 10
159.2535705200254
 20
54.12465695118311
 30
0.0
 11
159.2535705200254
 21
45.12465695118311
 31
0.0
  0
LINE
  5
27F2
330
2772
100
AcDbEntity
  8
DOTTED
100
AcDbLine
 10
155.2535705200254
 20
46.12465695118311
 30
0.0
 11
155.2535705200254
 21
52.12465695118311
 31
0.0
  0
LINE
  5
27F3
330
2772
100
AcDbEntity
  8
DOTTED
100
AcDbLine
 10
155.2535705200254
 20
46.12465695118311
 30
0.0
 11
159.2535705200254
 21
46.12465695118311
 31
0.0
  0
LINE
  5
27F4
330
2772
100
AcDbEntity
  8
CONTINUOUS
100
AcDbLine
 10
153.7535705200254
 20
53.12465695118311
 30
0.0
 11
157.7535705200254
 21
53.12465695118311
 31
0.0
  0
LINE
  5
27F5
330
2772
100
AcDbEntity
  8
DOTTED
100
AcDbLine
 10
155.2535705200254
 20
52.12465695118311
 30
0.0
 11
159.2535705200254
 21
52.12465695118311
 31
0.0
  0
LINE
  5
27F6
330
2772
100
AcDbEntity
  8
CONTINUOUS
100
AcDbLine
 10
157.7535705200254
 20
54.12465695118311
 30
0.0
 11
159.2535705200254
 21
54.12465695118311
 31
0.0
  0
ARC
  5
27F7
330
2772
100
AcDbEntity
  8
CONTINUOUS
100
AcDbCircle
 10
130.8772345200254
 20
61.62465695118311
 30
0.0
 40
2.0
100
AcDbArc
 50
270.0
 51
90.0
  0
LINE
  5
27F8
330
2772
100
AcDbEntity
  8
CONTINUOUS
100
AcDbLine
 10
128.8772345200254
 20
65.62465695118311
 30
0.0
 11
128.8772345200254
 21
57.62465695118311
 31
0.0
  0
LINE
  5
27F9
330
2772
100
AcDbEntity
  8
CONTINUOUS
100
AcDbLine
 10
128.8772345200254
 20
57.62465695118311
 30
0.0
 11
130.8772345200254
 21
57.62465695118311
 31
0.0
  0
LINE
  5
27FA
330
2772
100
AcDbEntity
  8
CONTINUOUS
100
AcDbLine
 10
130.8772345200254
 20
59.62465695118311
 30
0.0
 11
130.8772345200254
 21
57.62465695118311
 31
0.0
  0
LINE
  5
27FB
330
2772
100
AcDbEntity
  8
CONTINUOUS
100
AcDbLine
 10
130.8772345200254
 20
65.62465695118311
 30
0.0
 11
130.8772345200254
 21
63.62465695118311
 31
0.0
  0
LINE
  5
27FC
330
2772
100
AcDbEntity
  8
CONTINUOUS
100
AcDbLine
 10
128.8772345200254
 20
65.62465695118311
 30
0.0
 11
130.8772345200254
 21
65.62465695118311
 31
0.0
  0
LINE
  5
27FD
102
{ACAD_REACTORS
330
27E6
102
}
330
2772
100
AcDbEntity
  8
CONTINUOUS
100
AcDbLine
 10
127.8772345200254
 20
70.12465695118311
 30
0.0
 11
132.8772345200254
 21
70.12465695118311
 31
0.0
  0
ARC
  5
27FE
330
2772
100
AcDbEntity
  8
CONTINUOUS
100
AcDbCircle
 10
132.8772345200254
 20
69.62465695118311
 30
0.0
 40
0.5
100
AcDbArc
 50
0.0
 51
90.0
  0
LINE
  5
27FF
330
2772
100
AcDbEntity
  8
CENTER
100
AcDbLine
 10
150.2535705200254
 20
61.62465695118311
 30
0.0
 11
158.7535705200254
 21
61.62465695118311
 31
0.0
  0
LINE
  5
2800
102
{ACAD_REACTORS
330
27E1
102
}
330
2772
100
AcDbEntity
  8
CONTINUOUS
100
AcDbLine
 10
151.2535705200254
 20
78.12465695118311
 30
0.0
 11
159.2535705200254
 21
78.12465695118311
 31
0.0
  0
LINE
  5
2801
330
2772
100
AcDbEntity
  8
DOTTED
100
AcDbLine
 10
151.2535705200254
 20
75.72465695118309
 30
0.0
 11
155.2535705200254
 21
75.72465695118309
 31
0.0
  0
LINE
  5
2802
330
2772
100
AcDbEntity
  8
DOTTED
100
AcDbLine
 10
151.2535705200254
 20
72.52465695118313
 30
0.0
 11
155.2535705200254
 21
72.52465695118313
 31
0.0
  0
LINE
  5
2803
330
2772
100
AcDbEntity
  8
CONTINUOUS
100
AcDbLine
 10
159.2535705200254
 20
78.12465695118311
 30
0.0
 11
159.2535705200254
 21
69.12465695118311
 31
0.0
  0
LINE
  5
2804
102
{ACAD_REACTORS
330
27DE
102
}
330
2772
100
AcDbEntity
  8
DOTTED
100
AcDbLine
 10
155.2535705200254
 20
77.12465695118311
 30
0.0
 11
155.2535705200254
 21
71.12465695118311
 31
0.0
  0
LINE
  5
2805
330
2772
100
AcDbEntity
  8
CONTINUOUS
100
AcDbLine
 10
153.7535705200254
 20
70.12465695118311
 30
0.0
 11
157.7535705200254
 21
70.12465695118311
 31
0.0
  0
LINE
  5
2806
330
2772
100
AcDbEntity
  8
DOTTED
100
AcDbLine
 10
155.2535705200254
 20
71.12465695118311
 30
0.0
 11
159.2535705200254
 21
71.12465695118311
 31
0.0
  0
LINE
  5
2807
330
2772
100
AcDbEntity
  8
CONTINUOUS
100
AcDbLine
 10
157.7535705200254
 20
69.12465695118311
 30
0.0
 11
159.2535705200254
 21
69.12465695118311
 31
0.0
  0
LINE
  5
2808
330
2772
100
AcDbEntity
  8
DOTTED
100
AcDbLine
 10
155.2535705200254
 20
77.12465695118311
 30
0.0
 11
159.2535705200254
 21
77.12465695118311
 31
0.0
  0
MTEXT
  5
2809
330
2772
100
AcDbEntity
  8
GAIKEI
100
AcDbMText
 10
-0.000000287488092
 20
136.5341353288614
 30
0.0
 40
3.0
 41
106.2100999999999
 46
0.0
 71
     1
 72
     5
  1
{\Fsimplex.shx,bigfont.shx;DINレール取付プレート 外形図\P型番：SI-DIN70}
 73
     1
 44
1.0
  0
ENDBLK
  5
280B
330
2772
100
AcDbEntity
  8
0
100
AcDbBlockEnd
  0
BLOCK
  5
2C41
330
2C35
100
AcDbEntity
  8
0
100
AcDbBlockBegin
  2
*D19
 70
     1
 10
0.0
 20
0.0
 30
0.0
  3
*D19
  1

  0
LINE
  5
3A73
330
2C35
100
AcDbEntity
  8
寸法
440
 16777216
100
AcDbLine
 10
206.2395910203821
 20
152.4188375929324
 30
0.0
 11
206.2395910203821
 21
162.4188375929324
 31
0.0
  0
LINE
  5
3A74
330
2C35
100
AcDbEntity
  8
寸法
440
 16777216
100
AcDbLine
 10
208.7395910203821
 20
152.4188375929324
 30
0.0
 11
208.7395910203821
 21
162.4188375929324
 31
0.0
  0
LINE
  5
3A75
330
2C35
100
AcDbEntity
  8
寸法
440
 16777216
100
AcDbLine
 10
211.2395910203821
 20
161.4188375929324
 30
0.0
 11
213.7395910203821
 21
161.4188375929324
 31
0.0
  0
LINE
  5
3A76
330
2C35
100
AcDbEntity
  8
寸法
440
 16777216
100
AcDbLine
 10
203.7395910203821
 20
161.4188375929324
 30
0.0
 11
194.2395910203821
 21
161.4188375929324
 31
0.0
  0
LINE
  5
3A77
330
2C35
100
AcDbEntity
  8
寸法
440
 16777216
100
AcDbLine
 10
208.7395910203821
 20
161.4188375929324
 30
0.0
 11
206.2395910203821
 21
161.4188375929324
 31
0.0
  0
SOLID
  5
3A78
330
2C35
100
AcDbEntity
  8
寸法
440
 16777216
100
AcDbTrace
 10
211.2395910203821
 20
161.835504259599
 30
0.0
 11
211.2395910203821
 21
161.0021709262657
 31
0.0
 12
208.7395910203821
 22
161.4188375929324
 32
0.0
 13
208.7395910203821
 23
161.4188375929324
 33
0.0
  0
SOLID
  5
3A79
330
2C35
100
AcDbEntity
  8
寸法
440
 16777216
100
AcDbTrace
 10
203.7395910203821
 20
161.835504259599
 30
0.0
 11
203.7395910203821
 21
161.0021709262657
 31
0.0
 12
206.2395910203821
 22
161.4188375929324
 32
0.0
 13
206.2395910203821
 23
161.4188375929324
 33
0.0
  0
MTEXT
  5
3A7A
330
2C35
100
AcDbEntity
  8
寸法
440
 16777216
100
AcDbMText
 10
197.7395910203821
 20
163.6688375929324
 30
0.0
 40
2.5
 41
0.0
 46
0.0
 71
     5
 72
     1
  1
\A1;2.5
 73
     1
 44
1.0
  0
POINT
  5
3A7B
330
2C35
100
AcDbEntity
  8
Defpoints
 62
     0
440
 16777216
100
AcDbPoint
 10
206.2395910203821
 20
151.4188375929324
 30
0.0
  0
POINT
  5
3A7C
330
2C35
100
AcDbEntity
  8
Defpoints
 62
     0
440
 16777216
100
AcDbPoint
 10
208.7395910203821
 20
151.4188375929324
 30
0.0
  0
POINT
  5
3A7D
330
2C35
100
AcDbEntity
  8
Defpoints
 62
     0
440
 16777216
100
AcDbPoint
 10
208.7395910203821
 20
161.4188375929324
 30
0.0
  0
ENDBLK
  5
2C42
330
2C35
100
AcDbEntity
  8
0
100
AcDbBlockEnd
  0
BLOCK
  5
2C82
330
2C78
100
AcDbEntity
  8
0
100
AcDbBlockBegin
  2
*D20
 70
     1
 10
0.0
 20
0.0
 30
0.0
  3
*D20
  1

  0
LINE
  5
394D
330
2C78
100
AcDbEntity
  8
寸法
440
 16777216
100
AcDbLine
 10
78.67178260245423
 20
124.4188375929325
 30
0.0
 11
78.67178260245423
 21
131.6979216329468
 31
0.0
  0
LINE
  5
394E
330
2C78
100
AcDbEntity
  8
寸法
440
 16777216
100
AcDbLine
 10
148.671782602454
 20
124.4188375929324
 30
0.0
 11
148.671782602454
 21
131.6979216329468
 31
0.0
  0
LINE
  5
394F
330
2C78
100
AcDbEntity
  8
寸法
440
 16777216
100
AcDbLine
 10
81.17178260245422
 20
130.6979216329468
 30
0.0
 11
146.171782602454
 21
130.6979216329468
 31
0.0
  0
SOLID
  5
3950
330
2C78
100
AcDbEntity
  8
寸法
440
 16777216
100
AcDbTrace
 10
81.17178260245422
 20
131.1145882996134
 30
0.0
 11
81.17178260245422
 21
130.2812549662801
 31
0.0
 12
78.67178260245423
 22
130.6979216329468
 32
0.0
 13
78.67178260245423
 23
130.6979216329468
 33
0.0
  0
SOLID
  5
3951
330
2C78
100
AcDbEntity
  8
寸法
440
 16777216
100
AcDbTrace
 10
146.171782602454
 20
131.1145882996134
 30
0.0
 11
146.171782602454
 21
130.2812549662801
 31
0.0
 12
148.671782602454
 22
130.6979216329468
 32
0.0
 13
148.671782602454
 23
130.6979216329468
 33
0.0
  0
MTEXT
  5
3952
330
2C78
100
AcDbEntity
  8
寸法
440
 16777216
100
AcDbMText
 10
116.2106113428382
 20
132.9479216329468
 30
0.0
 40
2.5
 41
0.0
 46
0.0
 71
     5
 72
     1
  1
\A1;70
 73
     1
 44
1.0
  0
POINT
  5
3953
330
2C78
100
AcDbEntity
  8
Defpoints
 62
     0
440
 16777216
100
AcDbPoint
 10
78.67178260245423
 20
123.4188375929325
 30
0.0
  0
POINT
  5
3954
330
2C78
100
AcDbEntity
  8
Defpoints
 62
     0
440
 16777216
100
AcDbPoint
 10
148.671782602454
 20
123.4188375929324
 30
0.0
  0
POINT
  5
3955
330
2C78
100
AcDbEntity
  8
Defpoints
 62
     0
440
 16777216
100
AcDbPoint
 10
148.671782602454
 20
130.6979216329468
 30
0.0
  0
ENDBLK
  5
2C83
330
2C78
100
AcDbEntity
  8
0
100
AcDbBlockEnd
  0
BLOCK
  5
2CDD
330
2CD0
100
AcDbEntity
  8
0
100
AcDbBlockBegin
  2
*D21
 70
     1
 10
0.0
 20
0.0
 30
0.0
  3
*D21
  1

  0
LINE
  5
3B0A
330
2CD0
100
AcDbEntity
  8
寸法
440
 16777216
100
AcDbLine
 10
72.17178260245406
 20
67.73640400918015
 30
0.0
 11
62.31173686857926
 21
67.73640400918015
 31
0.0
  0
LINE
  5
3B0B
330
2CD0
100
AcDbEntity
  8
寸法
440
 16777216
100
AcDbLine
 10
72.17178260245406
 20
65.23640400918015
 30
0.0
 11
62.31173686857926
 21
65.23640400918015
 31
0.0
  0
LINE
  5
3B0C
330
2CD0
100
AcDbEntity
  8
寸法
440
 16777216
100
AcDbLine
 10
63.31173686857926
 20
70.23640400918015
 30
0.0
 11
63.31173686857926
 21
72.73640400918015
 31
0.0
  0
LINE
  5
3B0D
330
2CD0
100
AcDbEntity
  8
寸法
440
 16777216
100
AcDbLine
 10
63.31173686857926
 20
62.73640400918015
 30
0.0
 11
63.31173686857926
 21
60.23640400918015
 31
0.0
  0
LINE
  5
3B0E
330
2CD0
100
AcDbEntity
  8
寸法
440
 16777216
100
AcDbLine
 10
63.31173686857926
 20
60.23640400918015
 30
0.0
 11
57.31173686857926
 21
60.23640400918015
 31
0.0
  0
LINE
  5
3B0F
330
2CD0
100
AcDbEntity
  8
寸法
440
 16777216
100
AcDbLine
 10
63.31173686857926
 20
67.73640400918015
 30
0.0
 11
63.31173686857926
 21
65.23640400918015
 31
0.0
  0
SOLID
  5
3B10
330
2CD0
100
AcDbEntity
  8
寸法
440
 16777216
100
AcDbTrace
 10
62.89507020191259
 20
70.23640400918015
 30
0.0
 11
63.72840353524592
 21
70.23640400918015
 31
0.0
 12
63.31173686857926
 22
67.73640400918015
 32
0.0
 13
63.31173686857926
 23
67.73640400918015
 33
0.0
  0
SOLID
  5
3B11
330
2CD0
100
AcDbEntity
  8
寸法
440
 16777216
100
AcDbTrace
 10
62.89507020191259
 20
62.73640400918015
 30
0.0
 11
63.72840353524592
 21
62.73640400918015
 31
0.0
 12
63.31173686857926
 22
65.23640400918015
 32
0.0
 13
63.31173686857926
 23
65.23640400918015
 33
0.0
  0
MTEXT
  5
3B12
330
2CD0
100
AcDbEntity
  8
寸法
440
 16777216
100
AcDbMText
 10
59.81173686857925
 20
62.48640400918016
 30
0.0
 40
2.5
 41
0.0
 46
0.0
 71
     5
 72
     1
  1
\A1;2.5
 73
     1
 44
1.0
  0
POINT
  5
3B13
330
2CD0
100
AcDbEntity
  8
Defpoints
 62
     0
440
 16777216
100
AcDbPoint
 10
73.17178260245405
 20
67.73640400918015
 30
0.0
  0
POINT
  5
3B14
330
2CD0
100
AcDbEntity
  8
Defpoints
 62
     0
440
 16777216
100
AcDbPoint
 10
73.17178260245405
 20
65.23640400918015
 30
0.0
  0
POINT
  5
3B15
330
2CD0
100
AcDbEntity
  8
Defpoints
 62
     0
440
 16777216
100
AcDbPoint
 10
63.31173686857926
 20
65.23640400918015
 30
0.0
  0
ENDBLK
  5
2CDE
330
2CD0
100
AcDbEntity
  8
0
100
AcDbBlockEnd
  0
BLOCK
  5
2F87
330
2F7D
100
AcDbEntity
  8
0
100
AcDbBlockBegin
  2
*D22
 70
     1
 10
0.0
 20
0.0
 30
0.0
  3
*D22
  1

  0
LINE
  5
3B16
330
2F7D
100
AcDbEntity
  8
寸法
440
 16777216
100
AcDbLine
 10
99.17178260245407
 20
56.23640400918015
 30
0.0
 11
99.17178260245407
 21
38.23640400918015
 31
0.0
  0
LINE
  5
3B17
330
2F7D
100
AcDbEntity
  8
寸法
440
 16777216
100
AcDbLine
 10
134.671782602454
 20
56.23640400918015
 30
0.0
 11
134.671782602454
 21
38.23640400918015
 31
0.0
  0
LINE
  5
3B18
330
2F7D
100
AcDbEntity
  8
寸法
440
 16777216
100
AcDbLine
 10
101.671782602454
 20
39.23640400918015
 30
0.0
 11
132.171782602454
 21
39.23640400918015
 31
0.0
  0
SOLID
  5
3B19
330
2F7D
100
AcDbEntity
  8
寸法
440
 16777216
100
AcDbTrace
 10
101.671782602454
 20
39.65307067584681
 30
0.0
 11
101.671782602454
 21
38.81973734251348
 31
0.0
 12
99.17178260245407
 22
39.23640400918015
 32
0.0
 13
99.17178260245407
 23
39.23640400918015
 33
0.0
  0
SOLID
  5
3B1A
330
2F7D
100
AcDbEntity
  8
寸法
440
 16777216
100
AcDbTrace
 10
132.171782602454
 20
39.65307067584681
 30
0.0
 11
132.171782602454
 21
38.81973734251348
 31
0.0
 12
134.671782602454
 22
39.23640400918015
 32
0.0
 13
134.671782602454
 23
39.23640400918015
 33
0.0
  0
MTEXT
  5
3B1B
330
2F7D
100
AcDbEntity
  8
寸法
440
 16777216
100
AcDbMText
 10
116.921782602454
 20
41.48640400918014
 30
0.0
 40
2.5
 41
0.0
 46
0.0
 71
     5
 72
     1
  1
\A1;35.5
 73
     1
 44
1.0
  0
POINT
  5
3B1C
330
2F7D
100
AcDbEntity
  8
Defpoints
 62
     0
440
 16777216
100
AcDbPoint
 10
99.17178260245407
 20
57.23640400918014
 30
0.0
  0
POINT
  5
3B1D
330
2F7D
100
AcDbEntity
  8
Defpoints
 62
     0
440
 16777216
100
AcDbPoint
 10
134.671782602454
 20
57.23640400918014
 30
0.0
  0
POINT
  5
3B1E
330
2F7D
100
AcDbEntity
  8
Defpoints
 62
     0
440
 16777216
100
AcDbPoint
 10
134.671782602454
 20
39.23640400918015
 30
0.0
  0
ENDBLK
  5
2F88
330
2F7D
100
AcDbEntity
  8
0
100
AcDbBlockEnd
  0
BLOCK
  5
2F93
330
2F89
100
AcDbEntity
  8
0
100
AcDbBlockBegin
  2
*D23
 70
     1
 10
0.0
 20
0.0
 30
0.0
  3
*D23
  1

  0
LINE
  5
3B1F
330
2F89
100
AcDbEntity
  8
寸法
440
 16777216
100
AcDbLine
 10
99.17178260245407
 20
55.61140400918015
 30
0.0
 11
99.17178260245407
 21
46.23640400918015
 31
0.0
  0
LINE
  5
3B20
330
2F89
100
AcDbEntity
  8
寸法
440
 16777216
100
AcDbLine
 10
113.671782602454
 20
60.73640400918015
 30
0.0
 11
113.671782602454
 21
46.23640400918015
 31
0.0
  0
LINE
  5
3B21
330
2F89
100
AcDbEntity
  8
寸法
440
 16777216
100
AcDbLine
 10
101.671782602454
 20
47.23640400918014
 30
0.0
 11
111.171782602454
 21
47.23640400918014
 31
0.0
  0
SOLID
  5
3B22
330
2F89
100
AcDbEntity
  8
寸法
440
 16777216
100
AcDbTrace
 10
101.671782602454
 20
47.65307067584681
 30
0.0
 11
101.671782602454
 21
46.81973734251348
 31
0.0
 12
99.17178260245407
 22
47.23640400918014
 32
0.0
 13
99.17178260245407
 23
47.23640400918014
 33
0.0
  0
SOLID
  5
3B23
330
2F89
100
AcDbEntity
  8
寸法
440
 16777216
100
AcDbTrace
 10
111.171782602454
 20
47.65307067584681
 30
0.0
 11
111.171782602454
 21
46.81973734251348
 31
0.0
 12
113.671782602454
 22
47.23640400918014
 32
0.0
 13
113.671782602454
 23
47.23640400918014
 33
0.0
  0
MTEXT
  5
3B24
330
2F89
100
AcDbEntity
  8
寸法
440
 16777216
100
AcDbMText
 10
106.421782602454
 20
49.48640400918015
 30
0.0
 40
2.5
 41
0.0
 46
0.0
 71
     5
 72
     1
  1
\A1;14.5
 73
     1
 44
1.0
  0
POINT
  5
3B25
330
2F89
100
AcDbEntity
  8
Defpoints
 62
     0
440
 16777216
100
AcDbPoint
 10
99.17178260245407
 20
56.61140400918014
 30
0.0
  0
POINT
  5
3B26
330
2F89
100
AcDbEntity
  8
Defpoints
 62
     0
440
 16777216
100
AcDbPoint
 10
113.671782602454
 20
61.73640400918015
 30
0.0
  0
POINT
  5
3B27
330
2F89
100
AcDbEntity
  8
Defpoints
 62
     0
440
 16777216
100
AcDbPoint
 10
113.671782602454
 20
47.23640400918014
 30
0.0
  0
ENDBLK
  5
2F94
330
2F89
100
AcDbEntity
  8
0
100
AcDbBlockEnd
  0
BLOCK
  5
2FC5
330
2FB9
100
AcDbEntity
  8
0
100
AcDbBlockBegin
  2
*D24
 70
     1
 10
0.0
 20
0.0
 30
0.0
  3
*D24
  1

  0
LINE
  5
3B28
330
2FB9
100
AcDbEntity
  8
寸法
440
 16777216
100
AcDbLine
 10
158.171782602454
 20
62.73640400918015
 30
0.0
 11
168.671782602454
 21
62.73640400918015
 31
0.0
  0
LINE
  5
3B29
330
2FB9
100
AcDbEntity
  8
寸法
440
 16777216
100
AcDbLine
 10
158.171782602454
 20
58.73640400918015
 30
0.0
 11
168.671782602454
 21
58.73640400918015
 31
0.0
  0
LINE
  5
3B2A
330
2FB9
100
AcDbEntity
  8
寸法
440
 16777216
100
AcDbLine
 10
167.671782602454
 20
65.23640400918013
 30
0.0
 11
167.671782602454
 21
67.73640400918013
 31
0.0
  0
LINE
  5
3B2B
330
2FB9
100
AcDbEntity
  8
寸法
440
 16777216
100
AcDbLine
 10
167.671782602454
 20
56.23640400918015
 30
0.0
 11
167.671782602454
 21
53.73640400918015
 31
0.0
  0
LINE
  5
3B2C
330
2FB9
100
AcDbEntity
  8
寸法
440
 16777216
100
AcDbLine
 10
167.671782602454
 20
62.73640400918015
 30
0.0
 11
167.671782602454
 21
58.73640400918015
 31
0.0
  0
SOLID
  5
3B2D
330
2FB9
100
AcDbEntity
  8
寸法
440
 16777216
100
AcDbTrace
 10
167.2551159357873
 20
65.23640400918013
 30
0.0
 11
168.0884492691206
 21
65.23640400918013
 31
0.0
 12
167.671782602454
 22
62.73640400918015
 32
0.0
 13
167.671782602454
 23
62.73640400918015
 33
0.0
  0
SOLID
  5
3B2E
330
2FB9
100
AcDbEntity
  8
寸法
440
 16777216
100
AcDbTrace
 10
167.2551159357873
 20
56.23640400918015
 30
0.0
 11
168.0884492691206
 21
56.23640400918015
 31
0.0
 12
167.671782602454
 22
58.73640400918015
 32
0.0
 13
167.671782602454
 23
58.73640400918015
 33
0.0
  0
MTEXT
  5
3B2F
330
2FB9
100
AcDbEntity
  8
寸法
440
 16777216
100
AcDbMText
 10
165.421782602454
 20
60.73640400918018
 30
0.0
 40
2.5
 41
0.0
 46
0.0
 71
     5
 72
     1
  1
\A1;4
 11
0.0000000000000001
 21
1.0
 31
0.0
 73
     1
 44
1.0
  0
POINT
  5
3B30
330
2FB9
100
AcDbEntity
  8
Defpoints
 62
     0
440
 16777216
100
AcDbPoint
 10
157.171782602454
 20
62.73640400918015
 30
0.0
  0
POINT
  5
3B31
330
2FB9
100
AcDbEntity
  8
Defpoints
 62
     0
440
 16777216
100
AcDbPoint
 10
157.171782602454
 20
58.73640400918015
 30
0.0
  0
POINT
  5
3B32
330
2FB9
100
AcDbEntity
  8
Defpoints
 62
     0
440
 16777216
100
AcDbPoint
 10
167.671782602454
 20
58.73640400918015
 30
0.0
  0
ENDBLK
  5
2FC6
330
2FB9
100
AcDbEntity
  8
0
100
AcDbBlockEnd
  0
BLOCK
  5
3139
330
312D
100
AcDbEntity
  8
0
100
AcDbBlockBegin
  2
*D25
 70
     1
 10
0.0
 20
0.0
 30
0.0
  3
*D25
  1

  0
LINE
  5
3A7E
330
312D
100
AcDbEntity
  8
寸法
440
 16777216
100
AcDbLine
 10
208.7395910203821
 20
152.4188375929324
 30
0.0
 11
208.7395910203821
 21
162.4188375929324
 31
0.0
  0
LINE
  5
3A7F
330
312D
100
AcDbEntity
  8
寸法
440
 16777216
100
AcDbLine
 10
216.7395910203822
 20
140.9188375929325
 30
0.0
 11
216.7395910203822
 21
162.4188375929324
 31
0.0
  0
LINE
  5
3A80
330
312D
100
AcDbEntity
  8
寸法
440
 16777216
100
AcDbLine
 10
211.2395910203821
 20
161.4188375929324
 30
0.0
 11
214.2395910203821
 21
161.4188375929324
 31
0.0
  0
LINE
  5
3A81
330
312D
100
AcDbEntity
  8
寸法
440
 16777216
100
AcDbLine
 10
216.7395910203822
 20
161.4188375929324
 30
0.0
 11
224.0932027097599
 21
161.4188375929324
 31
0.0
  0
SOLID
  5
3A82
330
312D
100
AcDbEntity
  8
寸法
440
 16777216
100
AcDbTrace
 10
211.2395910203821
 20
161.835504259599
 30
0.0
 11
211.2395910203821
 21
161.0021709262657
 31
0.0
 12
208.7395910203821
 22
161.4188375929324
 32
0.0
 13
208.7395910203821
 23
161.4188375929324
 33
0.0
  0
SOLID
  5
3A83
330
312D
100
AcDbEntity
  8
寸法
440
 16777216
100
AcDbTrace
 10
214.2395910203821
 20
161.835504259599
 30
0.0
 11
214.2395910203821
 21
161.0021709262657
 31
0.0
 12
216.7395910203822
 22
161.4188375929324
 32
0.0
 13
216.7395910203822
 23
161.4188375929324
 33
0.0
  0
MTEXT
  5
3A84
330
312D
100
AcDbEntity
  8
寸法
440
 16777216
100
AcDbMText
 10
222.2598693764266
 20
163.6688375929324
 30
0.0
 40
2.5
 41
0.0
 46
0.0
 71
     5
 72
     1
  1
\A1;8
 73
     1
 44
1.0
  0
POINT
  5
3A85
330
312D
100
AcDbEntity
  8
Defpoints
 62
     0
440
 16777216
100
AcDbPoint
 10
208.7395910203821
 20
151.4188375929324
 30
0.0
  0
POINT
  5
3A86
330
312D
100
AcDbEntity
  8
Defpoints
 62
     0
440
 16777216
100
AcDbPoint
 10
216.7395910203822
 20
139.9188375929325
 30
0.0
  0
POINT
  5
3A87
330
312D
100
AcDbEntity
  8
Defpoints
 62
     0
440
 16777216
100
AcDbPoint
 10
216.7395910203822
 20
161.4188375929324
 30
0.0
  0
ENDBLK
  5
313A
330
312D
100
AcDbEntity
  8
0
100
AcDbBlockEnd
  0
BLOCK
  5
3187
330
317A
100
AcDbEntity
  8
0
100
AcDbBlockBegin
  2
*D26
 70
     1
 10
0.0
 20
0.0
 30
0.0
  3
*D26
  1

  0
LINE
  5
3AD1
330
317A
100
AcDbEntity
  8
寸法
440
 16777216
100
AcDbLine
 10
117.931033709331
 20
67.73640400918015
 30
0.0
 11
124.1427057887961
 21
67.73640400918015
 31
0.0
  0
LINE
  5
3AD2
330
317A
100
AcDbEntity
  8
寸法
440
 16777216
100
AcDbLine
 10
117.931033709331
 20
65.23640400918015
 30
0.0
 11
124.1427057887961
 21
65.23640400918015
 31
0.0
  0
LINE
  5
3AD3
330
317A
100
AcDbEntity
  8
寸法
440
 16777216
100
AcDbLine
 10
123.1427057887961
 20
70.23640400918015
 30
0.0
 11
123.1427057887961
 21
72.73640400918015
 31
0.0
  0
LINE
  5
3AD4
330
317A
100
AcDbEntity
  8
寸法
440
 16777216
100
AcDbLine
 10
123.1427057887961
 20
62.73640400918015
 30
0.0
 11
123.1427057887961
 21
56.5121780009483
 31
0.0
  0
LINE
  5
3AD5
330
317A
100
AcDbEntity
  8
寸法
440
 16777216
100
AcDbLine
 10
123.1427057887961
 20
56.5121780009483
 30
0.0
 11
117.1427057887961
 21
56.5121780009483
 31
0.0
  0
LINE
  5
3AD6
330
317A
100
AcDbEntity
  8
寸法
440
 16777216
100
AcDbLine
 10
123.1427057887961
 20
67.73640400918015
 30
0.0
 11
123.1427057887961
 21
65.23640400918015
 31
0.0
  0
SOLID
  5
3AD7
330
317A
100
AcDbEntity
  8
寸法
440
 16777216
100
AcDbTrace
 10
122.7260391221294
 20
70.23640400918015
 30
0.0
 11
123.5593724554628
 21
70.23640400918015
 31
0.0
 12
123.1427057887961
 22
67.73640400918015
 32
0.0
 13
123.1427057887961
 23
67.73640400918015
 33
0.0
  0
SOLID
  5
3AD8
330
317A
100
AcDbEntity
  8
寸法
440
 16777216
100
AcDbTrace
 10
122.7260391221294
 20
62.73640400918015
 30
0.0
 11
123.5593724554628
 21
62.73640400918015
 31
0.0
 12
123.1427057887961
 22
65.23640400918015
 32
0.0
 13
123.1427057887961
 23
65.23640400918015
 33
0.0
  0
MTEXT
  5
3AD9
330
317A
100
AcDbEntity
  8
寸法
440
 16777216
100
AcDbMText
 10
119.6427057887961
 20
58.76217800094832
 30
0.0
 40
2.5
 41
0.0
 46
0.0
 71
     5
 72
     1
  1
\A1;2.5
 73
     1
 44
1.0
  0
POINT
  5
3ADA
330
317A
100
AcDbEntity
  8
Defpoints
 62
     0
440
 16777216
100
AcDbPoint
 10
116.931033709331
 20
67.73640400918015
 30
0.0
  0
POINT
  5
3ADB
330
317A
100
AcDbEntity
  8
Defpoints
 62
     0
440
 16777216
100
AcDbPoint
 10
116.931033709331
 20
65.23640400918015
 30
0.0
  0
POINT
  5
3ADC
330
317A
100
AcDbEntity
  8
Defpoints
 62
     0
440
 16777216
100
AcDbPoint
 10
123.1427057887961
 20
65.23640400918015
 30
0.0
  0
ENDBLK
  5
3188
330
317A
100
AcDbEntity
  8
0
100
AcDbBlockEnd
  0
BLOCK
  5
31D5
330
31C8
100
AcDbEntity
  8
0
100
AcDbBlockBegin
  2
*D27
 70
     1
 10
0.0
 20
0.0
 30
0.0
  3
*D27
  1

  0
LINE
  5
3A9D
330
31C8
100
AcDbEntity
  8
寸法
440
 16777216
100
AcDbLine
 10
72.17178260245406
 20
151.4188375929324
 30
0.0
 11
62.17178260245407
 21
151.4188375929324
 31
0.0
  0
LINE
  5
3A9E
330
31C8
100
AcDbEntity
  8
寸法
440
 16777216
100
AcDbLine
 10
74.77121438040176
 20
145.9211385926845
 30
0.0
 11
62.17178260245407
 21
145.9211385926845
 31
0.0
  0
LINE
  5
3A9F
330
31C8
100
AcDbEntity
  8
寸法
440
 16777216
100
AcDbLine
 10
63.17178260245407
 20
153.9188375929324
 30
0.0
 11
63.17178260245407
 21
156.4188375929324
 31
0.0
  0
LINE
  5
3AA0
330
31C8
100
AcDbEntity
  8
寸法
440
 16777216
100
AcDbLine
 10
63.17178260245406
 20
143.4211385926845
 30
0.0
 11
63.17178260245406
 21
140.9211385926845
 31
0.0
  0
LINE
  5
3AA1
330
31C8
100
AcDbEntity
  8
寸法
440
 16777216
100
AcDbLine
 10
63.17178260245407
 20
151.4188375929324
 30
0.0
 11
63.17178260245407
 21
145.9211385926845
 31
0.0
  0
SOLID
  5
3AA2
330
31C8
100
AcDbEntity
  8
寸法
440
 16777216
100
AcDbTrace
 10
62.75511593578741
 20
153.9188375929324
 30
0.0
 11
63.58844926912073
 21
153.9188375929324
 31
0.0
 12
63.17178260245407
 22
151.4188375929324
 32
0.0
 13
63.17178260245407
 23
151.4188375929324
 33
0.0
  0
SOLID
  5
3AA3
330
31C8
100
AcDbEntity
  8
寸法
440
 16777216
100
AcDbTrace
 10
62.7551159357874
 20
143.4211385926845
 30
0.0
 11
63.58844926912073
 21
143.4211385926845
 31
0.0
 12
63.17178260245407
 22
145.9211385926845
 32
0.0
 13
63.17178260245407
 23
145.9211385926845
 33
0.0
  0
MTEXT
  5
3AA4
330
31C8
100
AcDbEntity
  8
寸法
440
 16777216
100
AcDbMText
 10
60.92178260245404
 20
148.6699880928084
 30
0.0
 40
2.5
 41
0.0
 46
0.0
 71
     5
 72
     1
  1
\A1;5.5
 11
0.0000000000000001
 21
1.0
 31
0.0
 73
     1
 44
1.0
  0
POINT
  5
3AA5
330
31C8
100
AcDbEntity
  8
Defpoints
 62
     0
440
 16777216
100
AcDbPoint
 10
73.17178260245405
 20
151.4188375929324
 30
0.0
  0
POINT
  5
3AA6
330
31C8
100
AcDbEntity
  8
Defpoints
 62
     0
440
 16777216
100
AcDbPoint
 10
75.77121438040176
 20
145.9211385926845
 30
0.0
  0
POINT
  5
3AA7
330
31C8
100
AcDbEntity
  8
Defpoints
 62
     0
440
 16777216
100
AcDbPoint
 10
63.17178260245407
 20
145.9211385926845
 30
0.0
  0
ENDBLK
  5
31D6
330
31C8
100
AcDbEntity
  8
0
100
AcDbBlockEnd
  0
BLOCK
  5
3206
330
31FC
100
AcDbEntity
  8
0
100
AcDbBlockBegin
  2
*D28
 70
     1
 10
0.0
 20
0.0
 30
0.0
  3
*D28
  1

  0
LINE
  5
3A94
330
31FC
100
AcDbEntity
  8
寸法
440
 16777216
100
AcDbLine
 10
72.17178260245406
 20
151.4188375929324
 30
0.0
 11
54.17178260245407
 21
151.4188375929324
 31
0.0
  0
LINE
  5
3A95
330
31FC
100
AcDbEntity
  8
寸法
440
 16777216
100
AcDbLine
 10
73.67178260245406
 20
135.9188375929325
 30
0.0
 11
54.17178260245406
 21
135.9188375929325
 31
0.0
  0
LINE
  5
3A96
330
31FC
100
AcDbEntity
  8
寸法
440
 16777216
100
AcDbLine
 10
55.17178260245406
 20
148.9188375929324
 30
0.0
 11
55.17178260245406
 21
138.4188375929325
 31
0.0
  0
SOLID
  5
3A97
330
31FC
100
AcDbEntity
  8
寸法
440
 16777216
100
AcDbTrace
 10
54.7551159357874
 20
148.9188375929324
 30
0.0
 11
55.58844926912072
 21
148.9188375929324
 31
0.0
 12
55.17178260245406
 22
151.4188375929324
 32
0.0
 13
55.17178260245406
 23
151.4188375929324
 33
0.0
  0
SOLID
  5
3A98
330
31FC
100
AcDbEntity
  8
寸法
440
 16777216
100
AcDbTrace
 10
54.75511593578739
 20
138.4188375929325
 30
0.0
 11
55.58844926912072
 21
138.4188375929325
 31
0.0
 12
55.17178260245406
 22
135.9188375929325
 32
0.0
 13
55.17178260245406
 23
135.9188375929325
 33
0.0
  0
MTEXT
  5
3A99
330
31FC
100
AcDbEntity
  8
寸法
440
 16777216
100
AcDbMText
 10
52.92178260245403
 20
143.6688375929325
 30
0.0
 40
2.5
 41
0.0
 46
0.0
 71
     5
 72
     1
  1
\A1;15.5
 11
0.0000000000000001
 21
1.0
 31
0.0
 73
     1
 44
1.0
  0
POINT
  5
3A9A
330
31FC
100
AcDbEntity
  8
Defpoints
 62
     0
440
 16777216
100
AcDbPoint
 10
73.17178260245405
 20
151.4188375929324
 30
0.0
  0
POINT
  5
3A9B
330
31FC
100
AcDbEntity
  8
Defpoints
 62
     0
440
 16777216
100
AcDbPoint
 10
74.67178260245406
 20
135.9188375929325
 30
0.0
  0
POINT
  5
3A9C
330
31FC
100
AcDbEntity
  8
Defpoints
 62
     0
440
 16777216
100
AcDbPoint
 10
55.17178260245406
 20
135.9188375929325
 30
0.0
  0
ENDBLK
  5
3207
330
31FC
100
AcDbEntity
  8
0
100
AcDbBlockEnd
  0
BLOCK
  5
3236
330
322C
100
AcDbEntity
  8
0
100
AcDbBlockBegin
  2
*D29
 70
     1
 10
0.0
 20
0.0
 30
0.0
  3
*D29
  1

  0
LINE
  5
3A8B
330
322C
100
AcDbEntity
  8
寸法
440
 16777216
100
AcDbLine
 10
72.17178260245406
 20
95.41883759293243
 30
0.0
 11
46.17178260245404
 21
95.41883759293243
 31
0.0
  0
LINE
  5
3A8C
330
322C
100
AcDbEntity
  8
寸法
440
 16777216
100
AcDbLine
 10
72.17178260245406
 20
151.4188375929324
 30
0.0
 11
46.17178260245405
 21
151.4188375929324
 31
0.0
  0
LINE
  5
3A8D
330
322C
100
AcDbEntity
  8
寸法
440
 16777216
100
AcDbLine
 10
47.17178260245404
 20
97.91883759293243
 30
0.0
 11
47.17178260245406
 21
148.9188375929324
 31
0.0
  0
SOLID
  5
3A8E
330
322C
100
AcDbEntity
  8
寸法
440
 16777216
100
AcDbTrace
 10
46.75511593578738
 20
97.91883759293243
 30
0.0
 11
47.58844926912071
 21
97.91883759293243
 31
0.0
 12
47.17178260245404
 22
95.41883759293243
 32
0.0
 13
47.17178260245404
 23
95.41883759293243
 33
0.0
  0
SOLID
  5
3A8F
330
322C
100
AcDbEntity
  8
寸法
440
 16777216
100
AcDbTrace
 10
46.75511593578739
 20
148.9188375929324
 30
0.0
 11
47.58844926912072
 21
148.9188375929324
 31
0.0
 12
47.17178260245406
 22
151.4188375929324
 32
0.0
 13
47.17178260245406
 23
151.4188375929324
 33
0.0
  0
MTEXT
  5
3A90
330
322C
100
AcDbEntity
  8
寸法
440
 16777216
100
AcDbMText
 10
44.92178260245403
 20
123.4188375929324
 30
0.0
 40
2.5
 41
0.0
 46
0.0
 71
     5
 72
     1
  1
\A1;56
 11
0.0000000000000001
 21
1.0
 31
0.0
 73
     1
 44
1.0
  0
POINT
  5
3A91
330
322C
100
AcDbEntity
  8
Defpoints
 62
     0
440
 16777216
100
AcDbPoint
 10
73.17178260245405
 20
95.41883759293243
 30
0.0
  0
POINT
  5
3A92
330
322C
100
AcDbEntity
  8
Defpoints
 62
     0
440
 16777216
100
AcDbPoint
 10
73.17178260245405
 20
151.4188375929324
 30
0.0
  0
POINT
  5
3A93
330
322C
100
AcDbEntity
  8
Defpoints
 62
     0
440
 16777216
100
AcDbPoint
 10
47.17178260245406
 20
151.4188375929324
 30
0.0
  0
ENDBLK
  5
3237
330
322C
100
AcDbEntity
  8
0
100
AcDbBlockEnd
  0
BLOCK
  5
324E
330
3244
100
AcDbEntity
  8
0
100
AcDbBlockBegin
  2
*D30
 70
     1
 10
0.0
 20
0.0
 30
0.0
  3
*D30
  1

  0
LINE
  5
3A3F
330
3244
100
AcDbEntity
  8
寸法
440
 16777216
100
AcDbLine
 10
158.171782602454
 20
131.9188375929325
 30
0.0
 11
168.671782602454
 21
131.9188375929325
 31
0.0
  0
LINE
  5
3A40
330
3244
100
AcDbEntity
  8
寸法
440
 16777216
100
AcDbLine
 10
158.171782602454
 20
114.9188375929325
 30
0.0
 11
168.671782602454
 21
114.9188375929325
 31
0.0
  0
LINE
  5
3A41
330
3244
100
AcDbEntity
  8
寸法
440
 16777216
100
AcDbLine
 10
167.671782602454
 20
129.4188375929325
 30
0.0
 11
167.671782602454
 21
117.4188375929325
 31
0.0
  0
SOLID
  5
3A42
330
3244
100
AcDbEntity
  8
寸法
440
 16777216
100
AcDbTrace
 10
167.2551159357873
 20
129.4188375929325
 30
0.0
 11
168.0884492691206
 21
129.4188375929325
 31
0.0
 12
167.671782602454
 22
131.9188375929325
 32
0.0
 13
167.671782602454
 23
131.9188375929325
 33
0.0
  0
SOLID
  5
3A43
330
3244
100
AcDbEntity
  8
寸法
440
 16777216
100
AcDbTrace
 10
167.2551159357873
 20
117.4188375929325
 30
0.0
 11
168.0884492691206
 21
117.4188375929325
 31
0.0
 12
167.671782602454
 22
114.9188375929325
 32
0.0
 13
167.671782602454
 23
114.9188375929325
 33
0.0
  0
MTEXT
  5
3A44
330
3244
100
AcDbEntity
  8
寸法
440
 16777216
100
AcDbMText
 10
165.4217826024539
 20
123.4188375929325
 30
0.0
 40
2.5
 41
0.0
 46
0.0
 71
     5
 72
     1
  1
\A1;17
 11
0.0000000000000001
 21
1.0
 31
0.0
 73
     1
 44
1.0
  0
POINT
  5
3A45
330
3244
100
AcDbEntity
  8
Defpoints
 62
     0
440
 16777216
100
AcDbPoint
 10
157.171782602454
 20
131.9188375929325
 30
0.0
  0
POINT
  5
3A46
330
3244
100
AcDbEntity
  8
Defpoints
 62
     0
440
 16777216
100
AcDbPoint
 10
157.171782602454
 20
114.9188375929325
 30
0.0
  0
POINT
  5
3A47
330
3244
100
AcDbEntity
  8
Defpoints
 62
     0
440
 16777216
100
AcDbPoint
 10
167.671782602454
 20
114.9188375929325
 30
0.0
  0
ENDBLK
  5
324F
330
3244
100
AcDbEntity
  8
0
100
AcDbBlockEnd
  0
BLOCK
  5
3266
330
325C
100
AcDbEntity
  8
0
100
AcDbBlockBegin
  2
*D31
 70
     1
 10
0.0
 20
0.0
 30
0.0
  3
*D31
  1

  0
LINE
  5
3A36
330
325C
100
AcDbEntity
  8
寸法
440
 16777216
100
AcDbLine
 10
153.671782602454
 20
135.9188375929325
 30
0.0
 11
176.671782602454
 21
135.9188375929325
 31
0.0
  0
LINE
  5
3A37
330
325C
100
AcDbEntity
  8
寸法
440
 16777216
100
AcDbLine
 10
153.671782602454
 20
110.9188375929325
 30
0.0
 11
176.671782602454
 21
110.9188375929325
 31
0.0
  0
LINE
  5
3A38
330
325C
100
AcDbEntity
  8
寸法
440
 16777216
100
AcDbLine
 10
175.671782602454
 20
133.4188375929325
 30
0.0
 11
175.671782602454
 21
113.4188375929324
 31
0.0
  0
SOLID
  5
3A39
330
325C
100
AcDbEntity
  8
寸法
440
 16777216
100
AcDbTrace
 10
175.2551159357873
 20
133.4188375929325
 30
0.0
 11
176.0884492691207
 21
133.4188375929325
 31
0.0
 12
175.671782602454
 22
135.9188375929325
 32
0.0
 13
175.671782602454
 23
135.9188375929325
 33
0.0
  0
SOLID
  5
3A3A
330
325C
100
AcDbEntity
  8
寸法
440
 16777216
100
AcDbTrace
 10
175.2551159357873
 20
113.4188375929324
 30
0.0
 11
176.0884492691207
 21
113.4188375929324
 31
0.0
 12
175.671782602454
 22
110.9188375929325
 32
0.0
 13
175.671782602454
 23
110.9188375929325
 33
0.0
  0
MTEXT
  5
3A3B
330
325C
100
AcDbEntity
  8
寸法
440
 16777216
100
AcDbMText
 10
173.421782602454
 20
123.4188375929325
 30
0.0
 40
2.5
 41
0.0
 46
0.0
 71
     5
 72
     1
  1
\A1;25
 11
0.0000000000000001
 21
1.0
 31
0.0
 73
     1
 44
1.0
  0
POINT
  5
3A3C
330
325C
100
AcDbEntity
  8
Defpoints
 62
     0
440
 16777216
100
AcDbPoint
 10
152.671782602454
 20
135.9188375929325
 30
0.0
  0
POINT
  5
3A3D
330
325C
100
AcDbEntity
  8
Defpoints
 62
     0
440
 16777216
100
AcDbPoint
 10
152.671782602454
 20
110.9188375929325
 30
0.0
  0
POINT
  5
3A3E
330
325C
100
AcDbEntity
  8
Defpoints
 62
     0
440
 16777216
100
AcDbPoint
 10
175.671782602454
 20
110.9188375929325
 30
0.0
  0
ENDBLK
  5
3267
330
325C
100
AcDbEntity
  8
0
100
AcDbBlockEnd
  0
BLOCK
  5
327E
330
3274
100
AcDbEntity
  8
0
100
AcDbBlockBegin
  2
*D32
 70
     1
 10
0.0
 20
0.0
 30
0.0
  3
*D32
  1

  0
LINE
  5
3A2D
330
3274
100
AcDbEntity
  8
寸法
440
 16777216
100
AcDbLine
 10
153.171782602454
 20
139.9188375929325
 30
0.0
 11
184.671782602454
 21
139.9188375929325
 31
0.0
  0
LINE
  5
3A2E
330
3274
100
AcDbEntity
  8
寸法
440
 16777216
100
AcDbLine
 10
153.171782602454
 20
106.9188375929325
 30
0.0
 11
184.671782602454
 21
106.9188375929325
 31
0.0
  0
LINE
  5
3A2F
330
3274
100
AcDbEntity
  8
寸法
440
 16777216
100
AcDbLine
 10
183.671782602454
 20
137.4188375929325
 30
0.0
 11
183.671782602454
 21
109.4188375929324
 31
0.0
  0
SOLID
  5
3A30
330
3274
100
AcDbEntity
  8
寸法
440
 16777216
100
AcDbTrace
 10
183.2551159357873
 20
137.4188375929325
 30
0.0
 11
184.0884492691206
 21
137.4188375929325
 31
0.0
 12
183.671782602454
 22
139.9188375929325
 32
0.0
 13
183.671782602454
 23
139.9188375929325
 33
0.0
  0
SOLID
  5
3A31
330
3274
100
AcDbEntity
  8
寸法
440
 16777216
100
AcDbTrace
 10
183.2551159357873
 20
109.4188375929324
 30
0.0
 11
184.0884492691206
 21
109.4188375929324
 31
0.0
 12
183.671782602454
 22
106.9188375929325
 32
0.0
 13
183.671782602454
 23
106.9188375929325
 33
0.0
  0
MTEXT
  5
3A32
330
3274
100
AcDbEntity
  8
寸法
440
 16777216
100
AcDbMText
 10
181.421782602454
 20
123.4188375929325
 30
0.0
 40
2.5
 41
0.0
 46
0.0
 71
     5
 72
     1
  1
\A1;33
 11
0.0000000000000001
 21
1.0
 31
0.0
 73
     1
 44
1.0
  0
POINT
  5
3A33
330
3274
100
AcDbEntity
  8
Defpoints
 62
     0
440
 16777216
100
AcDbPoint
 10
152.171782602454
 20
139.9188375929325
 30
0.0
  0
POINT
  5
3A34
330
3274
100
AcDbEntity
  8
Defpoints
 62
     0
440
 16777216
100
AcDbPoint
 10
152.171782602454
 20
106.9188375929325
 30
0.0
  0
POINT
  5
3A35
330
3274
100
AcDbEntity
  8
Defpoints
 62
     0
440
 16777216
100
AcDbPoint
 10
183.671782602454
 20
106.9188375929325
 30
0.0
  0
ENDBLK
  5
327F
330
3274
100
AcDbEntity
  8
0
100
AcDbBlockEnd
  0
BLOCK
  5
32B8
330
32AC
100
AcDbEntity
  8
0
100
AcDbBlockBegin
  2
*D33
 70
     1
 10
0.0
 20
0.0
 30
0.0
  3
*D33
  1

  0
LINE
  5
3B6A
330
32AC
100
AcDbEntity
  8
寸法
440
 16777216
100
AcDbLine
 10
73.17178260245405
 20
152.4188375929324
 30
0.0
 11
73.17178260245405
 21
162.4188375929324
 31
0.0
  0
LINE
  5
3B6B
330
32AC
100
AcDbEntity
  8
寸法
440
 16777216
100
AcDbLine
 10
77.67178260245406
 20
149.3541169689365
 30
0.0
 11
77.67178260245406
 21
162.4188375929324
 31
0.0
  0
LINE
  5
3B6C
330
32AC
100
AcDbEntity
  8
寸法
440
 16777216
100
AcDbLine
 10
80.17178260245406
 20
161.4188375929324
 30
0.0
 11
82.67178260245406
 21
161.4188375929324
 31
0.0
  0
LINE
  5
3B6D
330
32AC
100
AcDbEntity
  8
寸法
440
 16777216
100
AcDbLine
 10
70.67178260245405
 20
161.4188375929324
 30
0.0
 11
61.17178260245406
 21
161.4188375929324
 31
0.0
  0
LINE
  5
3B6E
330
32AC
100
AcDbEntity
  8
寸法
440
 16777216
100
AcDbLine
 10
77.67178260245406
 20
161.4188375929324
 30
0.0
 11
73.17178260245405
 21
161.4188375929324
 31
0.0
  0
SOLID
  5
3B6F
330
32AC
100
AcDbEntity
  8
寸法
440
 16777216
100
AcDbTrace
 10
80.17178260245406
 20
161.835504259599
 30
0.0
 11
80.17178260245406
 21
161.0021709262657
 31
0.0
 12
77.67178260245406
 22
161.4188375929324
 32
0.0
 13
77.67178260245406
 23
161.4188375929324
 33
0.0
  0
SOLID
  5
3B70
330
32AC
100
AcDbEntity
  8
寸法
440
 16777216
100
AcDbTrace
 10
70.67178260245405
 20
161.835504259599
 30
0.0
 11
70.67178260245405
 21
161.0021709262657
 31
0.0
 12
73.17178260245405
 22
161.4188375929324
 32
0.0
 13
73.17178260245405
 23
161.4188375929324
 33
0.0
  0
MTEXT
  5
3B71
330
32AC
100
AcDbEntity
  8
寸法
440
 16777216
100
AcDbMText
 10
64.67178260245406
 20
163.6688375929324
 30
0.0
 40
2.5
 41
0.0
 46
0.0
 71
     5
 72
     1
  1
\A1;4.5
 73
     1
 44
1.0
  0
POINT
  5
3B72
330
32AC
100
AcDbEntity
  8
Defpoints
 62
     0
440
 16777216
100
AcDbPoint
 10
73.17178260245405
 20
151.4188375929324
 30
0.0
  0
POINT
  5
3B73
330
32AC
100
AcDbEntity
  8
Defpoints
 62
     0
440
 16777216
100
AcDbPoint
 10
77.67178260245406
 20
148.3541169689365
 30
0.0
  0
POINT
  5
3B74
330
32AC
100
AcDbEntity
  8
Defpoints
 62
     0
440
 16777216
100
AcDbPoint
 10
77.67178260245406
 20
161.4188375929324
 30
0.0
  0
ENDBLK
  5
32B9
330
32AC
100
AcDbEntity
  8
0
100
AcDbBlockEnd
  0
BLOCK
  5
32DD
330
32D3
100
AcDbEntity
  8
0
100
AcDbBlockBegin
  2
*D34
 70
     1
 10
0.0
 20
0.0
 30
0.0
  3
*D34
  1

  0
LINE
  5
3A54
330
32D3
100
AcDbEntity
  8
寸法
440
 16777216
100
AcDbLine
 10
73.17178260245405
 20
152.4188375929324
 30
0.0
 11
73.17178260245405
 21
170.4188375929324
 31
0.0
  0
LINE
  5
3A55
330
32D3
100
AcDbEntity
  8
寸法
440
 16777216
100
AcDbLine
 10
135.171782602454
 20
152.4188375929324
 30
0.0
 11
135.171782602454
 21
170.4188375929324
 31
0.0
  0
LINE
  5
3A56
330
32D3
100
AcDbEntity
  8
寸法
440
 16777216
100
AcDbLine
 10
75.67178260245405
 20
169.4188375929324
 30
0.0
 11
132.671782602454
 21
169.4188375929324
 31
0.0
  0
SOLID
  5
3A57
330
32D3
100
AcDbEntity
  8
寸法
440
 16777216
100
AcDbTrace
 10
75.67178260245405
 20
169.8355042595991
 30
0.0
 11
75.67178260245405
 21
169.0021709262657
 31
0.0
 12
73.17178260245405
 22
169.4188375929324
 32
0.0
 13
73.17178260245405
 23
169.4188375929324
 33
0.0
  0
SOLID
  5
3A58
330
32D3
100
AcDbEntity
  8
寸法
440
 16777216
100
AcDbTrace
 10
132.671782602454
 20
169.8355042595991
 30
0.0
 11
132.671782602454
 21
169.0021709262657
 31
0.0
 12
135.171782602454
 22
169.4188375929324
 32
0.0
 13
135.171782602454
 23
169.4188375929324
 33
0.0
  0
MTEXT
  5
3A59
330
32D3
100
AcDbEntity
  8
寸法
440
 16777216
100
AcDbMText
 10
104.171782602454
 20
171.6688375929324
 30
0.0
 40
2.5
 41
0.0
 46
0.0
 71
     5
 72
     1
  1
\A1;62
 73
     1
 44
1.0
  0
POINT
  5
3A5A
330
32D3
100
AcDbEntity
  8
Defpoints
 62
     0
440
 16777216
100
AcDbPoint
 10
73.17178260245405
 20
151.4188375929324
 30
0.0
  0
POINT
  5
3A5B
330
32D3
100
AcDbEntity
  8
Defpoints
 62
     0
440
 16777216
100
AcDbPoint
 10
135.171782602454
 20
151.4188375929324
 30
0.0
  0
POINT
  5
3A5C
330
32D3
100
AcDbEntity
  8
Defpoints
 62
     0
440
 16777216
100
AcDbPoint
 10
135.171782602454
 20
169.4188375929324
 30
0.0
  0
ENDBLK
  5
32DE
330
32D3
100
AcDbEntity
  8
0
100
AcDbBlockEnd
  0
BLOCK
  5
32F5
330
32EB
100
AcDbEntity
  8
0
100
AcDbBlockBegin
  2
*D35
 70
     1
 10
0.0
 20
0.0
 30
0.0
  3
*D35
  1

  0
LINE
  5
3A4B
330
32EB
100
AcDbEntity
  8
寸法
440
 16777216
100
AcDbLine
 10
73.17178260245405
 20
152.4188375929324
 30
0.0
 11
73.17178260245405
 21
178.4188375929324
 31
0.0
  0
LINE
  5
3A4C
330
32EB
100
AcDbEntity
  8
寸法
440
 16777216
100
AcDbLine
 10
157.6717826024539
 20
132.4188375929325
 30
0.0
 11
157.6717826024539
 21
178.4188375929324
 31
0.0
  0
LINE
  5
3A4D
330
32EB
100
AcDbEntity
  8
寸法
440
 16777216
100
AcDbLine
 10
75.67178260245405
 20
177.4188375929324
 30
0.0
 11
155.171782602454
 21
177.4188375929324
 31
0.0
  0
SOLID
  5
3A4E
330
32EB
100
AcDbEntity
  8
寸法
440
 16777216
100
AcDbTrace
 10
75.67178260245405
 20
177.8355042595991
 30
0.0
 11
75.67178260245405
 21
177.0021709262657
 31
0.0
 12
73.17178260245405
 22
177.4188375929324
 32
0.0
 13
73.17178260245405
 23
177.4188375929324
 33
0.0
  0
SOLID
  5
3A4F
330
32EB
100
AcDbEntity
  8
寸法
440
 16777216
100
AcDbTrace
 10
155.171782602454
 20
177.8355042595991
 30
0.0
 11
155.171782602454
 21
177.0021709262657
 31
0.0
 12
157.6717826024539
 22
177.4188375929324
 32
0.0
 13
157.6717826024539
 23
177.4188375929324
 33
0.0
  0
MTEXT
  5
3A50
330
32EB
100
AcDbEntity
  8
寸法
440
 16777216
100
AcDbMText
 10
115.421782602454
 20
179.6688375929324
 30
0.0
 40
2.5
 41
0.0
 46
0.0
 71
     5
 72
     1
  1
\A1;84.5
 73
     1
 44
1.0
  0
POINT
  5
3A51
330
32EB
100
AcDbEntity
  8
Defpoints
 62
     0
440
 16777216
100
AcDbPoint
 10
73.17178260245405
 20
151.4188375929324
 30
0.0
  0
POINT
  5
3A52
330
32EB
100
AcDbEntity
  8
Defpoints
 62
     0
440
 16777216
100
AcDbPoint
 10
157.6717826024539
 20
131.4188375929325
 30
0.0
  0
POINT
  5
3A53
330
32EB
100
AcDbEntity
  8
Defpoints
 62
     0
440
 16777216
100
AcDbPoint
 10
157.6717826024539
 20
177.4188375929324
 30
0.0
  0
ENDBLK
  5
32F6
330
32EB
100
AcDbEntity
  8
0
100
AcDbBlockEnd
  0
BLOCK
  5
330D
330
3303
100
AcDbEntity
  8
0
100
AcDbBlockBegin
  2
*D36
 70
     1
 10
0.0
 20
0.0
 30
0.0
  3
*D36
  1

  0
LINE
  5
3B01
330
3303
100
AcDbEntity
  8
寸法
440
 16777216
100
AcDbLine
 10
73.17178260245405
 20
68.73640400918015
 30
0.0
 11
73.17178260245405
 21
78.73640400918015
 31
0.0
  0
LINE
  5
3B02
330
3303
100
AcDbEntity
  8
寸法
440
 16777216
100
AcDbLine
 10
152.1717826024541
 20
68.73640400918015
 30
0.0
 11
152.1717826024541
 21
78.73640400918015
 31
0.0
  0
LINE
  5
3B03
330
3303
100
AcDbEntity
  8
寸法
440
 16777216
100
AcDbLine
 10
75.67178260245405
 20
77.73640400918015
 30
0.0
 11
149.6717826024541
 21
77.73640400918015
 31
0.0
  0
SOLID
  5
3B04
330
3303
100
AcDbEntity
  8
寸法
440
 16777216
100
AcDbTrace
 10
75.67178260245405
 20
78.15307067584682
 30
0.0
 11
75.67178260245405
 21
77.31973734251347
 31
0.0
 12
73.17178260245405
 22
77.73640400918015
 32
0.0
 13
73.17178260245405
 23
77.73640400918015
 33
0.0
  0
SOLID
  5
3B05
330
3303
100
AcDbEntity
  8
寸法
440
 16777216
100
AcDbTrace
 10
149.6717826024541
 20
78.15307067584682
 30
0.0
 11
149.6717826024541
 21
77.31973734251347
 31
0.0
 12
152.1717826024541
 22
77.73640400918015
 32
0.0
 13
152.1717826024541
 23
77.73640400918015
 33
0.0
  0
MTEXT
  5
3B06
330
3303
100
AcDbEntity
  8
寸法
440
 16777216
100
AcDbMText
 10
112.671782602454
 20
79.98640400918015
 30
0.0
 40
2.5
 41
0.0
 46
0.0
 71
     5
 72
     1
  1
\A1;79
 73
     1
 44
1.0
  0
POINT
  5
3B07
330
3303
100
AcDbEntity
  8
Defpoints
 62
     0
440
 16777216
100
AcDbPoint
 10
73.17178260245405
 20
67.73640400918015
 30
0.0
  0
POINT
  5
3B08
330
3303
100
AcDbEntity
  8
Defpoints
 62
     0
440
 16777216
100
AcDbPoint
 10
152.1717826024541
 20
67.73640400918015
 30
0.0
  0
POINT
  5
3B09
330
3303
100
AcDbEntity
  8
Defpoints
 62
     0
440
 16777216
100
AcDbPoint
 10
152.1717826024541
 20
77.73640400918015
 30
0.0
  0
ENDBLK
  5
330E
330
3303
100
AcDbEntity
  8
0
100
AcDbBlockEnd
  0
BLOCK
  5
3674
330
366A
100
AcDbEntity
  8
0
100
AcDbBlockBegin
  2
*D37
 70
     1
 10
0.0
 20
0.0
 30
0.0
  3
*D37
  1

  0
LINE
  5
3AF3
330
366A
100
AcDbEntity
  8
寸法
440
 16777216
100
AcDbLine
 10
135.1717826024541
 20
94.41883759293244
 30
0.0
 11
135.1717826024541
 21
84.41883759293244
 31
0.0
  0
LINE
  5
3AF4
330
366A
100
AcDbEntity
  8
寸法
440
 16777216
100
AcDbLine
 10
127.671782602454
 20
97.91883759293243
 30
0.0
 11
127.671782602454
 21
84.41883759293244
 31
0.0
  0
LINE
  5
3AF5
330
366A
100
AcDbEntity
  8
寸法
440
 16777216
100
AcDbLine
 10
132.6717826024541
 20
85.41883759293243
 30
0.0
 11
130.171782602454
 21
85.41883759293243
 31
0.0
  0
SOLID
  5
3AF6
330
366A
100
AcDbEntity
  8
寸法
440
 16777216
100
AcDbTrace
 10
132.6717826024541
 20
85.83550425959911
 30
0.0
 11
132.6717826024541
 21
85.00217092626575
 31
0.0
 12
135.1717826024541
 22
85.41883759293243
 32
0.0
 13
135.1717826024541
 23
85.41883759293243
 33
0.0
  0
SOLID
  5
3AF7
330
366A
100
AcDbEntity
  8
寸法
440
 16777216
100
AcDbTrace
 10
130.171782602454
 20
85.83550425959911
 30
0.0
 11
130.171782602454
 21
85.00217092626575
 31
0.0
 12
127.671782602454
 22
85.41883759293243
 32
0.0
 13
127.671782602454
 23
85.41883759293243
 33
0.0
  0
MTEXT
  5
3AF8
330
366A
100
AcDbEntity
  8
寸法
440
 16777216
100
AcDbMText
 10
131.421782602454
 20
87.66883759293243
 30
0.0
 40
2.5
 41
0.0
 46
0.0
 71
     5
 72
     1
  1
\A1;7.5
 73
     1
 44
1.0
  0
POINT
  5
3AF9
330
366A
100
AcDbEntity
  8
Defpoints
 62
     0
440
 16777216
100
AcDbPoint
 10
135.1717826024541
 20
95.41883759293243
 30
0.0
  0
POINT
  5
3AFA
330
366A
100
AcDbEntity
  8
Defpoints
 62
     0
440
 16777216
100
AcDbPoint
 10
127.671782602454
 20
98.91883759293243
 30
0.0
  0
POINT
  5
3AFB
330
366A
100
AcDbEntity
  8
Defpoints
 62
     0
440
 16777216
100
AcDbPoint
 10
127.671782602454
 20
85.41883759293243
 30
0.0
  0
ENDBLK
  5
3675
330
366A
100
AcDbEntity
  8
0
100
AcDbBlockEnd
  0
BLOCK
  5
368F
330
3682
100
AcDbEntity
  8
0
100
AcDbBlockBegin
  2
*D38
 70
     1
 10
0.0
 20
0.0
 30
0.0
  3
*D38
  1

  0
LINE
  5
3AE8
330
3682
100
AcDbEntity
  8
寸法
440
 16777216
100
AcDbLine
 10
136.1717826024541
 20
95.41883759293243
 30
0.0
 11
146.1717826024541
 21
95.41883759293243
 31
0.0
  0
LINE
  5
3AE9
330
3682
100
AcDbEntity
  8
寸法
440
 16777216
100
AcDbLine
 10
131.1518960630119
 20
100.9188375929324
 30
0.0
 11
146.1717826024541
 21
100.9188375929324
 31
0.0
  0
LINE
  5
3AEA
330
3682
100
AcDbEntity
  8
寸法
440
 16777216
100
AcDbLine
 10
145.1717826024541
 20
92.91883759293243
 30
0.0
 11
145.1717826024541
 21
90.41883759293243
 31
0.0
  0
LINE
  5
3AEB
330
3682
100
AcDbEntity
  8
寸法
440
 16777216
100
AcDbLine
 10
145.1717826024541
 20
103.4188375929324
 30
0.0
 11
145.1717826024541
 21
105.9188375929324
 31
0.0
  0
LINE
  5
3AEC
330
3682
100
AcDbEntity
  8
寸法
440
 16777216
100
AcDbLine
 10
145.1717826024541
 20
95.41883759293243
 30
0.0
 11
145.1717826024541
 21
100.9188375929324
 31
0.0
  0
SOLID
  5
3AED
330
3682
100
AcDbEntity
  8
寸法
440
 16777216
100
AcDbTrace
 10
144.7551159357874
 20
92.91883759293243
 30
0.0
 11
145.5884492691207
 21
92.91883759293243
 31
0.0
 12
145.1717826024541
 22
95.41883759293243
 32
0.0
 13
145.1717826024541
 23
95.41883759293243
 33
0.0
  0
SOLID
  5
3AEE
330
3682
100
AcDbEntity
  8
寸法
440
 16777216
100
AcDbTrace
 10
144.7551159357874
 20
103.4188375929324
 30
0.0
 11
145.5884492691207
 21
103.4188375929324
 31
0.0
 12
145.1717826024541
 22
100.9188375929324
 32
0.0
 13
145.1717826024541
 23
100.9188375929324
 33
0.0
  0
MTEXT
  5
3AEF
330
3682
100
AcDbEntity
  8
寸法
440
 16777216
100
AcDbMText
 10
142.921782602454
 20
98.16883759293244
 30
0.0
 40
2.5
 41
0.0
 46
0.0
 71
     5
 72
     1
  1
\A1;5.5
 11
0.0000000000000001
 21
1.0
 31
0.0
 73
     1
 44
1.0
  0
POINT
  5
3AF0
330
3682
100
AcDbEntity
  8
Defpoints
 62
     0
440
 16777216
100
AcDbPoint
 10
135.1717826024541
 20
95.41883759293243
 30
0.0
  0
POINT
  5
3AF1
330
3682
100
AcDbEntity
  8
Defpoints
 62
     0
440
 16777216
100
AcDbPoint
 10
130.1518960630119
 20
100.9188375929324
 30
0.0
  0
POINT
  5
3AF2
330
3682
100
AcDbEntity
  8
Defpoints
 62
     0
440
 16777216
100
AcDbPoint
 10
145.1717826024541
 20
100.9188375929324
 30
0.0
  0
ENDBLK
  5
3690
330
3682
100
AcDbEntity
  8
0
100
AcDbBlockEnd
  0
ENDSEC
  0
SECTION
  2
ENTITIES
  0
DIMENSION
  5
2AEE
330
1F
100
AcDbEntity
  8
寸法
100
AcDbDimension
280
     0
  2
*D20
 10
148.671782602454
 20
130.6979216329468
 30
0.0
 11
116.2106113428382
 21
130.6979216329468
 31
0.0
 70
   160
 71
     5
 42
69.99999999999976
 73
     0
 74
     0
 75
     0
  3
LINEEYE
100
AcDbAlignedDimension
 13
78.67178260245423
 23
123.4188375929325
 33
0.0
 14
148.671782602454
 24
123.4188375929324
 34
0.0
100
AcDbRotatedDimension
  0
LINE
  5
2AF1
102
{ACAD_REACTORS
330
31E4
330
3212
330
3242
330
32C6
330
32E9
102
}
330
1F
100
AcDbEntity
  8
板金
100
AcDbLine
 10
73.17178260245405
 20
151.4188375929324
 30
0.0
 11
135.171782602454
 21
151.4188375929324
 31
0.0
  0
LINE
  5
2AF4
102
{ACAD_REACTORS
330
2B0D
102
}
330
1F
100
AcDbEntity
  8
板金
100
AcDbLine
 10
73.17178260245405
 20
65.23640400918015
 30
0.0
 11
152.1717826024541
 21
65.23640400918015
 31
0.0
  0
LINE
  5
2AF5
102
{ACAD_REACTORS
330
2B0D
330
3319
102
}
330
1F
100
AcDbEntity
  8
板金
100
AcDbLine
 10
73.17178260245405
 20
67.73640400918015
 30
0.0
 11
152.1717826024541
 21
67.73640400918015
 31
0.0
  0
LINE
  5
2AFB
102
{ACAD_REACTORS
330
3242
330
3680
330
369E
102
}
330
1F
100
AcDbEntity
  8
板金
100
AcDbLine
 10
73.17178260245405
 20
95.41883759293243
 30
0.0
 11
135.1717826024541
 21
95.41883759293243
 31
0.0
  0
LINE
  5
2B02
330
1F
100
AcDbEntity
  8
板金
100
AcDbLine
 10
73.17178260245405
 20
95.41883759293243
 30
0.0
 11
73.17178260245405
 21
151.4188375929324
 31
0.0
  0
DIMENSION
  5
2B0B
102
{ACAD_XDICTIONARY
360
2B0C
102
}
102
{ACAD_REACTORS
330
2B0D
102
}
330
1F
100
AcDbEntity
  8
寸法
100
AcDbDimension
280
     0
  2
*D21
 10
63.31173686857926
 20
65.23640400918015
 30
0.0
 11
59.81173686857925
 21
62.48640400918016
 31
0.0
 70
    32
 71
     5
 42
2.5
 73
     0
 74
     0
 75
     0
  3
LINEEYE
100
AcDbAlignedDimension
 13
73.17178260245405
 23
67.73640400918015
 33
0.0
 14
73.17178260245405
 24
65.23640400918015
 34
0.0
 50
90.0
100
AcDbRotatedDimension
  0
LINE
  5
2B0E
330
1F
100
AcDbEntity
  8
板金
100
AcDbLine
 10
73.17178260245402
 20
65.23640400918015
 30
0.0
 11
73.17178260245405
 21
67.73640400918015
 31
0.0
  0
LINE
  5
2B0F
330
1F
100
AcDbEntity
  8
隠れ線
100
AcDbLine
 10
79.371782602454
 20
67.73640400918015
 30
0.0
 11
79.371782602454
 21
65.23640400918015
 31
0.0
  0
LINE
  5
2B10
330
1F
100
AcDbEntity
  8
隠れ線
100
AcDbLine
 10
75.97178260245408
 20
67.73640400918015
 30
0.0
 11
75.97178260245408
 21
65.23640400918015
 31
0.0
  0
LINE
  5
2B11
330
1F
100
AcDbEntity
  8
隠れ線
100
AcDbLine
 10
80.2717826024542
 20
67.73640400918015
 30
0.0
 11
80.27178260245415
 21
65.23640400918015
 31
0.0
  0
LINE
  5
2B12
330
1F
100
AcDbEntity
  8
隠れ線
100
AcDbLine
 10
77.07178260245409
 20
67.73640400918015
 30
0.0
 11
77.07178260245409
 21
65.23640400918015
 31
0.0
  0
CIRCLE
  5
2B14
330
1F
100
AcDbEntity
  8
板金
100
AcDbCircle
 10
78.67178260245413
 20
110.9188375929324
 30
0.0
 40
1.6
  0
CIRCLE
  5
2B1F
330
1F
100
AcDbEntity
  8
板金
100
AcDbCircle
 10
77.67178260245406
 20
145.9211385926845
 30
0.0
 40
1.7
  0
LINE
  5
2B20
102
{ACAD_REACTORS
330
32C6
102
}
330
1F
100
AcDbEntity
  8
中心線
100
AcDbLine
 10
77.67178260245406
 20
148.3541169689365
 30
0.0
 11
77.67178260245406
 21
143.4904071937253
 31
0.0
  0
CIRCLE
  5
2B21
330
1F
100
AcDbEntity
  8
板金
100
AcDbCircle
 10
78.67178260245406
 20
135.9188375929324
 30
0.0
 40
1.6
  0
LINE
  5
2B22
330
1F
100
AcDbEntity
  8
中心線
100
AcDbLine
 10
79.17178260245406
 20
145.9211385926845
 30
0.0
 11
79.17178260245406
 21
145.9211385926845
 31
0.0
  0
LINE
  5
2B23
102
{ACAD_REACTORS
330
31E4
102
}
330
1F
100
AcDbEntity
  8
中心線
100
AcDbLine
 10
75.77121438040176
 20
145.9211385926845
 30
0.0
 11
79.17178260245406
 21
145.9211385926845
 31
0.0
  0
LINE
  5
2B25
330
1F
100
AcDbEntity
  8
板金
100
AcDbLine
 10
152.171782602454
 20
139.9188375929324
 30
0.0
 11
152.171782602454
 21
106.9188375929324
 31
0.0
  0
LINE
  5
2B26
330
1F
100
AcDbEntity
  8
板金
100
AcDbLine
 10
152.1717826024541
 20
106.9188375929324
 30
0.0
 11
152.171782602454
 21
139.9188375929324
 31
0.0
  0
LINE
  5
2B29
330
1F
100
AcDbEntity
  8
隠れ線
100
AcDbLine
 10
126.1820090561764
 20
67.73640400918015
 30
0.0
 11
126.1820090561764
 21
65.23640384446839
 31
0.0
  0
LINE
  5
2B2A
330
1F
100
AcDbEntity
  8
隠れ線
100
AcDbLine
 10
129.5820090561763
 20
67.73640400918015
 30
0.0
 11
129.5820090561763
 21
65.23640384446839
 31
0.0
  0
LINE
  5
2B2B
330
1F
100
AcDbEntity
  8
板金
100
AcDbLine
 10
135.1717826024541
 20
67.73640400918015
 30
0.0
 11
135.1717826024541
 21
65.23640400918015
 31
0.0
  0
LINE
  5
2B2C
330
1F
100
AcDbEntity
  8
隠れ線
100
AcDbLine
 10
147.071782602454
 20
67.73640400918015
 30
0.0
 11
147.071782602454
 21
65.23640400918015
 31
0.0
  0
LINE
  5
2B2D
330
1F
100
AcDbEntity
  8
隠れ線
100
AcDbLine
 10
150.2717826024541
 20
67.73640400918015
 30
0.0
 11
150.2717826024541
 21
65.23640400918015
 31
0.0
  0
LINE
  5
2B2E
330
1F
100
AcDbEntity
  8
板金
100
AcDbLine
 10
152.1717826024541
 20
67.73640400918015
 30
0.0
 11
152.1717826024541
 21
65.23640400918015
 31
0.0
  0
LINE
  5
2B31
330
1F
100
AcDbEntity
  8
寸法
100
AcDbLine
 10
152.1717826024541
 20
106.9188375929324
 30
0.0
 11
135.1717826024541
 21
106.9188375929324
 31
0.0
  0
CIRCLE
  5
2B32
330
1F
100
AcDbEntity
  8
寸法
100
AcDbCircle
 10
127.671782602454
 20
100.9188375929324
 30
0.0
 40
1.7
  0
LINE
  5
2B33
330
1F
100
AcDbEntity
  8
板金
100
AcDbLine
 10
135.1717826024541
 20
106.9188375929324
 30
0.0
 11
135.1717826024541
 21
95.41883759293243
 31
0.0
  0
LINE
  5
2B34
102
{ACAD_REACTORS
330
3680
102
}
330
1F
100
AcDbEntity
  8
中心線
100
AcDbLine
 10
127.671782602454
 20
102.9188375929324
 30
0.0
 11
127.671782602454
 21
98.91883759293243
 31
0.0
  0
LINE
  5
2B39
102
{ACAD_REACTORS
330
369E
102
}
330
1F
100
AcDbEntity
  8
中心線
100
AcDbLine
 10
130.1518960630119
 20
100.9188375929324
 30
0.0
 11
125.6121234415549
 21
100.9188375929324
 31
0.0
  0
LINE
  5
2B3A
330
1F
100
AcDbEntity
  8
中心線
100
AcDbLine
 10
125.6121234415549
 20
100.9188375929324
 30
0.0
 11
125.6121234415549
 21
100.9188375929324
 31
0.0
  0
CIRCLE
  5
2B3B
330
1F
100
AcDbEntity
  8
板金
100
AcDbCircle
 10
148.671782602454
 20
110.9188375929325
 30
0.0
 40
1.6
  0
LINE
  5
2B3D
330
1F
100
AcDbEntity
  8
板金
100
AcDbLine
 10
152.171782602454
 20
139.9188375929324
 30
0.0
 11
135.171782602454
 21
139.9188375929324
 31
0.0
  0
LINE
  5
2B3E
330
1F
100
AcDbEntity
  8
板金
100
AcDbLine
 10
135.171782602454
 20
139.9188375929324
 30
0.0
 11
135.171782602454
 21
151.4188375929324
 31
0.0
  0
CIRCLE
  5
2B3F
330
1F
100
AcDbEntity
  8
板金
100
AcDbCircle
 10
148.671782602454
 20
135.9188375929325
 30
0.0
 40
1.6
  0
LINE
  5
2B41
330
1F
100
AcDbEntity
  8
板金
100
AcDbLine
 10
206.2395910203821
 20
151.4188375929323
 30
0.0
 11
206.2395910203821
 21
95.41883759293243
 31
0.0
  0
LINE
  5
2B45
330
1F
100
AcDbEntity
  8
板金
100
AcDbLine
 10
208.7395910203821
 20
151.4188375929324
 30
0.0
 11
208.7395910203821
 21
95.41883759293243
 31
0.0
  0
LINE
  5
2B46
330
1F
100
AcDbEntity
  8
隠れ線
100
AcDbLine
 10
206.2395910203821
 20
99.21883759293246
 30
0.0
 11
208.7395910203821
 21
99.21883759293246
 31
0.0
  0
LINE
  5
2B47
330
1F
100
AcDbEntity
  8
板金
100
AcDbLine
 10
206.2395910203821
 20
95.41883759293243
 30
0.0
 11
208.7395910203821
 21
95.41883759293243
 31
0.0
  0
LINE
  5
2B48
330
1F
100
AcDbEntity
  8
隠れ線
100
AcDbLine
 10
206.2395910203821
 20
102.6188375929324
 30
0.0
 11
208.7395910203821
 21
102.6188375929324
 31
0.0
  0
LINE
  5
2B49
330
1F
100
AcDbEntity
  8
板金
100
AcDbLine
 10
206.2395910203821
 20
106.9188375929324
 30
0.0
 11
208.7395910203821
 21
106.9188375929324
 31
0.0
  0
LINE
  5
2B4A
330
1F
100
AcDbEntity
  8
隠れ線
100
AcDbLine
 10
208.7395910203821
 20
109.3188375929324
 30
0.0
 11
206.2395910203821
 21
109.3188375929324
 31
0.0
  0
LINE
  5
2B4B
330
1F
100
AcDbEntity
  8
隠れ線
100
AcDbLine
 10
208.7395910203821
 20
112.5188375929325
 30
0.0
 11
206.2395910203821
 21
112.5188375929325
 31
0.0
  0
DIMENSION
  5
2B4C
330
1F
100
AcDbEntity
  8
寸法
100
AcDbDimension
280
     0
  2
*D19
 10
208.7395910203821
 20
161.4188375929324
 30
0.0
 11
197.7395910203821
 21
161.4188375929324
 31
0.0
 70
   160
 71
     5
 42
2.5
 73
     0
 74
     0
 75
     0
  3
LINEEYE
100
AcDbAlignedDimension
 13
206.2395910203821
 23
151.4188375929324
 33
0.0
 14
208.7395910203821
 24
151.4188375929324
 34
0.0
100
AcDbRotatedDimension
  0
LINE
  5
2B4D
330
1F
100
AcDbEntity
  8
隠れ線
100
AcDbLine
 10
206.2395910203821
 20
144.2211385926845
 30
0.0
 11
208.7395910203821
 21
144.2211385926845
 31
0.0
  0
LINE
  5
2B4E
330
1F
100
AcDbEntity
  8
板金
100
AcDbLine
 10
206.2395910203821
 20
139.9188375929324
 30
0.0
 11
208.7395910203821
 21
139.9188375929324
 31
0.0
  0
LINE
  5
2B4F
330
1F
100
AcDbEntity
  8
隠れ線
100
AcDbLine
 10
208.7395910203821
 20
137.5188375929325
 30
0.0
 11
206.2395910203821
 21
137.5188375929325
 31
0.0
  0
LINE
  5
2B50
330
1F
100
AcDbEntity
  8
隠れ線
100
AcDbLine
 10
208.7395910203821
 20
134.3188375929324
 30
0.0
 11
206.2395910203821
 21
134.3188375929324
 31
0.0
  0
LINE
  5
2B51
330
1F
100
AcDbEntity
  8
隠れ線
100
AcDbLine
 10
206.2395910203821
 20
147.6211385926845
 30
0.0
 11
208.7395910203821
 21
147.6211385926845
 31
0.0
  0
LINE
  5
2B52
330
1F
100
AcDbEntity
  8
板金
100
AcDbLine
 10
206.2395910203821
 20
151.4188375929324
 30
0.0
 11
208.7395910203821
 21
151.4188375929324
 31
0.0
  0
LINE
  5
2EC2
330
1F
100
AcDbEntity
  8
隠れ線
100
AcDbLine
 10
151.671782602454
 20
61.23640400918015
 30
0.0
 11
145.671782602454
 21
61.23640400918015
 31
0.0
  0
LINE
  5
2EC3
102
{ACAD_REACTORS
330
2ED7
330
3919
102
}
330
1F
100
AcDbEntity
  8
CONTINUOUS
100
AcDbLine
 10
134.671782602454
 20
57.23640400918014
 30
0.0
 11
152.171782602454
 21
57.23640400918014
 31
0.0
  0
LINE
  5
2EC4
330
1F
100
AcDbEntity
  8
DOTTED
100
AcDbLine
 10
134.671782602454
 20
58.73640400918015
 30
0.0
 11
152.171782602454
 21
58.73640400918015
 31
0.0
  0
LINE
  5
2EC5
330
1F
100
AcDbEntity
  8
DOTTED
100
AcDbLine
 10
134.671782602454
 20
62.73640400918015
 30
0.0
 11
152.171782602454
 21
62.73640400918015
 31
0.0
  0
LINE
  5
2EC9
330
1F
100
AcDbEntity
  8
CONTINUOUS
100
AcDbLine
 10
75.17178260245406
 20
65.23640400918015
 30
0.0
 11
152.171782602454
 21
65.23640400918015
 31
0.0
  0
LINE
  5
2ECD
102
{ACAD_REACTORS
330
2ED7
102
}
330
1F
100
AcDbEntity
  8
CONTINUOUS
100
AcDbLine
 10
75.17178260245406
 20
57.23640400918014
 30
0.0
 11
99.17178260245407
 21
57.23640400918014
 31
0.0
  0
LINE
  5
2ECE
330
1F
100
AcDbEntity
  8
隠れ線
100
AcDbLine
 10
75.67178260245405
 20
61.23640400918015
 30
0.0
 11
81.67178260245405
 21
61.23640400918015
 31
0.0
  0
LINE
  5
2ECF
330
1F
100
AcDbEntity
  8
隠れ線
100
AcDbLine
 10
75.67178260245405
 20
61.23640400918015
 30
0.0
 11
75.67178260245405
 21
57.23640400918014
 31
0.0
  0
LINE
  5
2ED0
330
1F
100
AcDbEntity
  8
CONTINUOUS
100
AcDbLine
 10
75.17178260245406
 20
65.23640400918015
 30
0.0
 11
75.17178260245406
 21
57.23640400918014
 31
0.0
  0
LINE
  5
2ED1
330
1F
100
AcDbEntity
  8
隠れ線
100
AcDbLine
 10
77.07178260245403
 20
65.23640400918015
 30
0.0
 11
77.07178260245403
 21
61.23640400918015
 31
0.0
  0
LINE
  5
2ED2
330
1F
100
AcDbEntity
  8
隠れ線
100
AcDbLine
 10
81.67178260245405
 20
61.23640400918015
 30
0.0
 11
81.67178260245405
 21
57.23640400918014
 31
0.0
  0
LINE
  5
2ED3
330
1F
100
AcDbEntity
  8
中心線
100
AcDbLine
 10
78.67178260245406
 20
66.23640400918013
 30
0.0
 11
78.67178260245406
 21
56.23640400918015
 31
0.0
  0
LINE
  5
2ED4
330
1F
100
AcDbEntity
  8
隠れ線
100
AcDbLine
 10
80.27178260245404
 20
65.23640400918015
 30
0.0
 11
80.27178260245404
 21
61.23640400918015
 31
0.0
  0
DIMENSION
  5
2ED5
102
{ACAD_XDICTIONARY
360
2ED6
102
}
102
{ACAD_REACTORS
330
2ED7
102
}
330
1F
100
AcDbEntity
  8
寸法
100
AcDbDimension
280
     0
  2
*D22
 10
134.671782602454
 20
39.23640400918015
 30
0.0
 11
116.921782602454
 21
41.48640400918014
 31
0.0
 70
    32
 71
     5
 42
35.49999999999992
 73
     0
 74
     0
 75
     0
  3
LINEEYE
100
AcDbAlignedDimension
 13
99.17178260245407
 23
57.23640400918014
 33
0.0
 14
134.671782602454
 24
57.23640400918014
 34
0.0
100
AcDbRotatedDimension
  0
LINE
  5
2ED8
330
1F
100
AcDbEntity
  8
CONTINUOUS
100
AcDbLine
 10
99.17178260245407
 20
62.73640400918015
 30
0.0
 11
134.671782602454
 21
62.73640400918015
 31
0.0
  0
DIMENSION
  5
2ED9
102
{ACAD_XDICTIONARY
360
2EDA
102
}
102
{ACAD_REACTORS
330
2EDB
102
}
330
1F
100
AcDbEntity
  8
寸法
100
AcDbDimension
280
     0
  2
*D23
 10
113.671782602454
 20
47.23640400918014
 30
0.0
 11
106.421782602454
 21
49.48640400918015
 31
0.0
 70
    32
 71
     5
 42
14.49999999999993
 73
     0
 74
     0
 75
     0
  3
LINEEYE
100
AcDbAlignedDimension
 13
99.17178260245407
 23
56.61140400918014
 33
0.0
 14
113.671782602454
 24
61.73640400918015
 34
0.0
100
AcDbRotatedDimension
  0
LINE
  5
2EDC
330
1F
100
AcDbEntity
  8
CONTINUOUS
100
AcDbLine
 10
100.671782602454
 20
61.23640400918015
 30
0.0
 11
101.171782602454
 21
60.73640400918015
 31
0.0
  0
LINE
  5
2EDD
330
1F
100
AcDbEntity
  8
CONTINUOUS
100
AcDbLine
 10
99.17178260245407
 20
57.23640400918014
 30
0.0
 11
99.17178260245407
 21
62.73640400918015
 31
0.0
  0
LINE
  5
2EDE
330
1F
100
AcDbEntity
  8
CONTINUOUS
100
AcDbLine
 10
101.171782602454
 20
60.73640400918015
 30
0.0
 11
101.171782602454
 21
60.23640400918015
 31
0.0
  0
LINE
  5
2EDF
330
1F
100
AcDbEntity
  8
CONTINUOUS
100
AcDbLine
 10
101.171782602454
 20
60.23640400918015
 30
0.0
 11
99.17178260245407
 21
57.23640400918014
 31
0.0
  0
LINE
  5
2EE0
330
1F
100
AcDbEntity
  8
CONTINUOUS
100
AcDbLine
 10
99.17178260245407
 20
61.23640400918015
 30
0.0
 11
100.671782602454
 21
61.23640400918015
 31
0.0
  0
LINE
  5
2EE1
102
{ACAD_REACTORS
330
2EDB
102
}
330
1F
100
AcDbEntity
  8
中心線
100
AcDbLine
 10
113.671782602454
 20
69.72069593370884
 30
0.0
 11
113.671782602454
 21
61.73640400918015
 31
0.0
  0
LINE
  5
2EE2
330
1F
100
AcDbEntity
  8
CONTINUOUS
100
AcDbLine
 10
134.671782602454
 20
62.73640400918015
 30
0.0
 11
134.671782602454
 21
57.23640400918014
 31
0.0
  0
LINE
  5
2EE3
330
1F
100
AcDbEntity
  8
CONTINUOUS
100
AcDbLine
 10
131.883969602454
 20
61.05958200918019
 30
0.0
 11
134.671782602454
 21
58.73640400918015
 31
0.0
  0
LINE
  5
2EE4
330
1F
100
AcDbEntity
  8
CONTINUOUS
100
AcDbLine
 10
133.171782602454
 20
62.73640400918015
 30
0.0
 11
133.171782602454
 21
61.23640400918015
 31
0.0
  0
ARC
  5
2EE5
330
1F
100
AcDbEntity
  8
CONTINUOUS
100
AcDbCircle
 10
131.947987602454
 20
61.13640400918018
 30
0.0
 40
0.1
100
AcDbArc
 50
90.0
 51
230.1944289999997
  0
LINE
  5
2EE6
330
1F
100
AcDbEntity
  8
CONTINUOUS
100
AcDbLine
 10
131.947987602454
 20
61.23640400918015
 30
0.0
 11
133.171782602454
 21
61.23640400918015
 31
0.0
  0
LINE
  5
2EE7
330
1F
100
AcDbEntity
  8
隠れ線
100
AcDbLine
 10
145.671782602454
 20
61.23640400918015
 30
0.0
 11
145.671782602454
 21
57.23640400918014
 31
0.0
  0
LINE
  5
2EE8
102
{ACAD_REACTORS
330
3919
102
}
330
1F
100
AcDbEntity
  8
中心線
100
AcDbLine
 10
148.671782602454
 20
66.23640400918013
 30
0.0
 11
148.671782602454
 21
56.23640400918015
 31
0.0
  0
LINE
  5
2EE9
330
1F
100
AcDbEntity
  8
隠れ線
100
AcDbLine
 10
147.071782602454
 20
65.23640400918015
 30
0.0
 11
147.071782602454
 21
61.23640400918015
 31
0.0
  0
LINE
  5
2EEA
330
1F
100
AcDbEntity
  8
隠れ線
100
AcDbLine
 10
150.2717826024541
 20
65.23640400918015
 30
0.0
 11
150.2717826024541
 21
61.23640400918015
 31
0.0
  0
DIMENSION
  5
2F0D
102
{ACAD_XDICTIONARY
360
2F0E
102
}
102
{ACAD_REACTORS
330
2F0F
102
}
330
1F
100
AcDbEntity
  8
寸法
100
AcDbDimension
280
     0
  2
*D24
 10
167.671782602454
 20
58.73640400918015
 30
0.0
 11
165.421782602454
 21
60.73640400918018
 31
0.0
 70
    32
 71
     5
 42
4.0
 73
     0
 74
     0
 75
     0
  3
LINEEYE
100
AcDbAlignedDimension
 13
157.171782602454
 23
62.73640400918015
 33
0.0
 14
157.171782602454
 24
58.73640400918015
 34
0.0
 50
90.0
100
AcDbRotatedDimension
  0
LINE
  5
2F11
330
1F
100
AcDbEntity
  8
CONTINUOUS
100
AcDbLine
 10
157.6717826024539
 20
62.23640400918014
 30
0.0
 11
157.6717826024539
 21
59.23640400918015
 31
0.0
  0
LINE
  5
2F12
330
1F
100
AcDbEntity
  8
隠れ線
100
AcDbLine
 10
153.171782602454
 20
62.73640400918015
 30
0.0
 11
153.171782602454
 21
58.73640400918015
 31
0.0
  0
LINE
  5
2F13
102
{ACAD_REACTORS
330
2F0F
102
}
330
1F
100
AcDbEntity
  8
隠れ線
100
AcDbLine
 10
157.171782602454
 20
62.73640400918015
 30
0.0
 11
157.171782602454
 21
58.73640400918015
 31
0.0
  0
LINE
  5
2F14
330
1F
100
AcDbEntity
  8
隠れ線
100
AcDbLine
 10
155.171782602454
 20
62.73640400918015
 30
0.0
 11
155.171782602454
 21
58.73640400918015
 31
0.0
  0
LINE
  5
2F15
330
1F
100
AcDbEntity
  8
隠れ線
100
AcDbLine
 10
151.671782602454
 20
61.23640400918015
 30
0.0
 11
151.671782602454
 21
57.23640400918014
 31
0.0
  0
LINE
  5
2F16
330
1F
100
AcDbEntity
  8
CONTINUOUS
100
AcDbLine
 10
152.171782602454
 20
65.23640400918015
 30
0.0
 11
152.171782602454
 21
57.23640400918014
 31
0.0
  0
LINE
  5
2F17
330
1F
100
AcDbEntity
  8
CONTINUOUS
100
AcDbLine
 10
152.171782602454
 20
58.73640400918015
 30
0.0
 11
157.171782602454
 21
58.73640400918015
 31
0.0
  0
ARC
  5
2F18
330
1F
100
AcDbEntity
  8
CONTINUOUS
100
AcDbCircle
 10
157.171782602454
 20
59.23640400918015
 30
0.0
 40
0.5
100
AcDbArc
 50
270.0
 51
0.0
  0
LINE
  5
2F19
330
1F
100
AcDbEntity
  8
CONTINUOUS
100
AcDbLine
 10
152.171782602454
 20
62.73640400918015
 30
0.0
 11
157.171782602454
 21
62.73640400918015
 31
0.0
  0
ARC
  5
2F1A
330
1F
100
AcDbEntity
  8
CONTINUOUS
100
AcDbCircle
 10
157.171782602454
 20
62.23640400918014
 30
0.0
 40
0.5
100
AcDbArc
 50
0.0
 51
90.0
  0
LINE
  5
2F21
330
1F
100
AcDbEntity
  8
中心線
100
AcDbLine
 10
207.7395910203821
 20
135.9188375929325
 30
0.0
 11
217.7395910203821
 21
135.9188375929325
 31
0.0
  0
LINE
  5
2F22
330
1F
100
AcDbEntity
  8
中心線
100
AcDbLine
 10
207.7395910203821
 20
110.9188375929325
 30
0.0
 11
217.7395910203821
 21
110.9188375929325
 31
0.0
  0
LINE
  5
2F26
330
1F
100
AcDbEntity
  8
CONTINUOUS
100
AcDbLine
 10
211.2395910203821
 20
131.9188375929325
 30
0.0
 11
211.2395910203821
 21
114.9188375929325
 31
0.0
  0
LINE
  5
2F27
330
1F
100
AcDbEntity
  8
CONTINUOUS
100
AcDbLine
 10
215.2395910203821
 20
131.9188375929325
 30
0.0
 11
215.2395910203821
 21
114.9188375929325
 31
0.0
  0
LINE
  5
2F28
330
1F
100
AcDbEntity
  8
CONTINUOUS
100
AcDbLine
 10
208.7395910203821
 20
139.9188375929325
 30
0.0
 11
208.7395910203821
 21
106.9188375929325
 31
0.0
  0
LINE
  5
2F2D
330
1F
100
AcDbEntity
  8
隠れ線
100
AcDbLine
 10
208.7395910203821
 20
112.5188375929325
 30
0.0
 11
212.7395910203822
 21
112.5188375929325
 31
0.0
  0
LINE
  5
2F2E
330
1F
100
AcDbEntity
  8
隠れ線
100
AcDbLine
 10
208.7395910203821
 20
109.3188375929325
 30
0.0
 11
212.7395910203822
 21
109.3188375929325
 31
0.0
  0
LINE
  5
2F2F
330
1F
100
AcDbEntity
  8
CONTINUOUS
100
AcDbLine
 10
208.7395910203821
 20
106.9188375929325
 30
0.0
 11
216.7395910203822
 21
106.9188375929325
 31
0.0
  0
LINE
  5
2F30
330
1F
100
AcDbEntity
  8
CONTINUOUS
100
AcDbLine
 10
216.7395910203822
 20
115.9188375929325
 30
0.0
 11
216.7395910203822
 21
106.9188375929325
 31
0.0
  0
LINE
  5
2F31
330
1F
100
AcDbEntity
  8
隠れ線
100
AcDbLine
 10
212.7395910203822
 20
107.9188375929325
 30
0.0
 11
212.7395910203822
 21
113.9188375929325
 31
0.0
  0
LINE
  5
2F32
330
1F
100
AcDbEntity
  8
隠れ線
100
AcDbLine
 10
212.7395910203822
 20
107.9188375929325
 30
0.0
 11
216.7395910203822
 21
107.9188375929325
 31
0.0
  0
LINE
  5
2F33
330
1F
100
AcDbEntity
  8
CONTINUOUS
100
AcDbLine
 10
211.2395910203821
 20
114.9188375929325
 30
0.0
 11
215.2395910203821
 21
114.9188375929325
 31
0.0
  0
LINE
  5
2F34
330
1F
100
AcDbEntity
  8
隠れ線
100
AcDbLine
 10
212.7395910203822
 20
113.9188375929325
 30
0.0
 11
216.7395910203822
 21
113.9188375929325
 31
0.0
  0
LINE
  5
2F35
330
1F
100
AcDbEntity
  8
CONTINUOUS
100
AcDbLine
 10
215.2395910203821
 20
115.9188375929325
 30
0.0
 11
216.7395910203822
 21
115.9188375929325
 31
0.0
  0
LINE
  5
2F3E
330
1F
100
AcDbEntity
  8
中心線
100
AcDbLine
 10
203.7525126437984
 20
123.4188375929325
 30
0.0
 11
216.2395910203821
 21
123.4188375929325
 31
0.0
  0
LINE
  5
2F3F
330
1F
100
AcDbEntity
  8
CONTINUOUS
100
AcDbLine
 10
208.7395910203821
 20
139.9188375929325
 30
0.0
 11
216.7395910203822
 21
139.9188375929325
 31
0.0
  0
LINE
  5
2F40
330
1F
100
AcDbEntity
  8
隠れ線
100
AcDbLine
 10
208.7395910203821
 20
137.5188375929325
 30
0.0
 11
212.7395910203822
 21
137.5188375929325
 31
0.0
  0
LINE
  5
2F41
330
1F
100
AcDbEntity
  8
隠れ線
100
AcDbLine
 10
208.7395910203821
 20
134.3188375929325
 30
0.0
 11
212.7395910203822
 21
134.3188375929325
 31
0.0
  0
LINE
  5
2F42
330
1F
100
AcDbEntity
  8
CONTINUOUS
100
AcDbLine
 10
216.7395910203822
 20
139.9188375929325
 30
0.0
 11
216.7395910203822
 21
130.9188375929325
 31
0.0
  0
LINE
  5
2F43
330
1F
100
AcDbEntity
  8
隠れ線
100
AcDbLine
 10
212.7395910203822
 20
138.9188375929325
 30
0.0
 11
212.7395910203822
 21
132.9188375929325
 31
0.0
  0
LINE
  5
2F44
330
1F
100
AcDbEntity
  8
CONTINUOUS
100
AcDbLine
 10
211.2395910203821
 20
131.9188375929325
 30
0.0
 11
215.2395910203821
 21
131.9188375929325
 31
0.0
  0
LINE
  5
2F45
330
1F
100
AcDbEntity
  8
隠れ線
100
AcDbLine
 10
212.7395910203822
 20
132.9188375929325
 30
0.0
 11
216.7395910203822
 21
132.9188375929325
 31
0.0
  0
LINE
  5
2F46
330
1F
100
AcDbEntity
  8
CONTINUOUS
100
AcDbLine
 10
215.2395910203821
 20
130.9188375929325
 30
0.0
 11
216.7395910203822
 21
130.9188375929325
 31
0.0
  0
LINE
  5
2F47
330
1F
100
AcDbEntity
  8
隠れ線
100
AcDbLine
 10
212.7395910203822
 20
138.9188375929325
 30
0.0
 11
216.7395910203822
 21
138.9188375929325
 31
0.0
  0
LINE
  5
30A6
102
{ACAD_REACTORS
330
30EC
330
3272
102
}
330
1F
100
AcDbEntity
  8
中心線
100
AcDbLine
 10
152.671782602454
 20
135.9188375929325
 30
0.0
 11
144.671782602454
 21
135.9188375929325
 31
0.0
  0
CIRCLE
  5
30A7
102
{ACAD_REACTORS
330
30EC
102
}
330
1F
100
AcDbEntity
  8
DOTTED
100
AcDbCircle
 10
148.671782602454
 20
110.9188375929325
 30
0.0
 40
3.0
  0
LINE
  5
30A8
102
{ACAD_REACTORS
330
30EC
330
3272
102
}
330
1F
100
AcDbEntity
  8
中心線
100
AcDbLine
 10
152.671782602454
 20
110.9188375929325
 30
0.0
 11
144.671782602454
 21
110.9188375929325
 31
0.0
  0
LINE
  5
30A9
102
{ACAD_REACTORS
330
30EC
102
}
330
1F
100
AcDbEntity
  8
DOTTED
100
AcDbLine
 10
134.671782602454
 20
131.9188375929325
 30
0.0
 11
152.171782602454
 21
131.9188375929325
 31
0.0
  0
LINE
  5
30AA
102
{ACAD_REACTORS
330
30EC
102
}
330
1F
100
AcDbEntity
  8
DOTTED
100
AcDbLine
 10
134.671782602454
 20
114.9188375929325
 30
0.0
 11
152.171782602454
 21
114.9188375929325
 31
0.0
  0
CIRCLE
  5
30AB
102
{ACAD_REACTORS
330
30EC
102
}
330
1F
100
AcDbEntity
  8
DOTTED
100
AcDbCircle
 10
148.671782602454
 20
135.9188375929325
 30
0.0
 40
3.0
  0
LINE
  5
30AC
102
{ACAD_REACTORS
330
30EC
330
328A
102
}
330
1F
100
AcDbEntity
  8
CONTINUOUS
100
AcDbLine
 10
75.17178260245406
 20
139.9188375929325
 30
0.0
 11
152.171782602454
 21
139.9188375929325
 31
0.0
  0
LINE
  5
30AD
102
{ACAD_REACTORS
330
30EC
330
328A
102
}
330
1F
100
AcDbEntity
  8
CONTINUOUS
100
AcDbLine
 10
75.17178260245406
 20
106.9188375929325
 30
0.0
 11
152.171782602454
 21
106.9188375929325
 31
0.0
  0
LINE
  5
30AE
102
{ACAD_REACTORS
330
30EC
102
}
330
1F
100
AcDbEntity
  8
中心線
100
AcDbLine
 10
69.36330547145748
 20
123.4188375929325
 30
0.0
 11
159.3638559716845
 21
123.4188375929325
 31
0.0
  0
LINE
  5
30AF
102
{ACAD_REACTORS
330
30EC
102
}
330
1F
100
AcDbEntity
  8
CONTINUOUS
100
AcDbLine
 10
75.17178260245406
 20
139.9188375929325
 30
0.0
 11
75.17178260245406
 21
106.9188375929325
 31
0.0
  0
CIRCLE
  5
30B0
102
{ACAD_REACTORS
330
30EC
102
}
330
1F
100
AcDbEntity
  8
DOTTED
100
AcDbCircle
 10
78.67178260245406
 20
110.9188375929325
 30
0.0
 40
3.0
  0
CIRCLE
  5
30B1
102
{ACAD_REACTORS
330
30EC
102
}
330
1F
100
AcDbEntity
  8
CONTINUOUS
100
AcDbCircle
 10
78.67178260245406
 20
110.9188375929325
 30
0.0
 40
1.6
  0
LINE
  5
30B2
102
{ACAD_REACTORS
330
30EC
102
}
330
1F
100
AcDbEntity
  8
中心線
100
AcDbLine
 10
82.67178260245406
 20
110.9188375929325
 30
0.0
 11
74.67178260245406
 21
110.9188375929325
 31
0.0
  0
LINE
  5
30B3
102
{ACAD_REACTORS
330
30EC
102
}
330
1F
100
AcDbEntity
  8
中心線
100
AcDbLine
 10
78.67178260245406
 20
114.9188375929325
 30
0.0
 11
78.67178260245406
 21
106.9188375929325
 31
0.0
  0
CIRCLE
  5
30B4
102
{ACAD_REACTORS
330
30EC
102
}
330
1F
100
AcDbEntity
  8
CONTINUOUS
100
AcDbCircle
 10
78.67178260245406
 20
135.9188375929325
 30
0.0
 40
1.6
  0
LINE
  5
30B5
102
{ACAD_REACTORS
330
30EC
330
3212
102
}
330
1F
100
AcDbEntity
  8
中心線
100
AcDbLine
 10
82.67178260245406
 20
135.9188375929325
 30
0.0
 11
74.67178260245406
 21
135.9188375929325
 31
0.0
  0
CIRCLE
  5
30B6
102
{ACAD_REACTORS
330
30EC
102
}
330
1F
100
AcDbEntity
  8
DOTTED
100
AcDbCircle
 10
78.67178260245406
 20
135.9188375929325
 30
0.0
 40
3.0
  0
LINE
  5
30B7
102
{ACAD_REACTORS
330
30EC
102
}
330
1F
100
AcDbEntity
  8
中心線
100
AcDbLine
 10
78.67178260245406
 20
139.9188375929325
 30
0.0
 11
78.67178260245406
 21
131.9188375929325
 31
0.0
  0
LINE
  5
30B8
102
{ACAD_REACTORS
330
30EC
102
}
330
1F
100
AcDbEntity
  8
中心線
100
AcDbLine
 10
113.671782602454
 20
140.9188375929325
 30
0.0
 11
113.671782602454
 21
105.9188375929325
 31
0.0
  0
LINE
  5
30B9
102
{ACAD_REACTORS
330
30EC
102
}
330
1F
100
AcDbEntity
  8
DOTTED
100
AcDbLine
 10
99.17178260245407
 20
139.9188375929325
 30
0.0
 11
99.17178260245407
 21
106.9188375929325
 31
0.0
  0
LINE
  5
30BA
102
{ACAD_REACTORS
330
30EC
102
}
330
1F
100
AcDbEntity
  8
DOTTED
100
AcDbLine
 10
101.171782602454
 20
113.4188375929325
 30
0.0
 11
101.171782602454
 21
110.4188375929325
 31
0.0
  0
LINE
  5
30BB
102
{ACAD_REACTORS
330
30EC
102
}
330
1F
100
AcDbEntity
  8
DOTTED
100
AcDbLine
 10
101.171782602454
 20
110.4188375929325
 30
0.0
 11
99.17178260245407
 21
110.4188375929325
 31
0.0
  0
LINE
  5
30BC
102
{ACAD_REACTORS
330
30EC
102
}
330
1F
100
AcDbEntity
  8
DOTTED
100
AcDbLine
 10
99.17178260245407
 20
113.4188375929325
 30
0.0
 11
101.171782602454
 21
113.4188375929325
 31
0.0
  0
LINE
  5
30BD
102
{ACAD_REACTORS
330
30EC
102
}
330
1F
100
AcDbEntity
  8
DOTTED
100
AcDbLine
 10
101.171782602454
 20
136.4188375929325
 30
0.0
 11
101.171782602454
 21
133.4188375929325
 31
0.0
  0
LINE
  5
30BE
102
{ACAD_REACTORS
330
30EC
102
}
330
1F
100
AcDbEntity
  8
DOTTED
100
AcDbLine
 10
99.17178260245407
 20
133.4188375929325
 30
0.0
 11
101.171782602454
 21
133.4188375929325
 31
0.0
  0
LINE
  5
30BF
102
{ACAD_REACTORS
330
30EC
102
}
330
1F
100
AcDbEntity
  8
DOTTED
100
AcDbLine
 10
99.17178260245407
 20
136.4188375929325
 30
0.0
 11
101.171782602454
 21
136.4188375929325
 31
0.0
  0
LINE
  5
30C0
102
{ACAD_REACTORS
330
30EC
102
}
330
1F
100
AcDbEntity
  8
DOTTED
100
AcDbLine
 10
131.671782602454
 20
130.6688375929325
 30
0.0
 11
131.671782602454
 21
116.1688375929325
 31
0.0
  0
LINE
  5
30C1
102
{ACAD_REACTORS
330
30EC
102
}
330
1F
100
AcDbEntity
  8
DOTTED
100
AcDbLine
 10
134.671782602454
 20
139.9188375929325
 30
0.0
 11
134.671782602454
 21
106.9188375929325
 31
0.0
  0
LINE
  5
30C2
102
{ACAD_REACTORS
330
30EC
102
}
330
1F
100
AcDbEntity
  8
DOTTED
100
AcDbLine
 10
134.671782602454
 20
116.1688375929325
 30
0.0
 11
131.671782602454
 21
116.1688375929325
 31
0.0
  0
LINE
  5
30C3
102
{ACAD_REACTORS
330
30EC
102
}
330
1F
100
AcDbEntity
  8
中心線
100
AcDbLine
 10
148.671782602454
 20
114.9188375929325
 30
0.0
 11
148.671782602454
 21
106.9188375929325
 31
0.0
  0
CIRCLE
  5
30C4
102
{ACAD_REACTORS
330
30EC
102
}
330
1F
100
AcDbEntity
  8
CONTINUOUS
100
AcDbCircle
 10
148.671782602454
 20
110.9188375929325
 30
0.0
 40
1.6
  0
LINE
  5
30C5
102
{ACAD_REACTORS
330
30EC
102
}
330
1F
100
AcDbEntity
  8
DOTTED
100
AcDbLine
 10
131.671782602454
 20
130.6688375929325
 30
0.0
 11
134.671782602454
 21
130.6688375929325
 31
0.0
  0
CIRCLE
  5
30C6
102
{ACAD_REACTORS
330
30EC
102
}
330
1F
100
AcDbEntity
  8
CONTINUOUS
100
AcDbCircle
 10
148.671782602454
 20
135.9188375929325
 30
0.0
 40
1.6
  0
LINE
  5
30C7
102
{ACAD_REACTORS
330
30EC
102
}
330
1F
100
AcDbEntity
  8
中心線
100
AcDbLine
 10
148.671782602454
 20
139.9188375929325
 30
0.0
 11
148.671782602454
 21
131.9188375929325
 31
0.0
  0
LINE
  5
30CD
102
{ACAD_REACTORS
330
30EC
330
3301
102
}
330
1F
100
AcDbEntity
  8
CONTINUOUS
100
AcDbLine
 10
157.6717826024539
 20
131.4188375929325
 30
0.0
 11
157.6717826024539
 21
115.4188375929325
 31
0.0
  0
LINE
  5
30CE
102
{ACAD_REACTORS
330
30EC
102
}
330
1F
100
AcDbEntity
  8
CONTINUOUS
100
AcDbLine
 10
152.171782602454
 20
139.9188375929325
 30
0.0
 11
152.171782602454
 21
106.9188375929325
 31
0.0
  0
LINE
  5
30CF
102
{ACAD_REACTORS
330
30EC
330
325A
102
}
330
1F
100
AcDbEntity
  8
CONTINUOUS
100
AcDbLine
 10
152.171782602454
 20
114.9188375929325
 30
0.0
 11
157.171782602454
 21
114.9188375929325
 31
0.0
  0
ARC
  5
30D0
102
{ACAD_REACTORS
330
30EC
102
}
330
1F
100
AcDbEntity
  8
CONTINUOUS
100
AcDbCircle
 10
157.171782602454
 20
115.4188375929325
 30
0.0
 40
0.5
100
AcDbArc
 50
270.0
 51
0.0
  0
ARC
  5
30DA
102
{ACAD_REACTORS
330
30EC
102
}
330
1F
100
AcDbEntity
  8
CONTINUOUS
100
AcDbCircle
 10
155.171782602454
 20
123.4188375929325
 30
0.0
 40
2.0
100
AcDbArc
 50
270.0
 51
90.0
  0
LINE
  5
30DB
102
{ACAD_REACTORS
330
30EC
102
}
330
1F
100
AcDbEntity
  8
CONTINUOUS
100
AcDbLine
 10
153.171782602454
 20
127.4188375929325
 30
0.0
 11
153.171782602454
 21
119.4188375929325
 31
0.0
  0
LINE
  5
30DC
102
{ACAD_REACTORS
330
30EC
102
}
330
1F
100
AcDbEntity
  8
CONTINUOUS
100
AcDbLine
 10
153.171782602454
 20
119.4188375929325
 30
0.0
 11
155.171782602454
 21
119.4188375929325
 31
0.0
  0
LINE
  5
30DD
102
{ACAD_REACTORS
330
30EC
102
}
330
1F
100
AcDbEntity
  8
CONTINUOUS
100
AcDbLine
 10
155.171782602454
 20
121.4188375929325
 30
0.0
 11
155.171782602454
 21
119.4188375929325
 31
0.0
  0
LINE
  5
30DE
102
{ACAD_REACTORS
330
30EC
102
}
330
1F
100
AcDbEntity
  8
CONTINUOUS
100
AcDbLine
 10
155.171782602454
 20
127.4188375929325
 30
0.0
 11
155.171782602454
 21
125.4188375929325
 31
0.0
  0
LINE
  5
30DF
102
{ACAD_REACTORS
330
30EC
102
}
330
1F
100
AcDbEntity
  8
CONTINUOUS
100
AcDbLine
 10
153.171782602454
 20
127.4188375929325
 30
0.0
 11
155.171782602454
 21
127.4188375929325
 31
0.0
  0
LINE
  5
30E0
102
{ACAD_REACTORS
330
30EC
330
325A
102
}
330
1F
100
AcDbEntity
  8
CONTINUOUS
100
AcDbLine
 10
152.171782602454
 20
131.9188375929325
 30
0.0
 11
157.171782602454
 21
131.9188375929325
 31
0.0
  0
ARC
  5
30E1
102
{ACAD_REACTORS
330
30EC
102
}
330
1F
100
AcDbEntity
  8
CONTINUOUS
100
AcDbCircle
 10
157.171782602454
 20
131.4188375929325
 30
0.0
 40
0.5
100
AcDbArc
 50
0.0
 51
90.0
  0
DIMENSION
  5
312C
330
1F
100
AcDbEntity
  8
寸法
100
AcDbDimension
280
     0
  2
*D25
 10
216.7395910203822
 20
161.4188375929324
 30
0.0
 11
222.2598693764266
 21
161.4188375929324
 31
0.0
 70
   160
 71
     5
 42
8.0
 73
     0
 74
     0
 75
     0
  3
LINEEYE
100
AcDbAlignedDimension
 13
208.7395910203821
 23
151.4188375929324
 33
0.0
 14
216.7395910203822
 24
139.9188375929325
 34
0.0
100
AcDbRotatedDimension
  0
DIMENSION
  5
3179
330
1F
100
AcDbEntity
  8
寸法
100
AcDbDimension
280
     0
  2
*D26
 10
123.1427057887961
 20
65.23640400918015
 30
0.0
 11
119.6427057887961
 21
56.51217800094832
 31
0.0
 70
   160
 71
     5
 42
2.5
 73
     0
 74
     0
 75
     0
  3
LINEEYE
100
AcDbAlignedDimension
 13
116.931033709331
 23
67.73640400918015
 33
0.0
 14
116.931033709331
 24
65.23640400918015
 34
0.0
 50
90.0
100
AcDbRotatedDimension
  0
DIMENSION
  5
31C7
102
{ACAD_XDICTIONARY
360
31D7
102
}
102
{ACAD_REACTORS
330
31E4
102
}
330
1F
100
AcDbEntity
  8
寸法
100
AcDbDimension
280
     0
  2
*D27
 10
63.17178260245407
 20
145.9211385926845
 30
0.0
 11
63.17178260245404
 21
148.6699880928084
 31
0.0
 70
   160
 71
     5
 42
5.497699000247934
 73
     0
 74
     0
 75
     0
  3
LINEEYE
100
AcDbAlignedDimension
 13
73.17178260245405
 23
151.4188375929324
 33
0.0
 14
75.77121438040176
 24
145.9211385926845
 34
0.0
 50
90.0
100
AcDbRotatedDimension
  0
DIMENSION
  5
31FB
102
{ACAD_XDICTIONARY
360
3208
102
}
102
{ACAD_REACTORS
330
3212
102
}
330
1F
100
AcDbEntity
  8
寸法
100
AcDbDimension
280
     0
  2
*D28
 10
55.17178260245406
 20
135.9188375929325
 30
0.0
 11
52.92178260245403
 21
143.6688375929325
 31
0.0
 70
    32
 71
     5
 42
15.49999999999991
 73
     0
 74
     0
 75
     0
  3
LINEEYE
100
AcDbAlignedDimension
 13
73.17178260245405
 23
151.4188375929324
 33
0.0
 14
74.67178260245406
 24
135.9188375929325
 34
0.0
 50
90.0
100
AcDbRotatedDimension
  0
DIMENSION
  5
322B
102
{ACAD_XDICTIONARY
360
3238
102
}
102
{ACAD_REACTORS
330
3242
102
}
330
1F
100
AcDbEntity
  8
寸法
100
AcDbDimension
280
     0
  2
*D29
 10
47.17178260245406
 20
151.4188375929324
 30
0.0
 11
44.92178260245403
 21
123.4188375929324
 31
0.0
 70
    32
 71
     5
 42
56.0
 73
     0
 74
     0
 75
     0
  3
LINEEYE
100
AcDbAlignedDimension
 13
73.17178260245405
 23
95.41883759293243
 33
0.0
 14
73.17178260245405
 24
151.4188375929324
 34
0.0
 50
90.0
100
AcDbRotatedDimension
  0
DIMENSION
  5
3243
102
{ACAD_XDICTIONARY
360
3250
102
}
102
{ACAD_REACTORS
330
325A
102
}
330
1F
100
AcDbEntity
  8
寸法
100
AcDbDimension
280
     0
  2
*D30
 10
167.671782602454
 20
114.9188375929325
 30
0.0
 11
165.4217826024539
 21
123.4188375929325
 31
0.0
 70
    32
 71
     5
 42
17.00000000000001
 73
     0
 74
     0
 75
     0
  3
LINEEYE
100
AcDbAlignedDimension
 13
157.171782602454
 23
131.9188375929325
 33
0.0
 14
157.171782602454
 24
114.9188375929325
 34
0.0
 50
90.0
100
AcDbRotatedDimension
  0
DIMENSION
  5
325B
102
{ACAD_XDICTIONARY
360
3268
102
}
102
{ACAD_REACTORS
330
3272
102
}
330
1F
100
AcDbEntity
  8
寸法
100
AcDbDimension
280
     0
  2
*D31
 10
175.671782602454
 20
110.9188375929325
 30
0.0
 11
175.671782602454
 21
123.4188375929325
 31
0.0
 70
   160
 71
     5
 42
25.00000000000002
 73
     0
 74
     0
 75
     0
  3
LINEEYE
100
AcDbAlignedDimension
 13
152.671782602454
 23
135.9188375929325
 33
0.0
 14
152.671782602454
 24
110.9188375929325
 34
0.0
 50
90.0
100
AcDbRotatedDimension
  0
DIMENSION
  5
3273
102
{ACAD_XDICTIONARY
360
3280
102
}
102
{ACAD_REACTORS
330
328A
102
}
330
1F
100
AcDbEntity
  8
寸法
100
AcDbDimension
280
     0
  2
*D32
 10
183.671782602454
 20
106.9188375929325
 30
0.0
 11
183.6717826024539
 21
123.4188375929325
 31
0.0
 70
   160
 71
     5
 42
33.00000000000002
 73
     0
 74
     0
 75
     0
  3
LINEEYE
100
AcDbAlignedDimension
 13
152.171782602454
 23
139.9188375929325
 33
0.0
 14
152.171782602454
 24
106.9188375929325
 34
0.0
 50
90.0
100
AcDbRotatedDimension
  0
DIMENSION
  5
32AB
102
{ACAD_XDICTIONARY
360
32BA
102
}
102
{ACAD_REACTORS
330
32C6
102
}
330
1F
100
AcDbEntity
  8
寸法
100
AcDbDimension
280
     0
  2
*D33
 10
77.67178260245406
 20
161.4188375929324
 30
0.0
 11
64.67178260245406
 21
161.4188375929324
 31
0.0
 70
   160
 71
     5
 42
4.5
 73
     0
 74
     0
 75
     0
  3
LINEEYE
100
AcDbAlignedDimension
 13
73.17178260245405
 23
151.4188375929324
 33
0.0
 14
77.67178260245406
 24
148.3541169689365
 34
0.0
100
AcDbRotatedDimension
  0
DIMENSION
  5
32D2
102
{ACAD_XDICTIONARY
360
32DF
102
}
102
{ACAD_REACTORS
330
32E9
102
}
330
1F
100
AcDbEntity
  8
寸法
100
AcDbDimension
280
     0
  2
*D34
 10
135.171782602454
 20
169.4188375929324
 30
0.0
 11
104.171782602454
 21
171.6688375929324
 31
0.0
 70
    32
 71
     5
 42
61.99999999999993
 73
     0
 74
     0
 75
     0
  3
LINEEYE
100
AcDbAlignedDimension
 13
73.17178260245405
 23
151.4188375929324
 33
0.0
 14
135.171782602454
 24
151.4188375929324
 34
0.0
100
AcDbRotatedDimension
  0
DIMENSION
  5
32EA
102
{ACAD_XDICTIONARY
360
32F7
102
}
102
{ACAD_REACTORS
330
3301
102
}
330
1F
100
AcDbEntity
  8
寸法
100
AcDbDimension
280
     0
  2
*D35
 10
157.6717826024539
 20
177.4188375929324
 30
0.0
 11
115.421782602454
 21
179.6688375929324
 31
0.0
 70
    32
 71
     5
 42
84.49999999999993
 73
     0
 74
     0
 75
     0
  3
LINEEYE
100
AcDbAlignedDimension
 13
73.17178260245405
 23
151.4188375929324
 33
0.0
 14
157.6717826024539
 24
131.4188375929325
 34
0.0
100
AcDbRotatedDimension
  0
DIMENSION
  5
3302
102
{ACAD_XDICTIONARY
360
330F
102
}
102
{ACAD_REACTORS
330
3319
102
}
330
1F
100
AcDbEntity
  8
寸法
100
AcDbDimension
280
     0
  2
*D36
 10
152.1717826024541
 20
77.73640400918015
 30
0.0
 11
112.671782602454
 21
79.98640400918015
 31
0.0
 70
    32
 71
     5
 42
79.00000000000004
 73
     0
 74
     0
 75
     0
  3
LINEEYE
100
AcDbAlignedDimension
 13
73.17178260245405
 23
67.73640400918015
 33
0.0
 14
152.1717826024541
 24
67.73640400918015
 34
0.0
100
AcDbRotatedDimension
  0
DIMENSION
  5
3669
102
{ACAD_XDICTIONARY
360
3676
102
}
102
{ACAD_REACTORS
330
3680
102
}
330
1F
100
AcDbEntity
  8
寸法
100
AcDbDimension
280
     0
  2
*D37
 10
127.671782602454
 20
85.41883759293243
 30
0.0
 11
131.421782602454
 21
87.66883759293243
 31
0.0
 70
    32
 71
     5
 42
7.500000000000099
 73
     0
 74
     0
 75
     0
  3
LINEEYE
100
AcDbAlignedDimension
 13
135.1717826024541
 23
95.41883759293243
 33
0.0
 14
127.671782602454
 24
98.91883759293243
 34
0.0
100
AcDbRotatedDimension
  0
DIMENSION
  5
3681
102
{ACAD_XDICTIONARY
360
3691
102
}
102
{ACAD_REACTORS
330
369E
102
}
330
1F
100
AcDbEntity
  8
寸法
100
AcDbDimension
280
     0
  2
*D38
 10
145.1717826024541
 20
100.9188375929324
 30
0.0
 11
145.171782602454
 21
98.16883759293244
 31
0.0
 70
   160
 71
     5
 42
5.499999999999985
 73
     0
 74
     0
 75
     0
  3
LINEEYE
100
AcDbAlignedDimension
 13
135.1717826024541
 23
95.41883759293243
 33
0.0
 14
130.1518960630119
 24
100.9188375929324
 34
0.0
 50
90.0
100
AcDbRotatedDimension
  0
MULTILEADER
  5
3916
102
{ACAD_XDICTIONARY
360
3918
102
}
102
{ACAD_REACTORS
330
3919
102
}
330
1F
100
AcDbEntity
  8
寸法
160
               884
310
74030000190000000C00000016000000000000C00C00000033000000000000000C00000013000000993A0000BC00000026000000F423B616D962634035C37E57C6DD4840000000000000000000000000000000000000000000000000000000000000F03F000000000000F03F000000000000000000000000000000004D0033
310
000000000002000000010000000000000000000040000000000000F03F0000000000000000000000000000F03F000000000000000000000000000000000000000000000000000000000100000000000000000000007400780074002E00730068007800000000000000C400000026000000F423B616D9E2634035C37E57C6DD
310
4840000000000000000000000000000000000000000000000000000000000000F03F000000000000F03F00000000000000000000000000000000CD30B8302875747A0000B83004000000010000000000000000000040000000000000F03F0000000000000000000000000000F03F0000000000000000000000000000000000
310
000000000000000000000001000000320000002DFF33FF200030FFB430B730C330AF300000000000000000000074000C00000033000000000000000C00000010000000030000000C00000016000000000000C00C00000012000000FF7F00000C00000013000000010000000C00000014000000010000005400000007000000
310
0300000061C320462BAE6240058E357E38694B400000000000000000F9713A3E7F9562403809907C429E4C400000000000000000F075D683E4C56240EFC6E1B1EE994B4000000000000000000C00000013000000891300003C0000000600000002000000A99CFBE407BA62407AAA0B9893814B40000000000000000008D2FD
310
F75317634002904B2493AA484000000000000000000C00000013000000112700003C000000060000000200000008D2FDF75317634002904B2493AA48400000000000000000F423B616D922634002904B2493AA484000000000000000000C00000016000000000000C00C00000012000000FF7F00000C000000170000000000
310
00000C000000130000009A3A00003C0000000600000002000000F423B616D922634002904B2493AA48400000000000000000805270FF7B42654002904B2493AA484000000000000000000C00000016000000000000C00C00000012000000FF7F00000C00000017000000FFFFFFFF0C0000003300000000000000
100
AcDbMLeader
270
     2
300
CONTEXT_DATA{
 40
1.0
 10
153.089000087493
 20
49.33261541070534
 30
0.0
 41
2.0
140
2.5
145
2.0
174
     5
175
     6
176
     0
177
     0
290
     1
304
M3{\fMS PGothic|b0|i0|c128|p50;ネジ用穴}
 11
0.0
 21
0.0
 31
1.0
340
11
 12
155.089000087493
 22
52.13034268343261
 32
0.0
 13
1.0
 23
0.0
 33
0.0
 42
0.0
 43
0.0
 44
0.0
 45
1.0
170
     1
 90
-1073741824
171
     1
172
     5
 91
-1073741824
141
0.0
 92
        0
291
     0
292
     0
173
     0
293
     0
142
0.0
143
0.0
294
     0
295
     0
296
     0
110
148.671782602454
120
57.23640400918014
130
0.0
111
1.0
121
0.0
131
0.0
112
0.0
122
1.0
132
0.0
297
     0
302
LEADER{
290
     1
291
     1
 10
152.7290000874929
 20
49.33261541070534
 30
0.0
 11
1.0
 21
0.0
 31
0.0
 90
        0
 40
0.36
304
LEADER_LINE{
 10
148.671782602454
 20
57.23640400918014
 30
0.0
 91
        0
305
}
271
     0
303
}
272
     9
273
     9
301
}
340
3705
 90
   279552
170
     1
 91
-1056964608
341
14
171
    -2
290
     1
291
     1
 41
0.36
 42
2.5
172
     2
343
11
173
     5
 95
        6
174
     1
175
     0
 92
-1056964608
292
     0
 93
-1056964608
 10
1.0
 20
1.0
 30
1.0
 43
0.0
176
     0
293
     0
294
     0
178
     0
179
     1
 45
1.0
271
     0
272
     9
273
     9
295
     0
  0
VIEWPORT
  5
467
330
1B
100
AcDbEntity
 67
     1
  8
0
100
AcDbViewport
 10
146.2224557387579
 20
105.5030916859629
 30
0.0
 40
359.2779136451041
 41
203.0577079504523
 68
     1
 69
     1
 12
146.2224557387579
 22
105.5030916859629
 13
0.0
 23
0.0
 14
10.0
 24
10.0
 15
10.0
 25
10.0
 16
0.0
 26
0.0
 36
1.0
 17
0.0
 27
0.0
 37
0.0
 42
50.0
 43
0.0
 44
0.0
 45
203.0577079504523
 50
0.0
 51
0.0
 72
   100
 90
    32800
  1

281
     0
 71
     1
 74
     0
110
0.0
120
0.0
130
0.0
111
1.0
121
0.0
131
0.0
112
0.0
122
1.0
132
0.0
 79
     0
146
0.0
170
     0
 61
     5
348
36DC
292
     1
282
     1
141
0.0
142
0.0
 63
   250
421
  3355443
  0
VIEWPORT
  5
469
102
{ACAD_XDICTIONARY
360
3763
102
}
330
1B
100
AcDbEntity
 67
     1
  8
0
100
AcDbViewport
 10
147.5734040854217
 20
99.17327139167026
 30
0.0
 40
256.5336159086663
 41
159.679100965431
 68
     2
 69
     2
 12
0.0
 22
0.0
 13
0.0
 23
0.0
 14
10.0
 24
10.0
 15
10.0
 25
10.0
 16
0.0
 26
0.0
 36
359.7265891621832
 17
124.631274527977
 27
110.6844579558413
 37
0.0
 42
50.0
 43
0.0
 44
0.0
 45
159.6791008911051
 50
0.0
 51
0.0
 72
   100
 90
    32864
  1

281
     0
 71
     1
 74
     0
110
0.0
120
0.0
130
0.0
111
1.0
121
0.0
131
0.0
112
0.0
122
1.0
132
0.0
 79
     0
146
0.0
170
     0
 61
     5
348
36DC
292
     1
282
     1
141
0.0
142
0.0
 63
   250
421
  3355443
  0
LINE
  5
3759
330
1B
100
AcDbEntity
 67
     1
  8
GAIKEI
100
AcDbLine
 10
-0.6508771384219472
 20
-0.6472414364906172
 30
0.0
 11
296.2236510207624
 21
-0.9305688206987383
 31
0.0
  0
LINE
  5
375A
330
1B
100
AcDbEntity
 67
     1
  8
GAIKEI
100
AcDbLine
 10
296.2236510207624
 20
-0.9305688206987383
 30
0.0
 11
295.776378911862
 21
208.9938091080482
 31
0.0
  0
LINE
  5
375B
330
1B
100
AcDbEntity
 67
     1
  8
GAIKEI
100
AcDbLine
 10
295.776378911862
 20
208.9938091080482
 30
0.0
 11
-1.098149247322339
 21
209.2771364922563
 31
0.0
  0
LINE
  5
375C
330
1B
100
AcDbEntity
 67
     1
  8
GAIKEI
100
AcDbLine
 10
-1.098149247322339
 20
209.2771364922563
 30
0.0
 11
-0.6508771384219472
 21
-0.6472414364906172
 31
0.0
  0
MTEXT
  5
3946
330
1B
100
AcDbEntity
 67
     1
  8
0
100
AcDbMText
 10
22.01659629896909
 20
192.2390887546208
 30
0.0
 40
4.0
 41
113.6736322822726
 46
7.006666666666667
 71
     1
 72
     5
  1
{\fMS UI Gothic|b0|i0|c128|p50;SI用DINレール取付プレート外形図\P型番 ： SI-DIN20}
 73
     1
 44
1.0
1001
ACAD
1000
ACAD_MTEXT_DEFINED_HEIGHT_BEGIN
1070
    46
1040
7.006666666666667
1000
ACAD_MTEXT_DEFINED_HEIGHT_END
  0
MTEXT
  5
3947
102
{ACAD_XDICTIONARY
360
3948
102
}
330
1B
100
AcDbEntity
 67
     1
  8
文字
100
AcDbMText
 10
223.9050509381136
 20
192.2390887546208
 30
0.0
 40
4.0
 41
43.80805967065966
 46
11.93936756140624
 71
     1
 72
     5
  1
{\fMS UI Gothic|b0|i0|c128|p50;株式会社ラインアイ\P\pi17.831;単位 ： mm}
 73
     1
 44
1.0
  0
ENDSEC
  0
SECTION
  2
OBJECTS
  0
DICTIONARY
  5
C
330
0
100
AcDbDictionary
281
     1
  3
ACAD_CIP_PREVIOUS_PRODUCT_INFO
350
370E
  3
ACAD_COLOR
350
36EF
  3
ACAD_DETAILVIEWSTYLE
350
3708
  3
ACAD_GROUP
350
D
  3
ACAD_LAYOUT
350
1A
  3
ACAD_MATERIAL
350
36BD
  3
ACAD_MLEADERSTYLE
350
3704
  3
ACAD_MLINESTYLE
350
17
  3
ACAD_PLOTSETTINGS
350
19
  3
ACAD_PLOTSTYLENAME
350
E
  3
ACAD_SCALELIST
350
36F2
  3
ACAD_SECTIONVIEWSTYLE
350
3706
  3
ACAD_TABLESTYLE
350
36F0
  3
ACAD_VISUALSTYLE
350
36D6
  3
ACDB_RECOMPOSE_DATA
350
3BA9
  3
AcDbVariableDictionary
350
193
  0
DICTIONARY
  5
3729
330
2
100
AcDbDictionary
280
     1
281
     1
  3
ACAD_LAYERSTATES
360
372A
  0
DICTIONARY
  5
391A
330
10
100
AcDbDictionary
280
     1
281
     1
  3
ADSK_XREC_LAYER_RECONCILED
360
391B
  0
DICTIONARY
  5
391C
330
6A
100
AcDbDictionary
280
     1
281
     1
  3
ADSK_XREC_LAYER_RECONCILED
360
391D
  0
DICTIONARY
  5
391E
330
6B
100
AcDbDictionary
280
     1
281
     1
  3
ADSK_XREC_LAYER_RECONCILED
360
391F
  0
DICTIONARY
  5
3920
330
960
100
AcDbDictionary
280
     1
281
     1
  3
ADSK_XREC_LAYER_RECONCILED
360
3921
  0
DICTIONARY
  5
3922
330
AC0
100
AcDbDictionary
280
     1
281
     1
  3
ADSK_XREC_LAYER_RECONCILED
360
3923
  0
DICTIONARY
  5
3924
330
AC7
100
AcDbDictionary
280
     1
281
     1
  3
ADSK_XREC_LAYER_RECONCILED
360
3925
  0
DICTIONARY
  5
3926
330
1978
100
AcDbDictionary
280
     1
281
     1
  3
ADSK_XREC_LAYER_RECONCILED
360
3927
  0
DICTIONARY
  5
3928
330
1979
100
AcDbDictionary
280
     1
281
     1
  3
ADSK_XREC_LAYER_RECONCILED
360
3929
  0
DICTIONARY
  5
392A
330
197A
100
AcDbDictionary
280
     1
281
     1
  3
ADSK_XREC_LAYER_RECONCILED
360
392B
  0
DICTIONARY
  5
392C
330
24F0
100
AcDbDictionary
280
     1
281
     1
  3
ADSK_XREC_LAYER_RECONCILED
360
392D
  0
DICTIONARY
  5
392E
330
24F1
100
AcDbDictionary
280
     1
281
     1
  3
ADSK_XREC_LAYER_RECONCILED
360
392F
  0
DICTIONARY
  5
3930
330
24F2
100
AcDbDictionary
280
     1
281
     1
  3
ADSK_XREC_LAYER_RECONCILED
360
3931
  0
DICTIONARY
  5
3932
330
2A6C
100
AcDbDictionary
280
     1
281
     1
  3
ADSK_XREC_LAYER_RECONCILED
360
3933
  0
DICTIONARY
  5
F87
330
1F
100
AcDbDictionary
280
     1
281
     1
  3
ACAD_SORTENTS
360
F88
  0
DICTIONARY
  5
375D
330
1B
100
AcDbDictionary
280
     1
281
     1
  3
ACAD_SORTENTS
360
375E
  0
DICTIONARY
  5
2775
330
2774
100
AcDbDictionary
280
     1
281
     1
  3
ACAD_DIMASSOC
360
2776
  0
DICTIONARY
  5
2778
330
2777
100
AcDbDictionary
280
     1
281
     1
  3
ACAD_DIMASSOC
360
2779
  0
DICTIONARY
  5
277B
330
277A
100
AcDbDictionary
280
     1
281
     1
  3
ACAD_DIMASSOC
360
277C
  0
DICTIONARY
  5
278C
330
278B
100
AcDbDictionary
280
     1
281
     1
  3
ACAD_DIMASSOC
360
278D
  0
DICTIONARY
  5
2797
330
2796
100
AcDbDictionary
280
     1
281
     1
  3
ACAD_DIMASSOC
360
2798
  0
DICTIONARY
  5
279B
330
279A
100
AcDbDictionary
280
     1
281
     1
  3
ACAD_DIMASSOC
360
279C
  0
DICTIONARY
  5
27AD
330
27AC
100
AcDbDictionary
280
     1
281
     1
  3
ACAD_DIMASSOC
360
27AE
  0
DICTIONARY
  5
27B0
330
27AF
100
AcDbDictionary
280
     1
281
     1
  3
ACAD_DIMASSOC
360
27B1
  0
DICTIONARY
  5
27B3
330
27B2
100
AcDbDictionary
280
     1
281
     1
  3
ACAD_DIMASSOC
360
27B4
  0
DICTIONARY
  5
27CF
330
27CE
100
AcDbDictionary
280
     1
281
     1
  3
ACAD_DIMASSOC
360
27D0
  0
DICTIONARY
  5
27DD
330
27DC
100
AcDbDictionary
280
     1
281
     1
  3
ACAD_DIMASSOC
360
27DE
  0
DICTIONARY
  5
27E0
330
27DF
100
AcDbDictionary
280
     1
281
     1
  3
ACAD_DIMASSOC
360
27E1
  0
DICTIONARY
  5
27E5
330
27E4
100
AcDbDictionary
280
     1
281
     1
  3
ACAD_DIMASSOC
360
27E6
  0
DICTIONARY
  5
2B0C
330
2B0B
100
AcDbDictionary
280
     1
281
     1
  3
ACAD_DIMASSOC
360
2B0D
  0
DICTIONARY
  5
2ED6
330
2ED5
100
AcDbDictionary
280
     1
281
     1
  3
ACAD_DIMASSOC
360
2ED7
  0
DICTIONARY
  5
2EDA
330
2ED9
100
AcDbDictionary
280
     1
281
     1
  3
ACAD_DIMASSOC
360
2EDB
  0
DICTIONARY
  5
2F0E
330
2F0D
100
AcDbDictionary
280
     1
281
     1
  3
ACAD_DIMASSOC
360
2F0F
  0
DICTIONARY
  5
31D7
330
31C7
100
AcDbDictionary
280
     1
281
     1
  3
ACAD_DIMASSOC
360
31E4
  0
DICTIONARY
  5
3208
330
31FB
100
AcDbDictionary
280
     1
281
     1
  3
ACAD_DIMASSOC
360
3212
  0
DICTIONARY
  5
3238
330
322B
100
AcDbDictionary
280
     1
281
     1
  3
ACAD_DIMASSOC
360
3242
  0
DICTIONARY
  5
3250
330
3243
100
AcDbDictionary
280
     1
281
     1
  3
ACAD_DIMASSOC
360
325A
  0
DICTIONARY
  5
3268
330
325B
100
AcDbDictionary
280
     1
281
     1
  3
ACAD_DIMASSOC
360
3272
  0
DICTIONARY
  5
3280
330
3273
100
AcDbDictionary
280
     1
281
     1
  3
ACAD_DIMASSOC
360
328A
  0
DICTIONARY
  5
32BA
330
32AB
100
AcDbDictionary
280
     1
281
     1
  3
ACAD_DIMASSOC
360
32C6
  0
DICTIONARY
  5
32DF
330
32D2
100
AcDbDictionary
280
     1
281
     1
  3
ACAD_DIMASSOC
360
32E9
  0
DICTIONARY
  5
32F7
330
32EA
100
AcDbDictionary
280
     1
281
     1
  3
ACAD_DIMASSOC
360
3301
  0
DICTIONARY
  5
330F
330
3302
100
AcDbDictionary
280
     1
281
     1
  3
ACAD_DIMASSOC
360
3319
  0
DICTIONARY
  5
3676
330
3669
100
AcDbDictionary
280
     1
281
     1
  3
ACAD_DIMASSOC
360
3680
  0
DICTIONARY
  5
3691
330
3681
100
AcDbDictionary
280
     1
281
     1
  3
ACAD_DIMASSOC
360
369E
  0
DICTIONARY
  5
3918
330
3916
100
AcDbDictionary
280
     1
281
     1
  3
ACAD_DIMASSOC
360
3919
  0
DICTIONARY
  5
3763
330
469
100
AcDbDictionary
280
     1
281
     1
  3
ASDK_XREC_ANNOTATION_SCALE_INFO
360
3764
  0
DICTIONARY
  5
3948
330
3947
100
AcDbDictionary
280
     1
281
     1
  3
ACAD_MTEXT_2008_RT
360
3BA8
  0
XRECORD
  5
370E
102
{ACAD_REACTORS
330
C
102
}
330
C
100
AcDbXrecord
280
     1
300
ACDLT
300
2013
300
ACDLT_F_S
  0
DICTIONARY
  5
36EF
102
{ACAD_REACTORS
330
C
102
}
330
C
100
AcDbDictionary
281
     1
  0
DICTIONARY
  5
3708
102
{ACAD_REACTORS
330
C
102
}
330
C
100
AcDbDictionary
281
     1
  3
Metric50
350
3709
  0
DICTIONARY
  5
D
102
{ACAD_REACTORS
330
C
102
}
330
C
100
AcDbDictionary
281
     1
  3
*A2
350
30EC
  0
DICTIONARY
  5
1A
102
{ACAD_REACTORS
330
C
102
}
330
C
100
AcDbDictionary
281
     1
  3
Model
350
22
  3
ﾚｲｱｳﾄ1
350
1E
  0
DICTIONARY
  5
36BD
102
{ACAD_REACTORS
330
C
102
}
330
C
100
AcDbDictionary
281
     1
  3
ByBlock
350
36C6
  3
ByLayer
350
36BE
  3
Global
350
36CE
  0
DICTIONARY
  5
3704
102
{ACAD_REACTORS
330
C
102
}
330
C
100
AcDbDictionary
281
     1
  3
Standard
350
3705
  0
DICTIONARY
  5
17
102
{ACAD_REACTORS
330
C
102
}
330
C
100
AcDbDictionary
281
     1
  3
Standard
350
18
  0
DICTIONARY
  5
19
102
{ACAD_REACTORS
330
C
102
}
330
C
100
AcDbDictionary
281
     1
  0
ACDBDICTIONARYWDFLT
  5
E
102
{ACAD_REACTORS
330
C
102
}
330
C
100
AcDbDictionary
281
     1
  3
Normal
350
F
100
AcDbDictionaryWithDefault
340
F
  0
DICTIONARY
  5
36F2
102
{ACAD_REACTORS
330
C
102
}
330
C
100
AcDbDictionary
281
     1
  3
A0
350
36F3
  3
A1
350
36F4
  3
A2
350
36F5
  3
A3
350
36F6
  3
A4
350
36F7
  3
A5
350
36F8
  3
A6
350
36F9
  3
A7
350
36FA
  3
A8
350
36FB
  3
A9
350
36FC
  3
B0
350
36FD
  3
B1
350
36FE
  3
B2
350
36FF
  3
B3
350
3700
  3
B4
350
3701
  3
B5
350
3702
  3
B6
350
3703
  0
DICTIONARY
  5
3706
102
{ACAD_REACTORS
330
C
102
}
330
C
100
AcDbDictionary
281
     1
  3
Metric50
350
3707
  0
DICTIONARY
  5
36F0
102
{ACAD_REACTORS
330
C
102
}
330
C
100
AcDbDictionary
281
     1
  3
Standard
350
36F1
  0
DICTIONARY
  5
36D6
102
{ACAD_REACTORS
330
C
102
}
330
C
100
AcDbDictionary
281
     1
  3
2dWireframe
350
36DC
  3
Basic
350
36DB
  3
Brighten
350
36E2
  3
ColorChange
350
36E6
  3
Conceptual
350
36DF
  3
Dim
350
36E1
  3
EdgeColorOff
350
36EE
  3
Facepattern
350
36E5
  3
Flat
350
36D7
  3
FlatWithEdges
350
36D8
  3
Gouraud
350
36D9
  3
GouraudWithEdges
350
36DA
  3
Hidden
350
36DE
  3
JitterOff
350
36EC
  3
Linepattern
350
36E4
  3
OverhangOff
350
36ED
  3
Realistic
350
36E0
  3
Shaded
350
36EB
  3
Shaded with edges
350
36EA
  3
Shades of Gray
350
36E7
  3
Sketchy
350
36E8
  3
Thicken
350
36E3
  3
Wireframe
350
36DD
  3
X-Ray
350
36E9
  0
XRECORD
  5
3BA9
102
{ACAD_REACTORS
330
C
102
}
330
C
100
AcDbXrecord
280
     1
 90
        1
330
36F1
330
3947
  0
DICTIONARY
  5
193
102
{ACAD_REACTORS
330
C
102
}
330
C
100
AcDbDictionary
281
     1
  3
CANNOSCALE
350
3717
  3
CMLEADERSTYLE
350
3713
  3
CTABLESTYLE
350
3712
  3
CVIEWDETAILSTYLE
350
3714
  3
CVIEWSECTIONSTYLE
350
3715
  3
DIMASSOC
350
195
  3
HIDETEXT
350
194
  3
LAYEREVAL
350
3719
  3
LAYERNOTIFY
350
371A
  3
LIGHTINGUNITS
350
3718
  3
MSLTSCALE
350
3716
  3
SORTENTS
350
FE8
  0
DICTIONARY
  5
372A
102
{ACAD_REACTORS
330
3729
102
}
330
3729
100
AcDbDictionary
281
     1
  0
XRECORD
  5
391B
102
{ACAD_REACTORS
330
391A
102
}
330
391A
100
AcDbXrecord
280
     1
290
     1
  0
XRECORD
  5
391D
102
{ACAD_REACTORS
330
391C
102
}
330
391C
100
AcDbXrecord
280
     1
290
     1
  0
XRECORD
  5
391F
102
{ACAD_REACTORS
330
391E
102
}
330
391E
100
AcDbXrecord
280
     1
290
     1
  0
XRECORD
  5
3921
102
{ACAD_REACTORS
330
3920
102
}
330
3920
100
AcDbXrecord
280
     1
290
     1
  0
XRECORD
  5
3923
102
{ACAD_REACTORS
330
3922
102
}
330
3922
100
AcDbXrecord
280
     1
290
     1
  0
XRECORD
  5
3925
102
{ACAD_REACTORS
330
3924
102
}
330
3924
100
AcDbXrecord
280
     1
290
     1
  0
XRECORD
  5
3927
102
{ACAD_REACTORS
330
3926
102
}
330
3926
100
AcDbXrecord
280
     1
290
     1
  0
XRECORD
  5
3929
102
{ACAD_REACTORS
330
3928
102
}
330
3928
100
AcDbXrecord
280
     1
290
     1
  0
XRECORD
  5
392B
102
{ACAD_REACTORS
330
392A
102
}
330
392A
100
AcDbXrecord
280
     1
290
     1
  0
XRECORD
  5
392D
102
{ACAD_REACTORS
330
392C
102
}
330
392C
100
AcDbXrecord
280
     1
290
     1
  0
XRECORD
  5
392F
102
{ACAD_REACTORS
330
392E
102
}
330
392E
100
AcDbXrecord
280
     1
290
     1
  0
XRECORD
  5
3931
102
{ACAD_REACTORS
330
3930
102
}
330
3930
100
AcDbXrecord
280
     1
290
     1
  0
XRECORD
  5
3933
102
{ACAD_REACTORS
330
3932
102
}
330
3932
100
AcDbXrecord
280
     1
290
     1
  0
SORTENTSTABLE
  5
F88
102
{ACAD_REACTORS
330
F87
102
}
330
F87
100
AcDbSortentsTable
330
1F
331
2B1F
  5
2B2B
331
30C6
  5
31C7
331
30C2
  5
30E0
331
2ECD
  5
2ED9
331
2B52
  5
2ED1
331
30BE
  5
30DC
331
2EC9
  5
2ED8
331
30BA
  5
30C7
331
3243
  5
3A88
331
2F18
  5
2F32
331
2EC5
  5
2ED5
331
2B0F
  5
2B23
331
2B4E
  5
2ECD
331
2B0B
  5
2B20
331
30B6
  5
30C3
331
2F14
  5
2F2E
331
2B4A
  5
2EC3
331
2B46
  5
2B50
331
30B2
  5
30BF
331
30AE
  5
30BB
331
30AA
  5
30B7
331
2F47
  5
30B2
331
2B3E
  5
2B4C
331
2AFB
  5
2B14
331
30A6
  5
30B3
331
2F43
  5
30AE
331
2B3A
  5
2B49
331
2EE8
  5
2F19
331
30E1
  5
3A2A
331
322B
  5
3A4A
331
2F3F
  5
30AA
331
2EE4
  5
2F15
331
2B32
  5
2B45
331
30DD
  5
3302
331
2EE0
  5
2F11
331
2B2E
  5
2B3E
331
2F33
  5
30A6
331
2EDC
  5
2EE8
331
2B2A
  5
2B39
331
2B26
  5
2B33
331
2F2F
  5
2F44
331
2ED8
  5
2EE6
331
2ED4
  5
2EE4
331
2B22
  5
2B2E
331
30CD
  5
322B
331
2ED0
  5
2EE0
331
2F27
  5
2F40
331
30C5
  5
3179
331
30C1
  5
30DF
331
31FB
  5
3A49
331
2B51
  5
2ED0
331
30BD
  5
30DB
331
30B9
  5
30C6
331
2B12
  5
2B29
331
2EC4
  5
2ED4
331
2B0E
  5
2B21
331
2F17
  5
2F31
331
2B4D
  5
2EC9
331
312C
  5
3A2B
331
30B5
  5
30C2
331
2F13
  5
2F2D
331
2B49
  5
2EC2
331
2B45
  5
2B4F
331
30B1
  5
30BE
331
2B41
  5
2B4E
331
30AD
  5
30BA
331
30A9
  5
30B6
331
2B02
  5
2B1F
331
2F46
  5
30B1
331
2B3D
  5
2B4B
331
31C7
  5
3A48
331
2F42
  5
30AD
331
2B39
  5
2B48
331
2EE7
  5
2F18
331
30E0
  5
3916
331
2F3E
  5
30A9
331
2EE3
  5
2F14
331
2B31
  5
2B3F
331
30DC
  5
32EA
331
2AEE
  5
2AEE
331
2EDF
  5
2F0D
331
2B2D
  5
2B3D
331
2F32
  5
2F47
331
2B29
  5
2B34
331
2B25
  5
2B32
331
30D0
  5
3273
331
2F2E
  5
2F43
331
2ED3
  5
2EE3
331
2B21
  5
2B2D
331
2F26
  5
2F3F
331
2ECF
  5
2EDF
331
30C4
  5
312C
331
2F22
  5
2F3E
331
30C0
  5
30DE
331
2F1A
  5
2F34
331
2B50
  5
2ECF
331
30BC
  5
30DA
331
30B8
  5
30C5
331
2B11
  5
2B26
331
2EC3
  5
2ED3
331
2F16
  5
2F30
331
2B4C
  5
2EC5
331
2B48
  5
2B52
331
30B4
  5
30C1
331
2F12
  5
2F28
331
30B0
  5
30BD
331
30AC
  5
30B9
331
30A8
  5
30B5
331
2F45
  5
30B0
331
2F41
  5
30AC
331
2EEA
  5
2F21
331
2EE6
  5
2F17
331
2B34
  5
2B47
331
30DF
  5
3681
331
2EE2
  5
2F13
331
30DB
  5
32D2
331
2AF5
  5
2B0B
331
2AF1
  5
2AF1
331
2F35
  5
30A8
331
2EDE
  5
2EEA
331
2B2C
  5
2B3B
331
2F31
  5
2F46
331
32AB
  5
3AE6
331
30CF
  5
325B
331
2F2D
  5
2F42
331
2ED2
  5
2EE2
331
2B20
  5
2B2C
331
3302
  5
3AFD
331
30C7
  5
31FB
331
2ECE
  5
2EDE
331
30C3
  5
30E1
331
2F21
  5
2F35
331
30BF
  5
30DD
331
2F19
  5
2F33
331
30BB
  5
30CD
331
32EA
  5
3AFC
331
3681
  5
3AFF
331
2B14
  5
2B2A
331
2B10
  5
2B25
331
2B4F
  5
2ECE
331
2EC2
  5
2ED2
331
30B7
  5
30C4
331
2F15
  5
2F2F
331
2B4B
  5
2EC4
331
2F11
  5
2F26
331
2B47
  5
2B51
331
30B3
  5
30C0
331
2F0D
  5
2F22
331
3916
  5
3B00
331
3273
  5
3A8A
331
30AF
  5
30BC
331
30AB
  5
30B8
331
32D2
  5
3AE7
331
3669
  5
3AFE
331
2B3F
  5
2B4D
331
30A7
  5
30B4
331
2F44
  5
30AF
331
2B3B
  5
2B4A
331
2F40
  5
30AB
331
2EE9
  5
2F1A
331
2EE5
  5
2F16
331
2B33
  5
2B46
331
30DE
  5
3669
331
2EE1
  5
2F12
331
30DA
  5
32AB
331
325B
  5
3A89
331
2AF4
  5
2B02
331
2F34
  5
30A7
331
2EDD
  5
2EE9
331
2B2B
  5
2B3A
331
2F30
  5
2F45
331
2ED9
  5
2EE7
331
2ED5
  5
2EE5
331
2B23
  5
2B31
331
30CE
  5
3243
331
2F28
  5
2F41
331
2ED1
  5
2EE1
331
3179
  5
3A2C
  0
SORTENTSTABLE
  5
375E
102
{ACAD_REACTORS
330
375D
102
}
330
375D
100
AcDbSortentsTable
330
1B
331
3759
  5
3759
331
375A
  5
375B
331
375B
  5
375F
331
375C
  5
3761
331
467
  5
467
331
469
  5
469
  0
DIMASSOC
  5
2776
102
{ACAD_REACTORS
330
2775
102
}
330
2775
100
AcDbDimAssoc
330
2774
 90
        2
 70
     0
 71
     0
  1
AcDbOsnapPointRef
 72
     3
331
27CA
 73
     2
 91
        0
 40
0.0
 10
207.0799496199761
 20
165.2438128573029
 30
0.0
 75
     0
  0
DIMASSOC
  5
2779
102
{ACAD_REACTORS
330
2778
102
}
330
2778
100
AcDbDimAssoc
330
2777
 90
        1
 70
     0
 71
     0
  1
AcDbOsnapPointRef
 72
    13
331
27EA
 73
     2
 91
        0
 40
0.0
 10
216.0799496199762
 20
185.7438128573028
 30
0.0
 75
     0
  0
DIMASSOC
  5
277C
102
{ACAD_REACTORS
330
277B
102
}
330
277B
100
AcDbDimAssoc
330
277A
 90
        3
 70
     0
 71
     0
  1
AcDbOsnapPointRef
 72
    13
331
2787
 73
     2
 91
        0
 40
0.0
 10
133.5799496199762
 20
194.2438128573029
 30
0.0
 75
     0
  1
AcDbOsnapPointRef
 72
     1
331
2787
 73
     2
 91
        0
 40
1.0
 10
210.5799496199761
 20
194.2438128573029
 30
0.0
 75
     0
  0
DIMASSOC
  5
278D
102
{ACAD_REACTORS
330
278C
102
}
330
278C
100
AcDbDimAssoc
330
278B
 90
        3
 70
     0
 71
     0
  1
AcDbOsnapPointRef
 72
     6
331
278A
 73
     2
 91
        0
 40
0.5
 10
172.079949619976
 20
147.0243708573029
 30
0.0
332
27A2
 74
     2
 92
        0
 75
     0
  1
AcDbOsnapPointRef
 72
     6
331
2799
 73
     2
 91
        0
 40
0.4084507042253521
 10
172.079949619976
 20
144.5243708573029
 30
0.0
332
27A2
 74
     2
 92
        0
 75
     0
  0
DIMASSOC
  5
2798
102
{ACAD_REACTORS
330
2797
102
}
330
2797
100
AcDbDimAssoc
330
2796
 90
        3
 70
     0
 71
     0
  1
AcDbOsnapPointRef
 72
     1
331
278E
 73
     2
 91
        0
 40
1.0
 10
157.5799496199761
 20
139.0243708573029
 30
0.0
 75
     0
  1
AcDbOsnapPointRef
 72
    13
331
2784
 73
     2
 91
        0
 40
0.0
 10
193.079949619976
 20
139.0243708573029
 30
0.0
 75
     0
  0
DIMASSOC
  5
279C
102
{ACAD_REACTORS
330
279B
102
}
330
279B
100
AcDbDimAssoc
330
279A
 90
        2
 70
     0
 71
     0
  1
AcDbOsnapPointRef
 72
     1
331
27A2
 73
     2
 91
        0
 40
1.0
 10
172.079949619976
 20
143.5243708573029
 30
0.0
 75
     0
  0
DIMASSOC
  5
27AE
102
{ACAD_REACTORS
330
27AD
102
}
330
27AD
100
AcDbDimAssoc
330
27AC
 90
        3
 70
     0
 71
     0
  1
AcDbOsnapPointRef
 72
    13
331
27BD
 73
     2
 91
        0
 40
0.0
 10
137.0799496199762
 20
194.2438128573029
 30
0.0
 75
     0
  1
AcDbOsnapPointRef
 72
    13
331
27CD
 73
     2
 91
        0
 40
0.0
 10
207.0799496199761
 20
194.2438128573029
 30
0.0
 75
     0
  0
DIMASSOC
  5
27B1
102
{ACAD_REACTORS
330
27B0
102
}
330
27B0
100
AcDbDimAssoc
330
27AF
 90
        3
 70
     0
 71
     0
  1
AcDbOsnapPointRef
 72
     1
331
27BB
 73
     2
 91
        0
 40
1.0
 10
133.0799496199762
 20
190.2438128573029
 30
0.0
 75
     0
  1
AcDbOsnapPointRef
 72
     1
331
27B8
 73
     2
 91
        0
 40
1.0
 10
133.0799496199762
 20
165.2438128573029
 30
0.0
 75
     0
  0
DIMASSOC
  5
27B4
102
{ACAD_REACTORS
330
27B3
102
}
330
27B3
100
AcDbDimAssoc
330
27B2
 90
        2
 70
     0
 71
     0
  1
AcDbOsnapPointRef
 72
    13
331
2788
 73
     2
 91
        0
 40
0.0
 10
133.5799496199762
 20
161.2438128573029
 30
0.0
 75
     0
  0
DIMASSOC
  5
27D0
102
{ACAD_REACTORS
330
27CF
102
}
330
27CF
100
AcDbDimAssoc
330
27CE
 90
        3
 70
     0
 71
     0
  1
AcDbOsnapPointRef
 72
    13
331
27D4
 73
     2
 91
        0
 40
0.0
 10
215.5799496199761
 20
144.5243708573029
 30
0.0
 75
     0
  1
AcDbOsnapPointRef
 72
     1
331
27D4
 73
     2
 91
        0
 40
1.0
 10
215.5799496199761
 20
140.5243708573029
 30
0.0
 75
     0
  0
DIMASSOC
  5
27DE
102
{ACAD_REACTORS
330
27DD
102
}
330
27DD
100
AcDbDimAssoc
330
27DC
 90
        1
 70
     0
 71
     0
  1
AcDbOsnapPointRef
 72
    13
331
2804
 73
     2
 91
        0
 40
0.0
 10
237.9562856199762
 20
193.2438128573029
 30
0.0
 75
     0
  0
DIMASSOC
  5
27E1
102
{ACAD_REACTORS
330
27E0
102
}
330
27E0
100
AcDbDimAssoc
330
27DF
 90
        3
 70
     0
 71
     0
  1
AcDbOsnapPointRef
 72
    13
331
27E9
 73
     2
 91
        0
 40
0.0
 10
233.9562856199762
 20
194.2438128573029
 30
0.0
 75
     0
  1
AcDbOsnapPointRef
 72
     1
331
2800
 73
     2
 91
        0
 40
1.0
 10
241.9562856199762
 20
194.2438128573029
 30
0.0
 75
     0
  0
DIMASSOC
  5
27E6
102
{ACAD_REACTORS
330
27E5
102
}
330
27E5
100
AcDbDimAssoc
330
27E4
 90
        3
 70
     0
 71
     0
  1
AcDbOsnapPointRef
 72
     1
331
27FD
 73
     2
 91
        0
 40
1.0
 10
215.5799496199761
 20
186.2438128573029
 30
0.0
 75
     0
  1
AcDbOsnapPointRef
 72
     1
331
27EC
 73
     2
 91
        0
 40
1.0
 10
215.5799496199761
 20
169.2438128573029
 30
0.0
 75
     0
  0
DIMASSOC
  5
2B0D
102
{ACAD_REACTORS
330
2B0C
102
}
330
2B0C
100
AcDbDimAssoc
330
2B0B
 90
        3
 70
     0
 71
     0
  1
AcDbOsnapPointRef
 72
    13
331
2AF5
 73
     2
 91
        0
 40
0.0
 10
73.17178260245405
 20
75.60004978129547
 30
0.0
 75
     0
  1
AcDbOsnapPointRef
 72
    13
331
2AF4
 73
     2
 91
        0
 40
0.0
 10
73.17178260245405
 20
73.10004978129547
 30
0.0
 75
     0
  0
DIMASSOC
  5
2ED7
102
{ACAD_REACTORS
330
2ED6
102
}
330
2ED6
100
AcDbDimAssoc
330
2ED5
 90
        3
 70
     0
 71
     0
  1
AcDbOsnapPointRef
 72
     1
331
2ECD
 73
     2
 91
        0
 40
1.0
 10
99.17178260245407
 20
65.10004978129547
 30
0.0
 75
     0
  1
AcDbOsnapPointRef
 72
    13
331
2EC3
 73
     2
 91
        0
 40
0.0
 10
134.671782602454
 20
65.10004978129547
 30
0.0
 75
     0
  0
DIMASSOC
  5
2EDB
102
{ACAD_REACTORS
330
2EDA
102
}
330
2EDA
100
AcDbDimAssoc
330
2ED9
 90
        2
 70
     0
 71
     0
  1
AcDbOsnapPointRef
 72
     1
331
2EE1
 73
     2
 91
        0
 40
1.0
 10
113.671782602454
 20
69.60004978129546
 30
0.0
 75
     0
  0
DIMASSOC
  5
2F0F
102
{ACAD_REACTORS
330
2F0E
102
}
330
2F0E
100
AcDbDimAssoc
330
2F0D
 90
        3
 70
     0
 71
     0
  1
AcDbOsnapPointRef
 72
    13
331
2F13
 73
     2
 91
        0
 40
0.0
 10
157.171782602454
 20
70.60004978129547
 30
0.0
 75
     0
  1
AcDbOsnapPointRef
 72
     1
331
2F13
 73
     2
 91
        0
 40
1.0
 10
157.171782602454
 20
66.60004978129546
 30
0.0
 75
     0
  0
DIMASSOC
  5
31E4
102
{ACAD_REACTORS
330
31D7
102
}
330
31D7
100
AcDbDimAssoc
330
31C7
 90
        3
 70
     0
 71
     0
  1
AcDbOsnapPointRef
 72
    13
331
2AF1
 73
     2
 91
        0
 40
0.0
 10
73.17178260245405
 20
151.4188375929324
 30
0.0
 75
     0
  1
AcDbOsnapPointRef
 72
    13
331
2B23
 73
     2
 91
        0
 40
0.0
 10
75.77121438040176
 20
145.9211385926845
 30
0.0
 75
     0
  0
DIMASSOC
  5
3212
102
{ACAD_REACTORS
330
3208
102
}
330
3208
100
AcDbDimAssoc
330
31FB
 90
        3
 70
     0
 71
     0
  1
AcDbOsnapPointRef
 72
    13
331
2AF1
 73
     2
 91
        0
 40
0.0
 10
73.17178260245405
 20
151.4188375929324
 30
0.0
 75
     0
  1
AcDbOsnapPointRef
 72
     1
331
30B5
 73
     2
 91
        0
 40
1.0
 10
74.67178260245406
 20
135.9188375929325
 30
0.0
 75
     0
  0
DIMASSOC
  5
3242
102
{ACAD_REACTORS
330
3238
102
}
330
3238
100
AcDbDimAssoc
330
322B
 90
        3
 70
     0
 71
     0
  1
AcDbOsnapPointRef
 72
    13
331
2AFB
 73
     2
 91
        0
 40
0.0
 10
73.17178260245405
 20
95.41883759293243
 30
0.0
 75
     0
  1
AcDbOsnapPointRef
 72
    13
331
2AF1
 73
     2
 91
        0
 40
0.0
 10
73.17178260245405
 20
151.4188375929324
 30
0.0
 75
     0
  0
DIMASSOC
  5
325A
102
{ACAD_REACTORS
330
3250
102
}
330
3250
100
AcDbDimAssoc
330
3243
 90
        3
 70
     0
 71
     0
  1
AcDbOsnapPointRef
 72
     1
331
30E0
 73
     2
 91
        0
 40
1.0
 10
157.171782602454
 20
131.9188375929325
 30
0.0
 75
     0
  1
AcDbOsnapPointRef
 72
     1
331
30CF
 73
     2
 91
        0
 40
1.0
 10
157.171782602454
 20
114.9188375929325
 30
0.0
 75
     0
  0
DIMASSOC
  5
3272
102
{ACAD_REACTORS
330
3268
102
}
330
3268
100
AcDbDimAssoc
330
325B
 90
        3
 70
     0
 71
     0
  1
AcDbOsnapPointRef
 72
    13
331
30A6
 73
     2
 91
        0
 40
0.0
 10
152.671782602454
 20
135.9188375929325
 30
0.0
 75
     0
  1
AcDbOsnapPointRef
 72
    13
331
30A8
 73
     2
 91
        0
 40
0.0
 10
152.671782602454
 20
110.9188375929325
 30
0.0
 75
     0
  0
DIMASSOC
  5
328A
102
{ACAD_REACTORS
330
3280
102
}
330
3280
100
AcDbDimAssoc
330
3273
 90
        3
 70
     0
 71
     0
  1
AcDbOsnapPointRef
 72
     1
331
30AC
 73
     2
 91
        0
 40
1.0
 10
152.171782602454
 20
139.9188375929325
 30
0.0
 75
     0
  1
AcDbOsnapPointRef
 72
     1
331
30AD
 73
     2
 91
        0
 40
1.0
 10
152.171782602454
 20
106.9188375929325
 30
0.0
 75
     0
  0
DIMASSOC
  5
32C6
102
{ACAD_REACTORS
330
32BA
102
}
330
32BA
100
AcDbDimAssoc
330
32AB
 90
        3
 70
     0
 71
     0
  1
AcDbOsnapPointRef
 72
    13
331
2AF1
 73
     2
 91
        0
 40
0.0
 10
73.17178260245405
 20
151.4188375929324
 30
0.0
 75
     0
  1
AcDbOsnapPointRef
 72
    13
331
2B20
 73
     2
 91
        0
 40
0.0
 10
77.67178260245406
 20
148.3541169689365
 30
0.0
 75
     0
  0
DIMASSOC
  5
32E9
102
{ACAD_REACTORS
330
32DF
102
}
330
32DF
100
AcDbDimAssoc
330
32D2
 90
        2
 70
     0
 71
     0
  1
AcDbOsnapPointRef
 72
     1
331
2AF1
 73
     2
 91
        0
 40
1.0
 10
135.171782602454
 20
151.4188375929324
 30
0.0
 75
     0
  0
DIMASSOC
  5
3301
102
{ACAD_REACTORS
330
32F7
102
}
330
32F7
100
AcDbDimAssoc
330
32EA
 90
        2
 70
     0
 71
     0
  1
AcDbOsnapPointRef
 72
    13
331
30CD
 73
     2
 91
        0
 40
0.0
 10
157.6717826024539
 20
131.4188375929325
 30
0.0
 75
     0
  0
DIMASSOC
  5
3319
102
{ACAD_REACTORS
330
330F
102
}
330
330F
100
AcDbDimAssoc
330
3302
 90
        2
 70
     0
 71
     0
  1
AcDbOsnapPointRef
 72
     1
331
2AF5
 73
     2
 91
        0
 40
1.0
 10
152.1717826024541
 20
75.60004978129547
 30
0.0
 75
     0
  0
DIMASSOC
  5
3680
102
{ACAD_REACTORS
330
3676
102
}
330
3676
100
AcDbDimAssoc
330
3669
 90
        3
 70
     0
 71
     0
  1
AcDbOsnapPointRef
 72
     1
331
2AFB
 73
     2
 91
        0
 40
1.0
 10
135.1717826024541
 20
95.41883759293243
 30
0.0
 75
     0
  1
AcDbOsnapPointRef
 72
     1
331
2B34
 73
     2
 91
        0
 40
1.0
 10
127.671782602454
 20
98.91883759293243
 30
0.0
 75
     0
  0
DIMASSOC
  5
369E
102
{ACAD_REACTORS
330
3691
102
}
330
3691
100
AcDbDimAssoc
330
3681
 90
        3
 70
     0
 71
     0
  1
AcDbOsnapPointRef
 72
     1
331
2AFB
 73
     2
 91
        0
 40
1.0
 10
135.1717826024541
 20
95.41883759293243
 30
0.0
 75
     0
  1
AcDbOsnapPointRef
 72
    13
331
2B39
 73
     2
 91
        0
 40
0.0
 10
130.1518960630119
 20
100.9188375929324
 30
0.0
 75
     0
  0
DIMASSOC
  5
3919
102
{ACAD_REACTORS
330
3918
102
}
330
3918
100
AcDbDimAssoc
330
3916
 90
        1
 70
     0
 71
     0
  1
AcDbOsnapPointRef
 72
     6
331
2EC3
 73
     2
 91
        0
 40
0.8
 10
0.0
 20
0.0
 30
0.0
332
2EE8
 74
     2
 92
        0
 75
     0
  0
XRECORD
  5
3764
102
{ACAD_REACTORS
330
3763
102
}
330
3763
100
AcDbXrecord
280
     1
 90
        1
340
36F3
  0
XRECORD
  5
3BA8
102
{ACAD_REACTORS
330
3948
102
}
330
3948
100
AcDbXrecord
280
     1
 40
11789949.0
  1
{\fMS UI Gothic|b0|i0|c128|p50;株式会社ラインアイ\P\pxqr;単位 ： mm}
  0
ACDBDETAILVIEWSTYLE
  5
3709
102
{ACAD_REACTORS
330
3708
102
}
330
3708
100
AcDbModelDocViewStyle
 70
     0
  3
Metric50
290
     0
100
AcDbDetailViewStyle
 70
     0
 71
     0
 90
        3
 71
     1
340
11
 62
   256
 40
5.0
340
0
 62
   256
 40
5.0
300

 40
0.0
280
     1
 71
     2
340
16
 90
       25
 62
   256
 71
     3
340
11
 62
   256
 40
5.0
 90
        0
 40
15.0
 90
        1
300
%<\AcVar ViewDetailId>% (%<\AcVar ViewScale \f "%sn">%)
 71
     4
340
16
 90
       25
 62
   256
340
16
 90
       25
 62
   256
280
     0
  0
GROUP
  5
30EC
102
{ACAD_REACTORS
330
D
102
}
330
D
100
AcDbGroup
300

 70
     1
 71
     1
340
30AE
340
30AD
340
30AC
340
30B8
340
30AF
340
30B2
340
30B3
340
30B1
340
30B0
340
30B5
340
30B7
340
30B6
340
30B4
340
30B9
340
30BC
340
30BB
340
30BA
340
30BF
340
30BE
340
30BD
340
30E0
340
30DA
340
30CF
340
30CE
340
30C1
340
30C0
340
30AA
340
30C2
340
30C4
340
30A8
340
30A7
340
30C3
340
30DB
340
30DD
340
30DC
340
30DF
340
30DE
340
30A9
340
30C5
340
30C6
340
30AB
340
30A6
340
30C7
340
30CD
340
30D0
340
30E1
  0
LAYOUT
  5
22
102
{ACAD_REACTORS
330
1A
102
}
330
1A
100
AcDbPlotSettings
  1

  2
Acrobat PDFWriter
  4
A4
  6

 40
7.143749999999998
 41
7.143741
 42
7.143767999999998
 43
7.143753
 44
297.053009
 45
209.973328
 46
25.48
 47
0.0
 48
1435.704606
 49
1108.925252
140
1540.197795
141
1197.136093
142
1.0
143
0.4507778575326002
 70
 28340
 72
     1
 73
     0
 74
     4
  7
Grayscale.ctb
 75
     0
147
2.218387578914476
 76
     0
 77
     2
 78
   300
148
-1435.704606
149
-1108.925252
100
AcDbLayout
  1
Model
 70
     1
 71
     0
 10
0.0
 20
0.0
 11
12.0
 21
9.0
 12
0.0
 22
0.0
 32
0.0
 14
0.0
 24
0.0
 34
0.0
 15
0.0
 25
0.0
 35
0.0
146
0.0
 13
0.0
 23
0.0
 33
0.0
 16
1.0
 26
0.0
 36
0.0
 17
0.0
 27
1.0
 37
0.0
 76
     0
330
1F
331
36B7
  0
LAYOUT
  5
1E
102
{ACAD_REACTORS
330
1A
102
}
330
1A
100
AcDbPlotSettings
  1

  2
DWG To PDF.pc3
  4
ISO_full_bleed_A4_(297.00_x_210.00_MM)
  6

 40
0.7937499880790711
 41
0.7937499880790711
 42
0.79376220703125
 43
0.7937469482421875
 44
297.0
 45
210.0
 46
0.0
 47
0.0
 48
0.0
 49
0.0
140
0.0
141
0.0
142
1.0
143
1.0
 70
   688
 72
     1
 73
     0
 74
     5
  7
monochrome.ctb
 75
    16
147
1.0
 76
     0
 77
     2
 78
   300
148
0.0
149
0.0
100
AcDbLayout
  1
ﾚｲｱｳﾄ1
 70
     1
 71
     1
 10
-0.7937499880790711
 20
-0.7937499880790711
 11
296.2062500119209
 21
209.2062500119209
 12
0.0
 22
0.0
 32
0.0
 14
-1.098149247322339
 24
-0.9305688206987383
 34
0.0
 15
296.2236510207624
 25
209.2771364922563
 35
0.0
146
0.0
 13
0.0
 23
0.0
 33
0.0
 16
1.0
 26
0.0
 36
0.0
 17
0.0
 27
1.0
 37
0.0
 76
     0
330
1B
331
467
1001
ACAD_PSEXT
1000
DWG To PDF.pc3
1000
DWG To PDF
1000
ファイル
1000

1070
     0
  0
MATERIAL
  5
36C6
102
{ACAD_XDICTIONARY
360
36C7
102
}
102
{ACAD_REACTORS
330
36BD
102
}
330
36BD
100
AcDbMaterial
  1
ByBlock
 72
     0
 43
0.0008202099737533
 43
0.0
 43
0.0
 43
0.0
 43
0.0
 43
0.0008202099737533
 43
0.0
 43
0.0
 43
0.0
 43
0.0
 43
1.0
 43
0.0
 43
0.0
 43
0.0
 43
0.0
 43
1.0
 77
     0
 47
0.0008202099737533
 47
0.0
 47
0.0
 47
0.0
 47
0.0
 47
0.0008202099737533
 47
0.0
 47
0.0
 47
0.0
 47
0.0
 47
1.0
 47
0.0
 47
0.0
 47
0.0
 47
0.0
 47
1.0
171
     0
 49
0.0008202099737533
 49
0.0
 49
0.0
 49
0.0
 49
0.0
 49
0.0008202099737533
 49
0.0
 49
0.0
 49
0.0
 49
0.0
 49
1.0
 49
0.0
 49
0.0
 49
0.0
 49
0.0
 49
1.0
175
     0
142
0.0008202099737533
142
0.0
142
0.0
142
0.0
142
0.0
142
0.0008202099737533
142
0.0
142
0.0
142
0.0
142
0.0
142
1.0
142
0.0
142
0.0
142
0.0
142
0.0
142
1.0
179
     0
144
0.0008202099737533
144
0.0
144
0.0
144
0.0
144
0.0
144
0.0008202099737533
144
0.0
144
0.0
144
0.0
144
0.0
144
1.0
144
0.0
144
0.0
144
0.0
144
0.0
144
1.0
147
0.0008202099737533
147
0.0
147
0.0
147
0.0
147
0.0
147
0.0008202099737533
147
0.0
147
0.0
147
0.0
147
0.0
147
1.0
147
0.0
147
0.0
147
0.0
147
0.0
147
1.0
  0
MATERIAL
  5
36BE
102
{ACAD_XDICTIONARY
360
36BF
102
}
102
{ACAD_REACTORS
330
36BD
102
}
330
36BD
100
AcDbMaterial
  1
ByLayer
 72
     0
 43
0.0008202099737533
 43
0.0
 43
0.0
 43
0.0
 43
0.0
 43
0.0008202099737533
 43
0.0
 43
0.0
 43
0.0
 43
0.0
 43
1.0
 43
0.0
 43
0.0
 43
0.0
 43
0.0
 43
1.0
 77
     0
 47
0.0008202099737533
 47
0.0
 47
0.0
 47
0.0
 47
0.0
 47
0.0008202099737533
 47
0.0
 47
0.0
 47
0.0
 47
0.0
 47
1.0
 47
0.0
 47
0.0
 47
0.0
 47
0.0
 47
1.0
171
     0
 49
0.0008202099737533
 49
0.0
 49
0.0
 49
0.0
 49
0.0
 49
0.0008202099737533
 49
0.0
 49
0.0
 49
0.0
 49
0.0
 49
1.0
 49
0.0
 49
0.0
 49
0.0
 49
0.0
 49
1.0
175
     0
142
0.0008202099737533
142
0.0
142
0.0
142
0.0
142
0.0
142
0.0008202099737533
142
0.0
142
0.0
142
0.0
142
0.0
142
1.0
142
0.0
142
0.0
142
0.0
142
0.0
142
1.0
179
     0
144
0.0008202099737533
144
0.0
144
0.0
144
0.0
144
0.0
144
0.0008202099737533
144
0.0
144
0.0
144
0.0
144
0.0
144
1.0
144
0.0
144
0.0
144
0.0
144
0.0
144
1.0
147
0.0008202099737533
147
0.0
147
0.0
147
0.0
147
0.0
147
0.0008202099737533
147
0.0
147
0.0
147
0.0
147
0.0
147
1.0
147
0.0
147
0.0
147
0.0
147
0.0
147
1.0
  0
MATERIAL
  5
36CE
102
{ACAD_XDICTIONARY
360
36CF
102
}
102
{ACAD_REACTORS
330
36BD
102
}
330
36BD
100
AcDbMaterial
  1
Global
 72
     0
 43
0.0008202099737533
 43
0.0
 43
0.0
 43
0.0
 43
0.0
 43
0.0008202099737533
 43
0.0
 43
0.0
 43
0.0
 43
0.0
 43
1.0
 43
0.0
 43
0.0
 43
0.0
 43
0.0
 43
1.0
 77
     0
 47
0.0008202099737533
 47
0.0
 47
0.0
 47
0.0
 47
0.0
 47
0.0008202099737533
 47
0.0
 47
0.0
 47
0.0
 47
0.0
 47
1.0
 47
0.0
 47
0.0
 47
0.0
 47
0.0
 47
1.0
171
     0
 49
0.0008202099737533
 49
0.0
 49
0.0
 49
0.0
 49
0.0
 49
0.0008202099737533
 49
0.0
 49
0.0
 49
0.0
 49
0.0
 49
1.0
 49
0.0
 49
0.0
 49
0.0
 49
0.0
 49
1.0
175
     0
142
0.0008202099737533
142
0.0
142
0.0
142
0.0
142
0.0
142
0.0008202099737533
142
0.0
142
0.0
142
0.0
142
0.0
142
1.0
142
0.0
142
0.0
142
0.0
142
0.0
142
1.0
179
     0
144
0.0008202099737533
144
0.0
144
0.0
144
0.0
144
0.0
144
0.0008202099737533
144
0.0
144
0.0
144
0.0
144
0.0
144
1.0
144
0.0
144
0.0
144
0.0
144
0.0
144
1.0
147
0.0008202099737533
147
0.0
147
0.0
147
0.0
147
0.0
147
0.0008202099737533
147
0.0
147
0.0
147
0.0
147
0.0
147
1.0
147
0.0
147
0.0
147
0.0
147
0.0
147
1.0
  0
MLEADERSTYLE
  5
3705
102
{ACAD_REACTORS
330
3704
330
3916
102
}
330
3704
100
AcDbMLeaderStyle
179
     2
170
     2
171
     1
172
     0
 90
        2
 40
0.0
 41
0.0
173
     1
 91
-1056964608
340
14
 92
       -2
290
     1
 42
2.0
291
     1
 43
0.36
  3
Standard
 44
2.5
300

342
11
174
     5
178
     6
175
     1
176
     0
 93
-1056964608
 45
2.0
292
     0
297
     0
 46
4.0
 94
-1056964608
 47
1.0
 49
1.0
140
1.0
293
     1
141
0.0
294
     1
177
     0
142
1.0
295
     1
296
     0
143
0.125
271
     0
272
     9
273
     9
298
     0
  0
MLINESTYLE
  5
18
102
{ACAD_REACTORS
330
17
102
}
330
17
100
AcDbMlineStyle
  2
STANDARD
 70
     0
  3

 62
   256
 51
90.0
 52
90.0
 71
     2
 49
0.5
 62
   256
  6
BYLAYER
 49
-0.5
 62
   256
  6
BYLAYER
  0
ACDBPLACEHOLDER
  5
F
102
{ACAD_REACTORS
330
E
102
}
330
E
  0
SCALE
  5
36F3
102
{ACAD_REACTORS
330
36F2
102
}
330
36F2
100
AcDbScale
 70
     0
300
1:1
140
1.0
141
1.0
290
     1
  0
SCALE
  5
36F4
102
{ACAD_REACTORS
330
36F2
102
}
330
36F2
100
AcDbScale
 70
     0
300
1:2
140
1.0
141
2.0
290
     0
  0
SCALE
  5
36F5
102
{ACAD_REACTORS
330
36F2
102
}
330
36F2
100
AcDbScale
 70
     0
300
1:4
140
1.0
141
4.0
290
     0
  0
SCALE
  5
36F6
102
{ACAD_REACTORS
330
36F2
102
}
330
36F2
100
AcDbScale
 70
     0
300
1:5
140
1.0
141
5.0
290
     0
  0
SCALE
  5
36F7
102
{ACAD_REACTORS
330
36F2
102
}
330
36F2
100
AcDbScale
 70
     0
300
1:8
140
1.0
141
8.0
290
     0
  0
SCALE
  5
36F8
102
{ACAD_REACTORS
330
36F2
102
}
330
36F2
100
AcDbScale
 70
     0
300
1:10
140
1.0
141
10.0
290
     0
  0
SCALE
  5
36F9
102
{ACAD_REACTORS
330
36F2
102
}
330
36F2
100
AcDbScale
 70
     0
300
1:16
140
1.0
141
16.0
290
     0
  0
SCALE
  5
36FA
102
{ACAD_REACTORS
330
36F2
102
}
330
36F2
100
AcDbScale
 70
     0
300
1:20
140
1.0
141
20.0
290
     0
  0
SCALE
  5
36FB
102
{ACAD_REACTORS
330
36F2
102
}
330
36F2
100
AcDbScale
 70
     0
300
1:30
140
1.0
141
30.0
290
     0
  0
SCALE
  5
36FC
102
{ACAD_REACTORS
330
36F2
102
}
330
36F2
100
AcDbScale
 70
     0
300
1:40
140
1.0
141
40.0
290
     0
  0
SCALE
  5
36FD
102
{ACAD_REACTORS
330
36F2
102
}
330
36F2
100
AcDbScale
 70
     0
300
1:50
140
1.0
141
50.0
290
     0
  0
SCALE
  5
36FE
102
{ACAD_REACTORS
330
36F2
102
}
330
36F2
100
AcDbScale
 70
     0
300
1:100
140
1.0
141
100.0
290
     0
  0
SCALE
  5
36FF
102
{ACAD_REACTORS
330
36F2
102
}
330
36F2
100
AcDbScale
 70
     0
300
2:1
140
2.0
141
1.0
290
     0
  0
SCALE
  5
3700
102
{ACAD_REACTORS
330
36F2
102
}
330
36F2
100
AcDbScale
 70
     0
300
4:1
140
4.0
141
1.0
290
     0
  0
SCALE
  5
3701
102
{ACAD_REACTORS
330
36F2
102
}
330
36F2
100
AcDbScale
 70
     0
300
8:1
140
8.0
141
1.0
290
     0
  0
SCALE
  5
3702
102
{ACAD_REACTORS
330
36F2
102
}
330
36F2
100
AcDbScale
 70
     0
300
10:1
140
10.0
141
1.0
290
     0
  0
SCALE
  5
3703
102
{ACAD_REACTORS
330
36F2
102
}
330
36F2
100
AcDbScale
 70
     0
300
100:1
140
100.0
141
1.0
290
     0
  0
ACDBSECTIONVIEWSTYLE
  5
3707
102
{ACAD_REACTORS
330
3706
102
}
330
3706
100
AcDbModelDocViewStyle
 70
     0
  3
Metric50
290
     0
100
AcDbSectionViewStyle
 70
     0
 71
     0
 90
      102
 71
     1
340
11
 62
   256
 40
5.0
340
0
340
0
 62
   256
 40
5.0
300
I, O, Q, S, X, Z
 40
10.0
 90
        0
 40
2.5
 90
        0
 71
     2
340
16
 90
       25
 62
   256
340
16
 90
       50
 62
   256
 40
5.0
 40
2.5
 40
5.0
 71
     3
340
11
 62
   256
 40
5.0
 90
        0
 40
15.0
 90
        1
300
%<\AcVar ViewSectionStartId>%-%<\AcVar ViewSectionEndId>% (%<\AcVar ViewScale \f "%sn">%)
 71
     4
 62
   256
 62
   257
300
ANSI31
 40
1.0
 90
        0
290
     0
290
     0
 90
        6
 40
0.0
 40
1.570796326794896
 40
0.2617993877991494
 40
1.308996938995747
 40
-0.2617993877991494
 40
1.832595714594046
  0
TABLESTYLE
  5
36F1
102
{ACAD_XDICTIONARY
360
3BA6
102
}
102
{ACAD_REACTORS
330
36F0
102
}
330
36F0
100
AcDbTableStyle
280
     0
  3
Standard
 70
     0
 71
     0
 40
1.5
 41
1.5
280
     0
281
     0
  7
Standard
140
4.5
170
     2
 62
     0
 63
     7
283
     0
 90
      512
 91
        0
  1

274
    -2
284
     1
 64
     0
275
    -2
285
     1
 65
     0
276
    -2
286
     1
 66
     0
277
    -2
287
     1
 67
     0
278
    -2
288
     1
 68
     0
279
    -2
289
     1
 69
     0
  7
Standard
140
6.0
170
     5
 62
     0
 63
     7
283
     0
 90
      512
 91
        0
  1

274
    -2
284
     1
 64
     0
275
    -2
285
     1
 65
     0
276
    -2
286
     1
 66
     0
277
    -2
287
     1
 67
     0
278
    -2
288
     1
 68
     0
279
    -2
289
     1
 69
     0
  7
Standard
140
4.5
170
     5
 62
     0
 63
     7
283
     0
 90
      512
 91
        0
  1

274
    -2
284
     1
 64
     0
275
    -2
285
     1
 65
     0
276
    -2
286
     1
 66
     0
277
    -2
287
     1
 67
     0
278
    -2
288
     1
 68
     0
279
    -2
289
     1
 69
     0
  0
VISUALSTYLE
  5
36DC
102
{ACAD_REACTORS
330
36D6
102
}
330
36D6
100
AcDbVisualStyle
  2
2dWireframe
 70
     4
177
     3
291
     0
 70
    58
 90
        0
176
     1
 90
        2
176
     1
 90
        0
176
     1
 90
        0
176
     1
 40
0.6
176
     1
 40
30.0
176
     1
 62
     7
420
 16777215
176
     1
 90
        1
176
     1
 90
        4
176
     1
 62
     7
176
     1
 62
   257
176
     1
 90
        1
176
     1
 90
        1
176
     1
 40
1.0
176
     1
 90
        0
176
     1
 62
   257
176
     1
 40
1.0
176
     1
 90
        1
176
     1
 90
        6
176
     1
 90
        2
176
     1
 62
     7
176
     1
 90
        5
176
     1
 90
        0
176
     1
 90
        0
176
     1
290
     0
176
     1
 90
        1
176
     1
 40
0.0
176
     1
 90
        0
176
     1
290
     1
176
     1
290
     1
176
     1
290
     0
176
     1
290
     0
176
     1
290
     0
176
     1
290
     0
176
     1
290
     0
176
     1
290
     0
176
     1
290
     0
176
     1
 90
       50
176
     1
 40
0.0
176
     1
 40
1.0
176
     1
 90
        0
176
     1
 62
    18
420
        0
176
     1
 90
       50
176
     1
 90
        3
176
     1
 62
     5
420
      255
176
     1
290
     0
176
     1
 90
       50
176
     1
 90
       50
176
     1
 90
       50
176
     1
290
     0
176
     1
 90
       50
176
     1
 62
   256
176
     0
 40
1.0
176
     0
 90
        2
176
     1
  1
strokes_ogs.tif
176
     1
290
     0
176
     1
 40
1.0
176
     1
 40
1.0
176
     1
  0
VISUALSTYLE
  5
36DB
102
{ACAD_REACTORS
330
36D6
102
}
330
36D6
100
AcDbVisualStyle
  2
Basic
 70
     7
177
     3
291
     1
 70
    58
 90
        1
176
     1
 90
        0
176
     1
 90
        1
176
     1
 90
        0
176
     1
 40
0.6
176
     1
 40
30.0
176
     1
 62
     7
420
 16777215
176
     1
 90
        0
176
     1
 90
        4
176
     1
 62
     7
176
     1
 62
   257
176
     1
 90
        1
176
     1
 90
        1
176
     1
 40
1.0
176
     1
 90
        8
176
     1
 62
     7
176
     1
 40
1.0
176
     1
 90
        1
176
     1
 90
        6
176
     1
 90
        2
176
     1
 62
     7
176
     1
 90
        5
176
     1
 90
        0
176
     1
 90
        0
176
     1
290
     0
176
     1
 90
        1
176
     1
 40
0.0
176
     1
 90
        0
176
     1
290
     0
176
     1
290
     1
176
     1
290
     1
176
     1
290
     0
176
     1
290
     0
176
     1
290
     0
176
     1
290
     0
176
     1
290
     0
176
     1
290
     0
176
     1
 90
       50
176
     1
 40
0.0
176
     1
 40
1.0
176
     1
 90
        0
176
     1
 62
    18
420
        0
176
     1
 90
       50
176
     1
 90
        3
176
     1
 62
     5
420
      255
176
     1
290
     0
176
     1
 90
       50
176
     1
 90
       50
176
     1
 90
       50
176
     1
290
     0
176
     1
 90
       50
176
     1
 62
   256
176
     0
 40
1.0
176
     0
 90
        2
176
     1
  1
strokes_ogs.tif
176
     1
290
     0
176
     1
 40
1.0
176
     1
 40
1.0
176
     1
  0
VISUALSTYLE
  5
36E2
102
{ACAD_REACTORS
330
36D6
102
}
330
36D6
100
AcDbVisualStyle
  2
Brighten
 70
    12
177
     3
291
     1
 70
    58
 90
        2
176
     1
 90
        2
176
     1
 90
        0
176
     1
 90
        0
176
     1
 40
0.6
176
     1
 40
30.0
176
     1
 62
     7
420
 16777215
176
     1
 90
        1
176
     1
 90
        4
176
     1
 62
     7
176
     1
 62
   257
176
     1
 90
        1
176
     1
 90
        1
176
     1
 40
1.0
176
     1
 90
        8
176
     1
 62
     7
176
     1
 40
1.0
176
     1
 90
        1
176
     1
 90
        6
176
     1
 90
        2
176
     1
 62
     7
176
     1
 90
        5
176
     1
 90
        0
176
     1
 90
        0
176
     1
290
     0
176
     1
 90
        1
176
     1
 40
50.0
176
     1
 90
        0
176
     1
290
     0
176
     1
290
     1
176
     1
290
     1
176
     1
290
     0
176
     1
290
     0
176
     1
290
     0
176
     1
290
     0
176
     1
290
     0
176
     1
290
     0
176
     1
 90
       50
176
     1
 40
0.0
176
     1
 40
1.0
176
     1
 90
        0
176
     1
 62
    18
420
        0
176
     1
 90
       50
176
     1
 90
        3
176
     1
 62
     5
420
      255
176
     1
290
     0
176
     1
 90
       50
176
     1
 90
       50
176
     1
 90
       50
176
     1
290
     0
176
     1
 90
       50
176
     1
 62
   256
176
     0
 40
1.0
176
     0
 90
        2
176
     1
  1
strokes_ogs.tif
176
     1
290
     0
176
     1
 40
1.0
176
     1
 40
1.0
176
     1
  0
VISUALSTYLE
  5
36E6
102
{ACAD_REACTORS
330
36D6
102
}
330
36D6
100
AcDbVisualStyle
  2
ColorChange
 70
    16
177
     3
291
     1
 70
    58
 90
        2
176
     1
 90
        2
176
     1
 90
        3
176
     1
 90
        0
176
     1
 40
0.6
176
     1
 40
30.0
176
     1
 62
     8
420
  8421504
176
     1
 90
        1
176
     1
 90
        4
176
     1
 62
     7
176
     1
 62
   257
176
     1
 90
        1
176
     1
 90
        1
176
     1
 40
1.0
176
     1
 90
        8
176
     1
 62
     8
420
  8421504
176
     1
 40
1.0
176
     1
 90
        1
176
     1
 90
        6
176
     1
 90
        2
176
     1
 62
     7
176
     1
 90
        5
176
     1
 90
        0
176
     1
 90
        0
176
     1
290
     0
176
     1
 90
        1
176
     1
 40
0.0
176
     1
 90
        0
176
     1
290
     0
176
     1
290
     1
176
     1
290
     1
176
     1
290
     0
176
     1
290
     0
176
     1
290
     0
176
     1
290
     0
176
     1
290
     0
176
     1
290
     0
176
     1
 90
       50
176
     1
 40
0.0
176
     1
 40
1.0
176
     1
 90
        0
176
     1
 62
    18
420
        0
176
     1
 90
       50
176
     1
 90
        3
176
     1
 62
     5
420
      255
176
     1
290
     0
176
     1
 90
       50
176
     1
 90
       50
176
     1
 90
       50
176
     1
290
     0
176
     1
 90
       50
176
     1
 62
   256
176
     0
 40
1.0
176
     0
 90
        2
176
     1
  1
strokes_ogs.tif
176
     1
290
     0
176
     1
 40
1.0
176
     1
 40
1.0
176
     1
  0
VISUALSTYLE
  5
36DF
102
{ACAD_REACTORS
330
36D6
102
}
330
36D6
100
AcDbVisualStyle
  2
Conceptual
 70
     9
177
     3
291
     0
 70
    58
 90
        3
176
     1
 90
        2
176
     1
 90
        0
176
     1
 90
        0
176
     1
 40
0.6
176
     1
 40
30.0
176
     1
 62
     7
420
 16777215
176
     1
 90
        2
176
     1
 90
        2
176
     1
 62
     7
176
     1
 62
   257
176
     1
 90
        1
176
     1
 90
        1
176
     1
 40
179.0
176
     1
 90
        8
176
     1
 62
     7
176
     1
 40
1.0
176
     1
 90
        1
176
     1
 90
        6
176
     1
 90
        2
176
     1
 62
     7
176
     1
 90
        3
176
     1
 90
        0
176
     1
 90
        0
176
     1
290
     0
176
     1
 90
        1
176
     1
 40
0.0
176
     1
 90
        0
176
     1
290
     0
176
     1
290
     1
176
     1
290
     1
176
     1
290
     0
176
     1
290
     0
176
     1
290
     0
176
     1
290
     0
176
     1
290
     0
176
     1
290
     0
176
     1
 90
       50
176
     1
 40
0.0
176
     1
 40
1.0
176
     1
 90
        0
176
     1
 62
    18
420
        0
176
     1
 90
       50
176
     1
 90
        3
176
     1
 62
     5
420
      255
176
     1
290
     0
176
     1
 90
       50
176
     1
 90
       50
176
     1
 90
       50
176
     1
290
     0
176
     1
 90
       50
176
     1
 62
   256
176
     0
 40
1.0
176
     0
 90
        2
176
     1
  1
strokes_ogs.tif
176
     1
290
     0
176
     1
 40
1.0
176
     1
 40
1.0
176
     1
  0
VISUALSTYLE
  5
36E1
102
{ACAD_REACTORS
330
36D6
102
}
330
36D6
100
AcDbVisualStyle
  2
Dim
 70
    11
177
     3
291
     1
 70
    58
 90
        2
176
     1
 90
        2
176
     1
 90
        0
176
     1
 90
        0
176
     1
 40
0.6
176
     1
 40
30.0
176
     1
 62
     7
420
 16777215
176
     1
 90
        1
176
     1
 90
        4
176
     1
 62
     7
176
     1
 62
   257
176
     1
 90
        1
176
     1
 90
        1
176
     1
 40
1.0
176
     1
 90
        8
176
     1
 62
     7
176
     1
 40
1.0
176
     1
 90
        1
176
     1
 90
        6
176
     1
 90
        2
176
     1
 62
     7
176
     1
 90
        5
176
     1
 90
        0
176
     1
 90
        0
176
     1
290
     0
176
     1
 90
        1
176
     1
 40
-50.0
176
     1
 90
        0
176
     1
290
     0
176
     1
290
     1
176
     1
290
     1
176
     1
290
     0
176
     1
290
     0
176
     1
290
     0
176
     1
290
     0
176
     1
290
     0
176
     1
290
     0
176
     1
 90
       50
176
     1
 40
0.0
176
     1
 40
1.0
176
     1
 90
        0
176
     1
 62
    18
420
        0
176
     1
 90
       50
176
     1
 90
        3
176
     1
 62
     5
420
      255
176
     1
290
     0
176
     1
 90
       50
176
     1
 90
       50
176
     1
 90
       50
176
     1
290
     0
176
     1
 90
       50
176
     1
 62
   256
176
     0
 40
1.0
176
     0
 90
        2
176
     1
  1
strokes_ogs.tif
176
     1
290
     0
176
     1
 40
1.0
176
     1
 40
1.0
176
     1
  0
VISUALSTYLE
  5
36EE
102
{ACAD_REACTORS
330
36D6
102
}
330
36D6
100
AcDbVisualStyle
  2
EdgeColorOff
 70
    22
177
     3
291
     1
 70
    58
 90
        2
176
     0
 90
        2
176
     0
 90
        0
176
     0
 90
        0
176
     0
 40
0.6
176
     0
 40
30.0
176
     0
 62
     7
420
 16777215
176
     0
 90
        1
176
     0
 90
        4
176
     0
 62
     7
176
     0
 62
   257
176
     0
 90
        1
176
     0
 90
        1
176
     0
 40
1.0
176
     0
 90
        8
176
     2
 62
     7
176
     0
 40
1.0
176
     0
 90
        1
176
     0
 90
        6
176
     0
 90
        2
176
     0
 62
     7
176
     0
 90
        5
176
     0
 90
        0
176
     0
 90
        0
176
     0
290
     0
176
     0
 90
        1
176
     0
 40
0.0
176
     0
 90
        0
176
     0
290
     0
176
     1
290
     1
176
     1
290
     1
176
     1
290
     0
176
     1
290
     0
176
     1
290
     0
176
     1
290
     0
176
     1
290
     0
176
     1
290
     0
176
     1
 90
       50
176
     0
 40
0.0
176
     0
 40
1.0
176
     0
 90
        0
176
     0
 62
    18
420
        0
176
     0
 90
       50
176
     0
 90
        3
176
     0
 62
     5
420
      255
176
     0
290
     0
176
     1
 90
       50
176
     0
 90
       50
176
     0
 90
       50
176
     0
290
     0
176
     1
 90
       50
176
     0
 62
   256
176
     0
 40
1.0
176
     0
 90
        2
176
     0
  1
strokes_ogs.tif
176
     0
290
     0
176
     1
 40
1.0
176
     0
 40
1.0
176
     0
  0
VISUALSTYLE
  5
36E5
102
{ACAD_REACTORS
330
36D6
102
}
330
36D6
100
AcDbVisualStyle
  2
Facepattern
 70
    15
177
     3
291
     1
 70
    58
 90
        2
176
     1
 90
        2
176
     1
 90
        0
176
     1
 90
        0
176
     1
 40
0.6
176
     1
 40
30.0
176
     1
 62
     7
420
 16777215
176
     1
 90
        1
176
     1
 90
        4
176
     1
 62
     7
176
     1
 62
   257
176
     1
 90
        1
176
     1
 90
        1
176
     1
 40
1.0
176
     1
 90
        8
176
     1
 62
     7
176
     1
 40
1.0
176
     1
 90
        1
176
     1
 90
        6
176
     1
 90
        2
176
     1
 62
     7
176
     1
 90
        5
176
     1
 90
        0
176
     1
 90
        0
176
     1
290
     0
176
     1
 90
        1
176
     1
 40
0.0
176
     1
 90
        0
176
     1
290
     0
176
     1
290
     1
176
     1
290
     1
176
     1
290
     0
176
     1
290
     0
176
     1
290
     0
176
     1
290
     0
176
     1
290
     0
176
     1
290
     0
176
     1
 90
       50
176
     1
 40
0.0
176
     1
 40
1.0
176
     1
 90
        0
176
     1
 62
    18
420
        0
176
     1
 90
       50
176
     1
 90
        3
176
     1
 62
     5
420
      255
176
     1
290
     0
176
     1
 90
       50
176
     1
 90
       50
176
     1
 90
       50
176
     1
290
     0
176
     1
 90
       50
176
     1
 62
   256
176
     0
 40
1.0
176
     0
 90
        2
176
     1
  1
strokes_ogs.tif
176
     1
290
     0
176
     1
 40
1.0
176
     1
 40
1.0
176
     1
  0
VISUALSTYLE
  5
36D7
102
{ACAD_REACTORS
330
36D6
102
}
330
36D6
100
AcDbVisualStyle
  2
Flat
 70
     0
177
     3
291
     1
 70
    58
 90
        2
176
     1
 90
        1
176
     1
 90
        1
176
     1
 90
        2
176
     1
 40
0.6
176
     1
 40
30.0
176
     1
 62
     7
420
 16777215
176
     1
 90
        0
176
     1
 90
        0
176
     1
 62
     7
176
     1
 62
   257
176
     1
 90
        1
176
     1
 90
        1
176
     1
 40
1.0
176
     1
 90
        8
176
     1
 62
     7
176
     1
 40
1.0
176
     1
 90
        1
176
     1
 90
        6
176
     1
 90
        2
176
     1
 62
     7
176
     1
 90
        5
176
     1
 90
        0
176
     1
 90
        0
176
     1
290
     0
176
     1
 90
       13
176
     1
 40
0.0
176
     1
 90
        0
176
     1
290
     0
176
     1
290
     1
176
     1
290
     1
176
     1
290
     0
176
     1
290
     0
176
     1
290
     0
176
     1
290
     0
176
     1
290
     0
176
     1
290
     0
176
     1
 90
       50
176
     1
 40
0.0
176
     1
 40
1.0
176
     1
 90
        0
176
     1
 62
    18
420
        0
176
     1
 90
       50
176
     1
 90
        3
176
     1
 62
     5
420
      255
176
     1
290
     0
176
     1
 90
       50
176
     1
 90
       50
176
     1
 90
       50
176
     1
290
     0
176
     1
 90
       50
176
     1
 62
   256
176
     0
 40
1.0
176
     0
 90
        2
176
     1
  1
strokes_ogs.tif
176
     1
290
     0
176
     1
 40
1.0
176
     1
 40
1.0
176
     1
  0
VISUALSTYLE
  5
36D8
102
{ACAD_REACTORS
330
36D6
102
}
330
36D6
100
AcDbVisualStyle
  2
FlatWithEdges
 70
     1
177
     3
291
     1
 70
    58
 90
        2
176
     1
 90
        1
176
     1
 90
        1
176
     1
 90
        2
176
     1
 40
0.6
176
     1
 40
30.0
176
     1
 62
     7
420
 16777215
176
     1
 90
        1
176
     1
 90
        0
176
     1
 62
     7
176
     1
 62
   257
176
     1
 90
        1
176
     1
 90
        1
176
     1
 40
1.0
176
     1
 90
        0
176
     1
 62
   257
176
     1
 40
1.0
176
     1
 90
        1
176
     1
 90
        6
176
     1
 90
        2
176
     1
 62
     7
176
     1
 90
        5
176
     1
 90
        0
176
     1
 90
        0
176
     1
290
     0
176
     1
 90
       13
176
     1
 40
0.0
176
     1
 90
        0
176
     1
290
     0
176
     1
290
     1
176
     1
290
     1
176
     1
290
     0
176
     1
290
     0
176
     1
290
     0
176
     1
290
     0
176
     1
290
     0
176
     1
290
     0
176
     1
 90
       50
176
     1
 40
0.0
176
     1
 40
1.0
176
     1
 90
        0
176
     1
 62
    18
420
        0
176
     1
 90
       50
176
     1
 90
        3
176
     1
 62
     5
420
      255
176
     1
290
     0
176
     1
 90
       50
176
     1
 90
       50
176
     1
 90
       50
176
     1
290
     0
176
     1
 90
       50
176
     1
 62
   256
176
     0
 40
1.0
176
     0
 90
        2
176
     1
  1
strokes_ogs.tif
176
     1
290
     0
176
     1
 40
1.0
176
     1
 40
1.0
176
     1
  0
VISUALSTYLE
  5
36D9
102
{ACAD_REACTORS
330
36D6
102
}
330
36D6
100
AcDbVisualStyle
  2
Gouraud
 70
     2
177
     3
291
     1
 70
    58
 90
        2
176
     1
 90
        2
176
     1
 90
        1
176
     1
 90
        2
176
     1
 40
0.6
176
     1
 40
30.0
176
     1
 62
     7
420
 16777215
176
     1
 90
        0
176
     1
 90
        0
176
     1
 62
     7
176
     1
 62
   257
176
     1
 90
        1
176
     1
 90
        1
176
     1
 40
1.0
176
     1
 90
        0
176
     1
 62
     7
176
     1
 40
1.0
176
     1
 90
        1
176
     1
 90
        6
176
     1
 90
        2
176
     1
 62
     7
176
     1
 90
        5
176
     1
 90
        0
176
     1
 90
        0
176
     1
290
     0
176
     1
 90
       13
176
     1
 40
0.0
176
     1
 90
        0
176
     1
290
     0
176
     1
290
     1
176
     1
290
     1
176
     1
290
     0
176
     1
290
     0
176
     1
290
     0
176
     1
290
     0
176
     1
290
     0
176
     1
290
     0
176
     1
 90
       50
176
     1
 40
0.0
176
     1
 40
1.0
176
     1
 90
        0
176
     1
 62
    18
420
        0
176
     1
 90
       50
176
     1
 90
        3
176
     1
 62
     5
420
      255
176
     1
290
     0
176
     1
 90
       50
176
     1
 90
       50
176
     1
 90
       50
176
     1
290
     0
176
     1
 90
       50
176
     1
 62
   256
176
     0
 40
1.0
176
     0
 90
        2
176
     1
  1
strokes_ogs.tif
176
     1
290
     0
176
     1
 40
1.0
176
     1
 40
1.0
176
     1
  0
VISUALSTYLE
  5
36DA
102
{ACAD_REACTORS
330
36D6
102
}
330
36D6
100
AcDbVisualStyle
  2
GouraudWithEdges
 70
     3
177
     3
291
     1
 70
    58
 90
        2
176
     1
 90
        2
176
     1
 90
        1
176
     1
 90
        2
176
     1
 40
0.6
176
     1
 40
30.0
176
     1
 62
     7
420
 16777215
176
     1
 90
        1
176
     1
 90
        0
176
     1
 62
     7
176
     1
 62
   257
176
     1
 90
        1
176
     1
 90
        1
176
     1
 40
1.0
176
     1
 90
        0
176
     1
 62
   257
176
     1
 40
1.0
176
     1
 90
        1
176
     1
 90
        6
176
     1
 90
        2
176
     1
 62
     7
176
     1
 90
        5
176
     1
 90
        0
176
     1
 90
        0
176
     1
290
     0
176
     1
 90
       13
176
     1
 40
0.0
176
     1
 90
        0
176
     1
290
     0
176
     1
290
     1
176
     1
290
     1
176
     1
290
     0
176
     1
290
     0
176
     1
290
     0
176
     1
290
     0
176
     1
290
     0
176
     1
290
     0
176
     1
 90
       50
176
     1
 40
0.0
176
     1
 40
1.0
176
     1
 90
        0
176
     1
 62
    18
420
        0
176
     1
 90
       50
176
     1
 90
        3
176
     1
 62
     5
420
      255
176
     1
290
     0
176
     1
 90
       50
176
     1
 90
       50
176
     1
 90
       50
176
     1
290
     0
176
     1
 90
       50
176
     1
 62
   256
176
     0
 40
1.0
176
     0
 90
        2
176
     1
  1
strokes_ogs.tif
176
     1
290
     0
176
     1
 40
1.0
176
     1
 40
1.0
176
     1
  0
VISUALSTYLE
  5
36DE
102
{ACAD_REACTORS
330
36D6
102
}
330
36D6
100
AcDbVisualStyle
  2
Hidden
 70
     6
177
     3
291
     0
 70
    58
 90
        1
176
     1
 90
        2
176
     1
 90
        2
176
     1
 90
        0
176
     1
 40
0.6
176
     1
 40
30.0
176
     1
 62
     7
420
 16777215
176
     1
 90
        2
176
     1
 90
        2
176
     1
 62
     7
176
     1
 62
   257
176
     1
 90
        2
176
     1
 90
        1
176
     1
 40
40.0
176
     1
 90
        0
176
     1
 62
   257
176
     1
 40
1.0
176
     1
 90
        1
176
     1
 90
        6
176
     1
 90
        2
176
     1
 62
     7
176
     1
 90
        3
176
     1
 90
        0
176
     1
 90
        0
176
     1
290
     0
176
     1
 90
        1
176
     1
 40
0.0
176
     1
 90
        0
176
     1
290
     0
176
     1
290
     1
176
     1
290
     1
176
     1
290
     0
176
     1
290
     0
176
     1
290
     0
176
     1
290
     0
176
     1
290
     0
176
     1
290
     0
176
     1
 90
       50
176
     1
 40
0.0
176
     1
 40
1.0
176
     1
 90
        0
176
     1
 62
    18
420
        0
176
     1
 90
       50
176
     1
 90
        3
176
     1
 62
     5
420
      255
176
     1
290
     0
176
     1
 90
       50
176
     1
 90
       50
176
     1
 90
       50
176
     1
290
     0
176
     1
 90
       50
176
     1
 62
   256
176
     0
 40
1.0
176
     0
 90
        2
176
     1
  1
strokes_ogs.tif
176
     1
290
     0
176
     1
 40
1.0
176
     1
 40
1.0
176
     1
  0
VISUALSTYLE
  5
36EC
102
{ACAD_REACTORS
330
36D6
102
}
330
36D6
100
AcDbVisualStyle
  2
JitterOff
 70
    20
177
     3
291
     1
 70
    58
 90
        2
176
     0
 90
        2
176
     0
 90
        0
176
     0
 90
        0
176
     0
 40
0.6
176
     0
 40
30.0
176
     0
 62
     7
420
 16777215
176
     0
 90
        1
176
     0
 90
        4
176
     0
 62
     7
176
     0
 62
   257
176
     0
 90
        1
176
     0
 90
        1
176
     0
 40
1.0
176
     0
 90
       10
176
     2
 62
     7
176
     0
 40
1.0
176
     0
 90
        1
176
     0
 90
        6
176
     0
 90
        2
176
     0
 62
     7
176
     0
 90
        5
176
     0
 90
        0
176
     0
 90
        0
176
     0
290
     0
176
     0
 90
        1
176
     0
 40
0.0
176
     0
 90
        0
176
     0
290
     0
176
     1
290
     1
176
     1
290
     1
176
     1
290
     0
176
     1
290
     0
176
     1
290
     0
176
     1
290
     0
176
     1
290
     0
176
     1
290
     0
176
     1
 90
       50
176
     0
 40
0.0
176
     0
 40
1.0
176
     0
 90
        0
176
     0
 62
    18
420
        0
176
     0
 90
       50
176
     0
 90
        3
176
     0
 62
     5
420
      255
176
     0
290
     0
176
     1
 90
       50
176
     0
 90
       50
176
     0
 90
       50
176
     0
290
     0
176
     1
 90
       50
176
     0
 62
   256
176
     0
 40
1.0
176
     0
 90
        2
176
     0
  1
strokes_ogs.tif
176
     0
290
     0
176
     1
 40
1.0
176
     0
 40
1.0
176
     0
  0
VISUALSTYLE
  5
36E4
102
{ACAD_REACTORS
330
36D6
102
}
330
36D6
100
AcDbVisualStyle
  2
Linepattern
 70
    14
177
     3
291
     1
 70
    58
 90
        2
176
     1
 90
        2
176
     1
 90
        0
176
     1
 90
        0
176
     1
 40
0.6
176
     1
 40
30.0
176
     1
 62
     7
420
 16777215
176
     1
 90
        1
176
     1
 90
        4
176
     1
 62
     7
176
     1
 62
   257
176
     1
 90
        7
176
     1
 90
        7
176
     1
 40
1.0
176
     1
 90
        8
176
     1
 62
     7
176
     1
 40
1.0
176
     1
 90
        1
176
     1
 90
        6
176
     1
 90
        2
176
     1
 62
     7
176
     1
 90
        5
176
     1
 90
        0
176
     1
 90
        0
176
     1
290
     0
176
     1
 90
        1
176
     1
 40
0.0
176
     1
 90
        0
176
     1
290
     0
176
     1
290
     1
176
     1
290
     1
176
     1
290
     0
176
     1
290
     0
176
     1
290
     0
176
     1
290
     0
176
     1
290
     0
176
     1
290
     0
176
     1
 90
       50
176
     1
 40
0.0
176
     1
 40
1.0
176
     1
 90
        0
176
     1
 62
    18
420
        0
176
     1
 90
       50
176
     1
 90
        3
176
     1
 62
     5
420
      255
176
     1
290
     0
176
     1
 90
       50
176
     1
 90
       50
176
     1
 90
       50
176
     1
290
     0
176
     1
 90
       50
176
     1
 62
   256
176
     0
 40
1.0
176
     0
 90
        2
176
     1
  1
strokes_ogs.tif
176
     1
290
     0
176
     1
 40
1.0
176
     1
 40
1.0
176
     1
  0
VISUALSTYLE
  5
36ED
102
{ACAD_REACTORS
330
36D6
102
}
330
36D6
100
AcDbVisualStyle
  2
OverhangOff
 70
    21
177
     3
291
     1
 70
    58
 90
        2
176
     0
 90
        2
176
     0
 90
        0
176
     0
 90
        0
176
     0
 40
0.6
176
     0
 40
30.0
176
     0
 62
     7
420
 16777215
176
     0
 90
        1
176
     0
 90
        4
176
     0
 62
     7
176
     0
 62
   257
176
     0
 90
        1
176
     0
 90
        1
176
     0
 40
1.0
176
     0
 90
        9
176
     2
 62
     7
176
     0
 40
1.0
176
     0
 90
        1
176
     0
 90
        6
176
     0
 90
        2
176
     0
 62
     7
176
     0
 90
        5
176
     0
 90
        0
176
     0
 90
        0
176
     0
290
     0
176
     0
 90
        1
176
     0
 40
0.0
176
     0
 90
        0
176
     0
290
     0
176
     1
290
     1
176
     1
290
     1
176
     1
290
     0
176
     1
290
     0
176
     1
290
     0
176
     1
290
     0
176
     1
290
     0
176
     1
290
     0
176
     1
 90
       50
176
     0
 40
0.0
176
     0
 40
1.0
176
     0
 90
        0
176
     0
 62
    18
420
        0
176
     0
 90
       50
176
     0
 90
        3
176
     0
 62
     5
420
      255
176
     0
290
     0
176
     1
 90
       50
176
     0
 90
       50
176
     0
 90
       50
176
     0
290
     0
176
     1
 90
       50
176
     0
 62
   256
176
     0
 40
1.0
176
     0
 90
        2
176
     0
  1
strokes_ogs.tif
176
     0
290
     0
176
     1
 40
1.0
176
     0
 40
1.0
176
     0
  0
VISUALSTYLE
  5
36E0
102
{ACAD_REACTORS
330
36D6
102
}
330
36D6
100
AcDbVisualStyle
  2
Realistic
 70
     8
177
     3
291
     0
 70
    58
 90
        2
176
     1
 90
        3
176
     1
 90
        0
176
     1
 90
        2
176
     1
 40
0.6
176
     1
 40
30.0
176
     1
 62
     7
420
 16777215
176
     1
 90
        0
176
     1
 90
        0
176
     1
 62
     7
176
     1
 62
   257
176
     1
 90
        1
176
     1
 90
        1
176
     1
 40
1.0
176
     1
 90
        8
176
     1
 62
   257
176
     1
 40
1.0
176
     1
 90
        1
176
     1
 90
        6
176
     1
 90
        2
176
     1
 62
     7
176
     1
 90
        3
176
     1
 90
        0
176
     1
 90
        0
176
     1
290
     0
176
     1
 90
       13
176
     1
 40
0.0
176
     1
 90
        0
176
     1
290
     0
176
     1
290
     1
176
     1
290
     1
176
     1
290
     0
176
     1
290
     0
176
     1
290
     0
176
     1
290
     0
176
     1
290
     0
176
     1
290
     0
176
     1
 90
       50
176
     1
 40
0.0
176
     1
 40
1.0
176
     1
 90
        0
176
     1
 62
    18
420
        0
176
     1
 90
       50
176
     1
 90
        3
176
     1
 62
     5
420
      255
176
     1
290
     0
176
     1
 90
       50
176
     1
 90
       50
176
     1
 90
       50
176
     1
290
     0
176
     1
 90
       50
176
     1
 62
   256
176
     0
 40
1.0
176
     0
 90
        2
176
     1
  1
strokes_ogs.tif
176
     1
290
     0
176
     1
 40
1.0
176
     1
 40
1.0
176
     1
  0
VISUALSTYLE
  5
36EB
102
{ACAD_REACTORS
330
36D6
102
}
330
36D6
100
AcDbVisualStyle
  2
Shaded
 70
    27
177
     3
291
     0
 70
    58
 90
        2
176
     1
 90
        2
176
     1
 90
        1
176
     1
 90
        2
176
     1
 40
0.6
176
     1
 40
30.0
176
     1
 62
     7
420
 16777215
176
     1
 90
        0
176
     1
 90
        4
176
     1
 62
     7
176
     1
 62
   257
176
     1
 90
        1
176
     1
 90
        1
176
     1
 40
1.0
176
     1
 90
        8
176
     1
 62
   257
176
     1
 40
1.0
176
     1
 90
        1
176
     1
 90
        6
176
     1
 90
        2
176
     1
 62
     8
420
  7895160
176
     1
 90
        3
176
     1
 90
        0
176
     1
 90
        0
176
     1
290
     0
176
     1
 90
        5
176
     1
 40
0.0
176
     1
 90
        0
176
     1
290
     0
176
     1
290
     1
176
     1
290
     1
176
     1
290
     0
176
     1
290
     0
176
     1
290
     0
176
     1
290
     0
176
     1
290
     0
176
     1
290
     0
176
     1
 90
       50
176
     1
 40
0.0
176
     1
 40
1.0
176
     1
 90
        0
176
     1
 62
    18
420
        0
176
     1
 90
       50
176
     1
 90
        3
176
     1
 62
     5
420
      255
176
     1
290
     0
176
     1
 90
       50
176
     1
 90
       50
176
     1
 90
       50
176
     1
290
     0
176
     1
 90
       50
176
     1
 62
   256
176
     0
 40
1.0
176
     0
 90
        2
176
     1
  1
strokes_ogs.tif
176
     1
290
     0
176
     1
 40
1.0
176
     1
 40
1.0
176
     1
  0
VISUALSTYLE
  5
36EA
102
{ACAD_REACTORS
330
36D6
102
}
330
36D6
100
AcDbVisualStyle
  2
Shaded with edges
 70
    26
177
     3
291
     0
 70
    58
 90
        2
176
     1
 90
        2
176
     1
 90
        1
176
     1
 90
        2
176
     1
 40
0.6
176
     1
 40
30.0
176
     1
 62
     7
420
 16777215
176
     1
 90
        1
176
     1
 90
       10
176
     1
 62
     7
176
     1
 62
   257
176
     1
 90
        2
176
     1
 90
        1
176
     1
 40
1.0
176
     1
 90
        8
176
     1
 62
   257
176
     1
 40
1.0
176
     1
 90
        1
176
     1
 90
        6
176
     1
 90
        2
176
     1
 62
     7
176
     1
 90
        3
176
     1
 90
        0
176
     1
 90
        0
176
     1
290
     0
176
     1
 90
        5
176
     1
 40
0.0
176
     1
 90
        0
176
     1
290
     0
176
     1
290
     1
176
     1
290
     1
176
     1
290
     0
176
     1
290
     0
176
     1
290
     0
176
     1
290
     0
176
     1
290
     0
176
     1
290
     0
176
     1
 90
       50
176
     1
 40
0.0
176
     1
 40
1.0
176
     1
 90
        0
176
     1
 62
    18
420
        0
176
     1
 90
       50
176
     1
 90
        3
176
     1
 62
     5
420
      255
176
     1
290
     0
176
     1
 90
       50
176
     1
 90
       50
176
     1
 90
       50
176
     1
290
     0
176
     1
 90
       50
176
     1
 62
   256
176
     0
 40
1.0
176
     0
 90
        2
176
     1
  1
strokes_ogs.tif
176
     1
290
     0
176
     1
 40
1.0
176
     1
 40
1.0
176
     1
  0
VISUALSTYLE
  5
36E7
102
{ACAD_REACTORS
330
36D6
102
}
330
36D6
100
AcDbVisualStyle
  2
Shades of Gray
 70
    23
177
     3
291
     0
 70
    58
 90
        2
176
     1
 90
        2
176
     1
 90
        3
176
     1
 90
        0
176
     1
 40
0.6
176
     1
 40
30.0
176
     1
 62
     7
420
 16777215
176
     1
 90
        2
176
     1
 90
        2
176
     1
 62
     7
176
     1
 62
     7
176
     1
 90
        1
176
     1
 90
        1
176
     1
 40
40.0
176
     1
 90
        8
176
     1
 62
     7
176
     1
 40
1.0
176
     1
 90
        1
176
     1
 90
        6
176
     1
 90
        2
176
     1
 62
     7
176
     1
 90
        3
176
     1
 90
        0
176
     1
 90
        0
176
     1
290
     0
176
     1
 90
        1
176
     1
 40
0.0
176
     1
 90
        0
176
     1
290
     0
176
     1
290
     1
176
     1
290
     1
176
     1
290
     0
176
     1
290
     0
176
     1
290
     0
176
     1
290
     0
176
     1
290
     0
176
     1
290
     0
176
     1
 90
       50
176
     1
 40
0.0
176
     1
 40
1.0
176
     1
 90
        0
176
     1
 62
    18
420
        0
176
     1
 90
       50
176
     1
 90
        3
176
     1
 62
     5
420
      255
176
     1
290
     0
176
     1
 90
       50
176
     1
 90
       50
176
     1
 90
       50
176
     1
290
     0
176
     1
 90
       50
176
     1
 62
   256
176
     0
 40
1.0
176
     0
 90
        2
176
     1
  1
strokes_ogs.tif
176
     1
290
     0
176
     1
 40
1.0
176
     1
 40
1.0
176
     1
  0
VISUALSTYLE
  5
36E8
102
{ACAD_REACTORS
330
36D6
102
}
330
36D6
100
AcDbVisualStyle
  2
Sketchy
 70
    24
177
     3
291
     0
 70
    58
 90
        1
176
     1
 90
        2
176
     1
 90
        2
176
     1
 90
        0
176
     1
 40
0.6
176
     1
 40
30.0
176
     1
 62
     7
420
 16777215
176
     1
 90
        2
176
     1
 90
        2
176
     1
 62
     7
176
     1
 62
     7
176
     1
 90
        1
176
     1
 90
        1
176
     1
 40
40.0
176
     1
 90
       11
176
     1
 62
     7
176
     1
 40
1.0
176
     1
 90
        1
176
     1
 90
        6
176
     1
 90
        2
176
     1
 62
     7
176
     1
 90
        6
176
     1
 90
        0
176
     1
 90
        0
176
     1
290
     0
176
     1
 90
        1
176
     1
 40
0.0
176
     1
 90
        0
176
     1
290
     0
176
     1
290
     1
176
     1
290
     1
176
     1
290
     0
176
     1
290
     0
176
     1
290
     0
176
     1
290
     0
176
     1
290
     0
176
     1
290
     0
176
     1
 90
       50
176
     1
 40
0.0
176
     1
 40
1.0
176
     1
 90
        0
176
     1
 62
    18
420
        0
176
     1
 90
       50
176
     1
 90
        3
176
     1
 62
     5
420
      255
176
     1
290
     0
176
     1
 90
       50
176
     1
 90
       50
176
     1
 90
       50
176
     1
290
     0
176
     1
 90
       50
176
     1
 62
   256
176
     0
 40
1.0
176
     0
 90
        2
176
     1
  1
strokes_ogs.tif
176
     1
290
     0
176
     1
 40
1.0
176
     1
 40
1.0
176
     1
  0
VISUALSTYLE
  5
36E3
102
{ACAD_REACTORS
330
36D6
102
}
330
36D6
100
AcDbVisualStyle
  2
Thicken
 70
    13
177
     3
291
     1
 70
    58
 90
        2
176
     1
 90
        2
176
     1
 90
        0
176
     1
 90
        0
176
     1
 40
0.6
176
     1
 40
30.0
176
     1
 62
     7
420
 16777215
176
     1
 90
        1
176
     1
 90
        4
176
     1
 62
     7
176
     1
 62
   257
176
     1
 90
        1
176
     1
 90
        1
176
     1
 40
1.0
176
     1
 90
       12
176
     1
 62
     7
176
     1
 40
1.0
176
     1
 90
        1
176
     1
 90
        6
176
     1
 90
        2
176
     1
 62
     7
176
     1
 90
        5
176
     1
 90
        0
176
     1
 90
        0
176
     1
290
     0
176
     1
 90
        1
176
     1
 40
0.0
176
     1
 90
        0
176
     1
290
     0
176
     1
290
     1
176
     1
290
     1
176
     1
290
     0
176
     1
290
     0
176
     1
290
     0
176
     1
290
     0
176
     1
290
     0
176
     1
290
     0
176
     1
 90
       50
176
     1
 40
0.0
176
     1
 40
1.0
176
     1
 90
        0
176
     1
 62
    18
420
        0
176
     1
 90
       50
176
     1
 90
        3
176
     1
 62
     5
420
      255
176
     1
290
     0
176
     1
 90
       50
176
     1
 90
       50
176
     1
 90
       50
176
     1
290
     0
176
     1
 90
       50
176
     1
 62
   256
176
     0
 40
1.0
176
     0
 90
        2
176
     1
  1
strokes_ogs.tif
176
     1
290
     0
176
     1
 40
1.0
176
     1
 40
1.0
176
     1
  0
VISUALSTYLE
  5
36DD
102
{ACAD_REACTORS
330
36D6
102
}
330
36D6
100
AcDbVisualStyle
  2
Wireframe
 70
     5
177
     3
291
     0
 70
    58
 90
        0
176
     1
 90
        2
176
     1
 90
        0
176
     1
 90
        0
176
     1
 40
0.6
176
     1
 40
30.0
176
     1
 62
     7
420
 16777215
176
     1
 90
        1
176
     1
 90
        4
176
     1
 62
     7
176
     1
 62
   257
176
     1
 90
        1
176
     1
 90
        1
176
     1
 40
1.0
176
     1
 90
        0
176
     1
 62
   257
176
     1
 40
1.0
176
     1
 90
        1
176
     1
 90
        6
176
     1
 90
        2
176
     1
 62
     7
176
     1
 90
        3
176
     1
 90
        0
176
     1
 90
        0
176
     1
290
     0
176
     1
 90
        1
176
     1
 40
0.0
176
     1
 90
        0
176
     1
290
     0
176
     1
290
     1
176
     1
290
     1
176
     1
290
     0
176
     1
290
     0
176
     1
290
     0
176
     1
290
     0
176
     1
290
     0
176
     1
290
     0
176
     1
 90
       50
176
     1
 40
0.0
176
     1
 40
1.0
176
     1
 90
        0
176
     1
 62
    18
420
        0
176
     1
 90
       50
176
     1
 90
        3
176
     1
 62
     5
420
      255
176
     1
290
     0
176
     1
 90
       50
176
     1
 90
       50
176
     1
 90
       50
176
     1
290
     0
176
     1
 90
       50
176
     1
 62
   256
176
     0
 40
1.0
176
     0
 90
        2
176
     1
  1
strokes_ogs.tif
176
     1
290
     0
176
     1
 40
1.0
176
     1
 40
1.0
176
     1
  0
VISUALSTYLE
  5
36E9
102
{ACAD_REACTORS
330
36D6
102
}
330
36D6
100
AcDbVisualStyle
  2
X-Ray
 70
    25
177
     3
291
     0
 70
    58
 90
        2
176
     1
 90
        2
176
     1
 90
        1
176
     1
 90
        1
176
     1
 40
0.5
176
     1
 40
30.0
176
     1
 62
     7
420
 16777215
176
     1
 90
        1
176
     1
 90
        0
176
     1
 62
     7
176
     1
 62
   257
176
     1
 90
        1
176
     1
 90
        1
176
     1
 40
1.0
176
     1
 90
        8
176
     1
 62
     7
176
     1
 40
1.0
176
     1
 90
        1
176
     1
 90
        6
176
     1
 90
        2
176
     1
 62
     7
176
     1
 90
        3
176
     1
 90
        0
176
     1
 90
        0
176
     1
290
     0
176
     1
 90
       13
176
     1
 40
0.0
176
     1
 90
        0
176
     1
290
     0
176
     1
290
     1
176
     1
290
     1
176
     1
290
     0
176
     1
290
     0
176
     1
290
     0
176
     1
290
     0
176
     1
290
     0
176
     1
290
     0
176
     1
 90
       50
176
     1
 40
0.0
176
     1
 40
1.0
176
     1
 90
        0
176
     1
 62
    18
420
        0
176
     1
 90
       50
176
     1
 90
        3
176
     1
 62
     5
420
      255
176
     1
290
     0
176
     1
 90
       50
176
     1
 90
       50
176
     1
 90
       50
176
     1
290
     0
176
     1
 90
       50
176
     1
 62
   256
176
     0
 40
1.0
176
     0
 90
        2
176
     1
  1
strokes_ogs.tif
176
     1
290
     0
176
     1
 40
1.0
176
     1
 40
1.0
176
     1
  0
DICTIONARYVAR
  5
3717
102
{ACAD_REACTORS
330
193
102
}
330
193
100
DictionaryVariables
280
     0
  1
1:1
  0
DICTIONARYVAR
  5
3713
102
{ACAD_REACTORS
330
193
102
}
330
193
100
DictionaryVariables
280
     0
  1
STANDARD
  0
DICTIONARYVAR
  5
3712
102
{ACAD_REACTORS
330
193
102
}
330
193
100
DictionaryVariables
280
     0
  1
STANDARD
  0
DICTIONARYVAR
  5
3714
102
{ACAD_REACTORS
330
193
102
}
330
193
100
DictionaryVariables
280
     0
  1
Metric50
  0
DICTIONARYVAR
  5
3715
102
{ACAD_REACTORS
330
193
102
}
330
193
100
DictionaryVariables
280
     0
  1
Metric50
  0
DICTIONARYVAR
  5
195
102
{ACAD_REACTORS
330
193
102
}
330
193
100
DictionaryVariables
280
     0
  1
2
  0
DICTIONARYVAR
  5
194
102
{ACAD_REACTORS
330
193
102
}
330
193
100
DictionaryVariables
280
     0
  1
1
  0
DICTIONARYVAR
  5
3719
102
{ACAD_REACTORS
330
193
102
}
330
193
100
DictionaryVariables
280
     0
  1
1
  0
DICTIONARYVAR
  5
371A
102
{ACAD_REACTORS
330
193
102
}
330
193
100
DictionaryVariables
280
     0
  1
15
  0
DICTIONARYVAR
  5
3718
102
{ACAD_REACTORS
330
193
102
}
330
193
100
DictionaryVariables
280
     0
  1
0
  0
DICTIONARYVAR
  5
3716
102
{ACAD_REACTORS
330
193
102
}
330
193
100
DictionaryVariables
280
     0
  1
0
  0
DICTIONARYVAR
  5
FE8
102
{ACAD_REACTORS
330
193
102
}
330
193
100
DictionaryVariables
280
     0
  1
112
  0
DICTIONARY
  5
36C7
330
36C6
100
AcDbDictionary
280
     1
281
     1
  3
BUMPTILE
360
36C9
  3
DIFFUSETILE
360
36C8
  3
OPACITYTILE
360
36CC
  3
REFLECTIONTILE
360
36CB
  3
REFRACTIONTILE
360
36CD
  3
SPECULARTILE
360
36CA
  0
DICTIONARY
  5
36BF
330
36BE
100
AcDbDictionary
280
     1
281
     1
  3
BUMPTILE
360
36C1
  3
DIFFUSETILE
360
36C0
  3
OPACITYTILE
360
36C4
  3
REFLECTIONTILE
360
36C3
  3
REFRACTIONTILE
360
36C5
  3
SPECULARTILE
360
36C2
  0
DICTIONARY
  5
36CF
330
36CE
100
AcDbDictionary
280
     1
281
     1
  3
BUMPTILE
360
36D1
  3
DIFFUSETILE
360
36D0
  3
OPACITYTILE
360
36D4
  3
REFLECTIONTILE
360
36D3
  3
REFRACTIONTILE
360
36D5
  3
SPECULARTILE
360
36D2
  0
DICTIONARY
  5
3BA6
330
36F1
100
AcDbDictionary
280
     1
281
     1
  3
ACAD_ROUNDTRIP_2008_TABLESTYLE_CELLSTYLEMAP
360
3BA7
  0
XRECORD
  5
36C9
102
{ACAD_REACTORS
330
36C7
102
}
330
36C7
100
AcDbXrecord
280
     1
270
     1
271
     1
  0
XRECORD
  5
36C8
102
{ACAD_REACTORS
330
36C7
102
}
330
36C7
100
AcDbXrecord
280
     1
270
     1
271
     1
  0
XRECORD
  5
36CC
102
{ACAD_REACTORS
330
36C7
102
}
330
36C7
100
AcDbXrecord
280
     1
270
     1
271
     1
  0
XRECORD
  5
36CB
102
{ACAD_REACTORS
330
36C7
102
}
330
36C7
100
AcDbXrecord
280
     1
270
     1
271
     1
  0
XRECORD
  5
36CD
102
{ACAD_REACTORS
330
36C7
102
}
330
36C7
100
AcDbXrecord
280
     1
270
     1
271
     1
  0
XRECORD
  5
36CA
102
{ACAD_REACTORS
330
36C7
102
}
330
36C7
100
AcDbXrecord
280
     1
270
     1
271
     1
  0
XRECORD
  5
36C1
102
{ACAD_REACTORS
330
36BF
102
}
330
36BF
100
AcDbXrecord
280
     1
270
     1
271
     1
  0
XRECORD
  5
36C0
102
{ACAD_REACTORS
330
36BF
102
}
330
36BF
100
AcDbXrecord
280
     1
270
     1
271
     1
  0
XRECORD
  5
36C4
102
{ACAD_REACTORS
330
36BF
102
}
330
36BF
100
AcDbXrecord
280
     1
270
     1
271
     1
  0
XRECORD
  5
36C3
102
{ACAD_REACTORS
330
36BF
102
}
330
36BF
100
AcDbXrecord
280
     1
270
     1
271
     1
  0
XRECORD
  5
36C5
102
{ACAD_REACTORS
330
36BF
102
}
330
36BF
100
AcDbXrecord
280
     1
270
     1
271
     1
  0
XRECORD
  5
36C2
102
{ACAD_REACTORS
330
36BF
102
}
330
36BF
100
AcDbXrecord
280
     1
270
     1
271
     1
  0
XRECORD
  5
36D1
102
{ACAD_REACTORS
330
36CF
102
}
330
36CF
100
AcDbXrecord
280
     1
270
     1
271
     1
  0
XRECORD
  5
36D0
102
{ACAD_REACTORS
330
36CF
102
}
330
36CF
100
AcDbXrecord
280
     1
270
     1
271
     1
  0
XRECORD
  5
36D4
102
{ACAD_REACTORS
330
36CF
102
}
330
36CF
100
AcDbXrecord
280
     1
270
     1
271
     1
  0
XRECORD
  5
36D3
102
{ACAD_REACTORS
330
36CF
102
}
330
36CF
100
AcDbXrecord
280
     1
270
     1
271
     1
  0
XRECORD
  5
36D5
102
{ACAD_REACTORS
330
36CF
102
}
330
36CF
100
AcDbXrecord
280
     1
270
     1
271
     1
  0
XRECORD
  5
36D2
102
{ACAD_REACTORS
330
36CF
102
}
330
36CF
100
AcDbXrecord
280
     1
270
     1
271
     1
  0
CELLSTYLEMAP
  5
3BA7
102
{ACAD_REACTORS
330
3BA6
102
}
330
3BA6
100
AcDbCellStyleMap
 90
        3
300
CELLSTYLE
  1
TABLEFORMAT_BEGIN
 90
        5
170
     1
 91
        0
 92
    32768
 62
   257
 93
        1
300
CONTENTFORMAT
  1
CONTENTFORMAT_BEGIN
 90
        0
 91
        0
 92
      512
 93
        0
300

 40
0.0
140
1.0
 94
        5
 62
     0
340
11
144
6.0
309
CONTENTFORMAT_END
171
     1
301
MARGIN
  1
CELLMARGIN_BEGIN
 40
1.5
 40
1.5
 40
1.5
 40
1.5
 40
4.5
 40
4.5
309
CELLMARGIN_END
 94
        6
 95
        1
302
GRIDFORMAT
  1
GRIDFORMAT_BEGIN
 90
        0
 91
        1
 62
     0
 92
       -2
340
0
 93
        0
 40
1.125
309
GRIDFORMAT_END
 95
        2
302
GRIDFORMAT
  1
GRIDFORMAT_BEGIN
 90
        0
 91
        1
 62
     0
 92
       -2
340
0
 93
        0
 40
1.125
309
GRIDFORMAT_END
 95
        4
302
GRIDFORMAT
  1
GRIDFORMAT_BEGIN
 90
        0
 91
        1
 62
     0
 92
       -2
340
0
 93
        0
 40
1.125
309
GRIDFORMAT_END
 95
        8
302
GRIDFORMAT
  1
GRIDFORMAT_BEGIN
 90
        0
 91
        1
 62
     0
 92
       -2
340
0
 93
        0
 40
1.125
309
GRIDFORMAT_END
 95
       16
302
GRIDFORMAT
  1
GRIDFORMAT_BEGIN
 90
        0
 91
        1
 62
     0
 92
       -2
340
0
 93
        0
 40
1.125
309
GRIDFORMAT_END
 95
       32
302
GRIDFORMAT
  1
GRIDFORMAT_BEGIN
 90
        0
 91
        1
 62
     0
 92
       -2
340
0
 93
        0
 40
1.125
309
GRIDFORMAT_END
309
TABLEFORMAT_END
  1
CELLSTYLE_BEGIN
 90
        1
 91
        1
300
_TITLE
309
CELLSTYLE_END
300
CELLSTYLE
  1
TABLEFORMAT_BEGIN
 90
        5
170
     1
 91
        0
 92
        0
 62
   257
 93
        1
300
CONTENTFORMAT
  1
CONTENTFORMAT_BEGIN
 90
        0
 91
        0
 92
      512
 93
        0
300

 40
0.0
140
1.0
 94
        5
 62
     0
340
11
144
4.5
309
CONTENTFORMAT_END
171
     1
301
MARGIN
  1
CELLMARGIN_BEGIN
 40
1.5
 40
1.5
 40
1.5
 40
1.5
 40
4.5
 40
4.5
309
CELLMARGIN_END
 94
        6
 95
        1
302
GRIDFORMAT
  1
GRIDFORMAT_BEGIN
 90
        0
 91
        1
 62
     0
 92
       -2
340
0
 93
        0
 40
1.125
309
GRIDFORMAT_END
 95
        2
302
GRIDFORMAT
  1
GRIDFORMAT_BEGIN
 90
        0
 91
        1
 62
     0
 92
       -2
340
0
 93
        0
 40
1.125
309
GRIDFORMAT_END
 95
        4
302
GRIDFORMAT
  1
GRIDFORMAT_BEGIN
 90
        0
 91
        1
 62
     0
 92
       -2
340
0
 93
        0
 40
1.125
309
GRIDFORMAT_END
 95
        8
302
GRIDFORMAT
  1
GRIDFORMAT_BEGIN
 90
        0
 91
        1
 62
     0
 92
       -2
340
0
 93
        0
 40
1.125
309
GRIDFORMAT_END
 95
       16
302
GRIDFORMAT
  1
GRIDFORMAT_BEGIN
 90
        0
 91
        1
 62
     0
 92
       -2
340
0
 93
        0
 40
1.125
309
GRIDFORMAT_END
 95
       32
302
GRIDFORMAT
  1
GRIDFORMAT_BEGIN
 90
        0
 91
        1
 62
     0
 92
       -2
340
0
 93
        0
 40
1.125
309
GRIDFORMAT_END
309
TABLEFORMAT_END
  1
CELLSTYLE_BEGIN
 90
        2
 91
        1
300
_HEADER
309
CELLSTYLE_END
300
CELLSTYLE
  1
TABLEFORMAT_BEGIN
 90
        5
170
     1
 91
        0
 92
        0
 62
   257
 93
        1
300
CONTENTFORMAT
  1
CONTENTFORMAT_BEGIN
 90
        0
 91
        0
 92
      512
 93
        0
300

 40
0.0
140
1.0
 94
        2
 62
     0
340
11
144
4.5
309
CONTENTFORMAT_END
171
     1
301
MARGIN
  1
CELLMARGIN_BEGIN
 40
1.5
 40
1.5
 40
1.5
 40
1.5
 40
4.5
 40
4.5
309
CELLMARGIN_END
 94
        6
 95
        1
302
GRIDFORMAT
  1
GRIDFORMAT_BEGIN
 90
        0
 91
        1
 62
     0
 92
       -2
340
0
 93
        0
 40
1.125
309
GRIDFORMAT_END
 95
        2
302
GRIDFORMAT
  1
GRIDFORMAT_BEGIN
 90
        0
 91
        1
 62
     0
 92
       -2
340
0
 93
        0
 40
1.125
309
GRIDFORMAT_END
 95
        4
302
GRIDFORMAT
  1
GRIDFORMAT_BEGIN
 90
        0
 91
        1
 62
     0
 92
       -2
340
0
 93
        0
 40
1.125
309
GRIDFORMAT_END
 95
        8
302
GRIDFORMAT
  1
GRIDFORMAT_BEGIN
 90
        0
 91
        1
 62
     0
 92
       -2
340
0
 93
        0
 40
1.125
309
GRIDFORMAT_END
 95
       16
302
GRIDFORMAT
  1
GRIDFORMAT_BEGIN
 90
        0
 91
        1
 62
     0
 92
       -2
340
0
 93
        0
 40
1.125
309
GRIDFORMAT_END
 95
       32
302
GRIDFORMAT
  1
GRIDFORMAT_BEGIN
 90
        0
 91
        1
 62
     0
 92
       -2
340
0
 93
        0
 40
1.125
309
GRIDFORMAT_END
309
TABLEFORMAT_END
  1
CELLSTYLE_BEGIN
 90
        3
 91
        2
300
_DATA
309
CELLSTYLE_END
  0
ENDSEC
  0
SECTION
  2
ACDSDATA
 70
     2
 71
     7
  0
ACDSSCHEMA
 90
        0
  1
AcDb_Thumbnail_Schema
  2
AcDbDs::ID
280
    10
 91
        8
  2
Thumbnail_Data
280
    15
 91
        0
101
ACDSRECORD
 95
        0
 90
        1
  2
AcDbDs::TreatedAsObjectData
280
     1
291
     1
101
ACDSRECORD
 95
        0
 90
        2
  2
AcDbDs::Legacy
280
     1
291
     1
101
ACDSRECORD
  1
AcDbDs::ID
 90
        3
  2
AcDs:Indexable
280
     1
291
     1
101
ACDSRECORD
  1
AcDbDs::ID
 90
        4
  2
AcDbDs::HandleAttribute
280
     7
282
     1
  0
ACDSSCHEMA
 90
        1
  1
AcDbDs::TreatedAsObjectDataSchema
  2
AcDbDs::TreatedAsObjectData
280
     1
 91
        0
  0
ACDSSCHEMA
 90
        2
  1
AcDbDs::LegacySchema
  2
AcDbDs::Legacy
280
     1
 91
        0
  0
ACDSSCHEMA
 90
        3
  1
AcDbDs::IndexedPropertySchema
  2
AcDs:Indexable
280
     1
 91
        0
  0
ACDSSCHEMA
 90
        4
  1
AcDbDs::HandleAttributeSchema
  2
AcDbDs::HandleAttribute
280
     7
 91
        1
284
     1
  0
ACDSRECORD
 90
        0
  2
AcDbDs::ID
280
    10
320
22
  2
Thumbnail_Data
280
    15
 94
     1861
310
89504E470D0A1A0A0000000D4948445200000100000000A90803000000F3C813C600000300504C5445212830000000C8C8C80000000000000000000000000000000000000000000000000000330000660000990000CC0000FF0033000033330033660033990033CC0033FF0066000066330066660066990066CC0066FF0099
310
000099330099660099990099CC0099FF00CC0000CC3300CC6600CC9900CCCC00CCFF00FF0000FF3300FF6600FF9900FFCC00FFFF3300003300333300663300993300CC3300FF3333003333333333663333993333CC3333FF3366003366333366663366993366CC3366FF3399003399333399663399993399CC3399FF33CC00
310
33CC3333CC6633CC9933CCCC33CCFF33FF0033FF3333FF6633FF9933FFCC33FFFF6600006600336600666600996600CC6600FF6633006633336633666633996633CC6633FF6666006666336666666666996666CC6666FF6699006699336699666699996699CC6699FF66CC0066CC3366CC6666CC9966CCCC66CCFF66FF0066
310
FF3366FF6666FF9966FFCC66FFFF9900009900339900669900999900CC9900FF9933009933339933669933999933CC9933FF9966009966339966669966999966CC9966FF9999009999339999669999999999CC9999FF99CC0099CC3399CC6699CC9999CCCC99CCFF99FF0099FF3399FF6699FF9999FFCC99FFFFCC0000CC00
310
33CC0066CC0099CC00CCCC00FFCC3300CC3333CC3366CC3399CC33CCCC33FFCC6600CC6633CC6666CC6699CC66CCCC66FFCC9900CC9933CC9966CC9999CC99CCCC99FFCCCC00CCCC33CCCC66CCCC99CCCCCCCCCCFFCCFF00CCFF33CCFF66CCFF99CCFFCCCCFFFFFF0000FF0033FF0066FF0099FF00CCFF00FFFF3300FF3333
310
FF3366FF3399FF33CCFF33FFFF6600FF6633FF6666FF6699FF66CCFF66FFFF9900FF9933FF9966FF9999FF99CCFF99FFFFCC00FFCC33FFCC66FFCC99FFCCCCFFCCFFFFFF00FFFF33FFFF66FFFF99FFFFCCFFFFFF0000000D0D0D1A1A1A2828283535354343435050505D5D5D6B6B6B787878868686939393A1A1A1AEAEAEBB
310
BBBBC9C9C9D6D6D6E4E4E4F1F1F1FFFFFF000000000000000000000000000000000000000000000000000000000000B21171F6000004004944415478DAED9D5B9284200C45E30ADCFF66F2C34A7A11F91FF185282AF81A02F75675D7F4A8341C42081167882008822008822008822008822008822008822008822008822008
310
82200882200882A0A52452000000D03F76C6A7DF0900008071979F5E04A0A39B00E0BB2100000070A32C7A89A0121FF09E09E502E0E909AD3799801DE50BE06E4D56054C44E65F4BF600762DE35211D1518F5A00125784670165F980D200DC3F5D3B80DBA56B1F0224523700A917C0A578B928006335931C614100C688EDB6
310
D7D46C01D50108C435CC6C5FD18A04309F9899058CCE4E0616B6A2A975E14800D38900901900FA0A00670CA06FBA03C02D57660163D833B9C1B66DEB0440AF5A006BB080B13D2DD56D01692A0F800D8656C19159C44992706CB1AE623E5965FDFB3438F79418C3C63FCB1C74B83B662F0B44D232956B4FE9A40040F766D201
310
F4976D018C5DCE6C86D66BB080CE9657004C0C80EEB2530BC814803FA8ED12C7702A00B6003830FE67007DB19CA705D0C91030D78680B88F990F017AC9098A1627E801D8B6D22C03BAD541E3D47572C0FC1D808CA7C1CB00BC1E652FA1241B0B38CC36E5056025B39B0F32DEB17200AC6C60DF071877ACBFC89A781100281D
310
002904107049F701C8B805C2BFC5A2074028271CEB03EC8A67087516ED9F00CC7E428105D0350B20776F7573934DD710B80360E10364B1A94E97137C0880DE590000AE032823104A00605201285F0B045683E52D8602CBE1987CC0BC1CA6603E40D172F8724ACCA688696744E849887020628B4A89713929B1E72C80B46485
310
1F4D8905BF22EFACB00FE0C53B432A9CE0B138FC8BD3EAF359C95A0010008401488500867D14B100B838006DDB26EC2D2EDB0222F656676B01721D80500A0002801C0184F70AC7EE121EF3C0713E20D32170BF5C899B05FEAD9600F0260067FB4200502180479FA5D76901F71F36D70C404D2D01E0D9615F38003925F05233
310
4AF91B227A0148523DA43C0B0080A4902EFE2F8A0080120009F980A3F3E4728B72F101763B1B1D242FDCA34F3C7C602FE7C16A013803B03747CDEE34C7FB33A0B1979D0E92DC7D00F50F4C98530B086DA4F16F8E6A02E0C5300100871670B445461580F943DF923D9FBF7AFC7171DD00C00CFBC6D283C28C00D0E699A1E5D0
310
1E5341DB43A6DF2C3D02484F14E4B31A8C00B0ECDE2286C0DA1C58CCDE12670BC0ED94E0CD995AF301BC5FC216C0E2328988155526448EFA75B7D1A501189F04380640450390530077BE2A6F0007AE5DA25689EA2D40563FEC972E650278BFE28500B89E1E550360DD3800A862087CF0AF31E0047306F08514007877106800
310
40BF5FD31035DD5BD3FCA87B7FB07C0D009A09C0F07AB67C4500688230584053258041BFCA2CA06BB167014D6D006A9F05F4C601B5FFB73908822048BDFE00E80D2054C7EED7610000000049454E44AE426082
  0
ACDSRECORD
 90
        0
  2
AcDbDs::ID
280
    10
320
1E
  2
Thumbnail_Data
280
    15
 94
     2163
310
89504E470D0A1A0A0000000D4948445200000100000000B408030000004C80028300000300504C5445FFFFFF000000C8C8C80000000000000000000000000000000000000000000000000000330000660000990000CC0000FF0033000033330033660033990033CC0033FF0066000066330066660066990066CC0066FF0099
310
000099330099660099990099CC0099FF00CC0000CC3300CC6600CC9900CCCC00CCFF00FF0000FF3300FF6600FF9900FFCC00FFFF3300003300333300663300993300CC3300FF3333003333333333663333993333CC3333FF3366003366333366663366993366CC3366FF3399003399333399663399993399CC3399FF33CC00
310
33CC3333CC6633CC9933CCCC33CCFF33FF0033FF3333FF6633FF9933FFCC33FFFF6600006600336600666600996600CC6600FF6633006633336633666633996633CC6633FF6666006666336666666666996666CC6666FF6699006699336699666699996699CC6699FF66CC0066CC3366CC6666CC9966CCCC66CCFF66FF0066
310
FF3366FF6666FF9966FFCC66FFFF9900009900339900669900999900CC9900FF9933009933339933669933999933CC9933FF9966009966339966669966999966CC9966FF9999009999339999669999999999CC9999FF99CC0099CC3399CC6699CC9999CCCC99CCFF99FF0099FF3399FF6699FF9999FFCC99FFFFCC0000CC00
310
33CC0066CC0099CC00CCCC00FFCC3300CC3333CC3366CC3399CC33CCCC33FFCC6600CC6633CC6666CC6699CC66CCCC66FFCC9900CC9933CC9966CC9999CC99CCCC99FFCCCC00CCCC33CCCC66CCCC99CCCCCCCCCCFFCCFF00CCFF33CCFF66CCFF99CCFFCCCCFFFFFF0000FF0033FF0066FF0099FF00CCFF00FFFF3300FF3333
310
FF3366FF3399FF33CCFF33FFFF6600FF6633FF6666FF6699FF66CCFF66FFFF9900FF9933FF9966FF9999FF99CCFF99FFFFCC00FFCC33FFCC66FFCC99FFCCCCFFCCFFFFFF00FFFF33FFFF66FFFF99FFFFCCFFFFFF0000000D0D0D1A1A1A2828283535354343435050505D5D5D6B6B6B787878868686939393A1A1A1AEAEAEBB
310
BBBBC9C9C9D6D6D6E4E4E4F1F1F1FFFFFF000000000000000000000000000000000000000000000000000000000000B0E2D235000004BD4944415478DAEDDDDB95AB201406603AD86DD07F01BCD0064F5432A251C10144452EF2B3266BCE1C632E9F9B8D80218CD52DBA6E6183170000000000000000000000000000000000
310
40DE2E6A5BDD690000000000402B9035029A7D47A5AA000000F05D00FDE192063050D20700000000000000A0380011991B8D0C405F06A05C1140BD02642B5F8D80E20F040000340270B15E7F0E80860108BCCD30806917876F06474F82000040F7006BF22B0640DE741B6969DE05D8325941006A09E0779AB33CFFF59ECC7D
310
80B973B984C3C9017815E0696FEE3AC0F56E64C1244825AA809D7D92F60000005E6E06010000000C05106A858510E676AD3C01D8F62E1D01BF330E62CE6897B81501E209C0BA37004A03B0360038E7F50068EBFD58004209314A04580056514A8D5305E89082CB47400B55C00560AA680E68A10A1C001800A2457D09E0DFC0
310
A43057DBAA7F97A94AEBDFA75BAF4DA108F1DBB3E279800BC0A492C73BCB6804585BCDBE3A7C3CC917017A4985BC1500391D4529EF01CCFB5E03E04B397DEDAF3583FF8A9CCE039474DFA60D12015006404562DF1F01D3F37135ED582502983702D83102E4C308A0B32A502B020200C724E000FCCB652900D46815F01D0F5F
310
127422200C104C82D12A503509FA5E4E34CF4F11706C3CA555949C1BC540E50F01247C94A724802731DA7DA5E33629DD64A7ED579208600C1A026057CE03A4B3F53E00FB28001B10C0D4E7E601E84D00E602FC1F78AA0E109C86CE05B0A4B4DF1574DD00987360A5955D96FF53D2FDD32972DB6A0A4D8FA0E7DBDEDB8C0038
310
CFD54C04B00711C096066D8D00EAB20A3C075873800BC0A89356201F40A7CDE06300FD6900760AD0FD99E0C50890F500F43B00EA1240CDDEE03B005906459346201F8F07BC0220A7B7181D118A0D89193F1D3EF3CE3D22F40E409631C164804763826F00784F4C53478555E151E17211C0522340FB2320FCA40D560193C96F
310
26C1A515B8F4A4ED25C15A7383AD44C06989CC0EDFF9B885489C926F0780010000DB63287A0C709AFD1A069887C09E2E9BF09D08B8B96C44DF00F41CA05E15A00C499058C711303840E4F302573E28F0FBF524098A4A1190A51CC639DE5C5E0900000040FB006C3C8025F50F0CB0AE008008181A80C605285800D006409DF5
310
449B8A808F03242C967A0A405D03B4B89E6AD90878FAFAA9F308C8D74100405700373AB40400008C09A0B6161300DF01B0E70538373FE1A2B6790031DDED70CF695F775521EA2C028499AC53D1E93AB5EFC2E71F7B3E69DAD79DE9A1CE22C05CB1C395E691AFBCDAAF02F26C9C00DC8B7DB29D18BF07B02FE8F97B08AE18BF
310
9B034C047C11407BAE12B32260BF567A0290EBE6BC5DA337019C97A9E71CC08F00DE1CB0E2EC0160F6D57CFA6D7F66A83700F3162300740C1A1BC0ECBB0364AC01E54684D2005CB3BD06AC9F17E8A90A2401B028C021027A3C0FB0014C9AE3E1AF7BF400ECADA026DD5D33186EE8FCC791A25B957FE988BE00D80380C0EA29
310
030144FF1A0280D12B9307D501685B833F0D20F7287903009408C05E9926A80F40C9003D8E08250F9878BF186300006BCC6C5080FB5B01F0B9F3003A7E471000C603A0E1002A5C118124D812400305000000000012003E5C9200462A000000000000000000000000000000000000008C0AD0D610457980DAC7A0B6FF1FD5CE
310
5B84BDD3A50C0000000049454E44AE4260827643F091002440D28D92A000EE0E808315180B80412CC800C073FDF87C7E5FE1CFBD1303E0B90321550214C022FCCFA7F75925400E803F8861B83D00E9718086C20A8031003145DA880F9C76280005A00014800250009C01A0E802F00F3B2DDFAF1DEF5F030000000049454E44
310
AE426082
  0
ENDSEC
  0
EOF
