  0
SECTION
  2
HEADER
  9
$ACADVER
  1
AC1015
  9
$ACADMAINTVER
 70
    13
  9
$DWGCODEPAGE
  3
ANSI_932
  9
$INSBASE
 10
0.0
 20
0.0
 30
0.0
  9
$EXTMIN
 10
13.49765372594868
 20
174.0761266902232
 30
0.0
  9
$EXTMAX
 10
238.0651593982701
 20
323.4484010674258
 30
0.001526
  9
$LIMMIN
 10
0.0
 20
0.0
  9
$LIMMAX
 10
420.0
 20
297.0
  9
$ORTHOMODE
 70
     1
  9
$REGENMODE
 70
     1
  9
$FILLMODE
 70
     1
  9
$QTEXTMODE
 70
     0
  9
$MIRRTEXT
 70
     1
  9
$LTSCALE
 40
1.0
  9
$ATTMODE
 70
     1
  9
$TEXTSIZE
 40
2.5
  9
$TRACEWID
 40
1.0
  9
$TEXTSTYLE
  7
Standard
  9
$CLAYER
  8
外形２
  9
$CELTYPE
  6
ByLayer
  9
$CECOLOR
 62
   256
  9
$CELTSCALE
 40
1.0
  9
$DISPSILH
 70
     0
  9
$DIMSCALE
 40
1.0
  9
$DIMASZ
 40
2.5
  9
$DIMEXO
 40
0.625
  9
$DIMDLI
 40
3.75
  9
$DIMRND
 40
0.0
  9
$DIMDLE
 40
0.0
  9
$DIMEXE
 40
1.25
  9
$DIMTP
 40
0.0
  9
$DIMTM
 40
0.0
  9
$DIMTXT
 40
2.5
  9
$DIMCEN
 40
2.5
  9
$DIMTSZ
 40
0.0
  9
$DIMTOL
 70
     0
  9
$DIMLIM
 70
     0
  9
$DIMTIH
 70
     0
  9
$DIMTOH
 70
     0
  9
$DIMSE1
 70
     0
  9
$DIMSE2
 70
     0
  9
$DIMTAD
 70
     1
  9
$DIMZIN
 70
     8
  9
$DIMBLK
  1

  9
$DIMASO
 70
     1
  9
$DIMSHO
 70
     1
  9
$DIMPOST
  1

  9
$DIMAPOST
  1

  9
$DIMALT
 70
     0
  9
$DIMALTD
 70
     3
  9
$DIMALTF
 40
0.03937007874016
  9
$DIMLFAC
 40
1.0
  9
$DIMTOFL
 70
     1
  9
$DIMTVP
 40
0.0
  9
$DIMTIX
 70
     0
  9
$DIMSOXD
 70
     0
  9
$DIMSAH
 70
     0
  9
$DIMBLK1
  1

  9
$DIMBLK2
  1

  9
$DIMSTYLE
  2
ISO-25
  9
$DIMCLRD
 70
     0
  9
$DIMCLRE
 70
     0
  9
$DIMCLRT
 70
     0
  9
$DIMTFAC
 40
1.0
  9
$DIMGAP
 40
0.625
  9
$DIMJUST
 70
     0
  9
$DIMSD1
 70
     0
  9
$DIMSD2
 70
     0
  9
$DIMTOLJ
 70
     0
  9
$DIMTZIN
 70
     8
  9
$DIMALTZ
 70
     0
  9
$DIMALTTZ
 70
     0
  9
$DIMUPT
 70
     0
  9
$DIMDEC
 70
     2
  9
$DIMTDEC
 70
     2
  9
$DIMALTU
 70
     2
  9
$DIMALTTD
 70
     3
  9
$DIMTXSTY
  7
Standard
  9
$DIMAUNIT
 70
     0
  9
$DIMADEC
 70
     0
  9
$DIMALTRND
 40
0.0
  9
$DIMAZIN
 70
     0
  9
$DIMDSEP
 70
    46
  9
$DIMATFIT
 70
     3
  9
$DIMFRAC
 70
     0
  9
$DIMLDRBLK
  1

  9
$DIMLUNIT
 70
     2
  9
$DIMLWD
 70
    -2
  9
$DIMLWE
 70
    -2
  9
$DIMTMOVE
 70
     0
  9
$LUNITS
 70
     2
  9
$LUPREC
 70
     4
  9
$SKETCHINC
 40
1.0
  9
$FILLETRAD
 40
1.0
  9
$AUNITS
 70
     0
  9
$AUPREC
 70
     0
  9
$MENU
  1
.
  9
$ELEVATION
 40
0.0
  9
$PELEVATION
 40
0.0
  9
$THICKNESS
 40
0.0
  9
$LIMCHECK
 70
     0
  9
$CHAMFERA
 40
10.0
  9
$CHAMFERB
 40
10.0
  9
$CHAMFERC
 40
20.0
  9
$CHAMFERD
 40
0.0
  9
$SKPOLY
 70
     0
  9
$TDCREATE
 40
2452964.722255856
  9
$TDUCREATE
 40
2452964.347255856
  9
$TDUPDATE
 40
2454998.421605671
  9
$TDUUPDATE
 40
2454998.046605671
  9
$TDINDWG
 40
0.6206929167
  9
$TDUSRTIMER
 40
0.6206909491
  9
$USRTIMER
 70
     1
  9
$ANGBASE
 50
0.0
  9
$ANGDIR
 70
     0
  9
$PDMODE
 70
     0
  9
$PDSIZE
 40
0.0
  9
$PLINEWID
 40
0.0
  9
$SPLFRAME
 70
     0
  9
$SPLINETYPE
 70
     6
  9
$SPLINESEGS
 70
     8
  9
$HANDSEED
  5
3E5C
  9
$SURFTAB1
 70
     6
  9
$SURFTAB2
 70
     6
  9
$SURFTYPE
 70
     6
  9
$SURFU
 70
     6
  9
$SURFV
 70
     6
  9
$UCSBASE
  2

  9
$UCSNAME
  2

  9
$UCSORG
 10
0.0
 20
0.0
 30
0.0
  9
$UCSXDIR
 10
1.0
 20
0.0
 30
0.0
  9
$UCSYDIR
 10
0.0
 20
1.0
 30
0.0
  9
$UCSORTHOREF
  2

  9
$UCSORTHOVIEW
 70
     0
  9
$UCSORGTOP
 10
0.0
 20
0.0
 30
0.0
  9
$UCSORGBOTTOM
 10
0.0
 20
0.0
 30
0.0
  9
$UCSORGLEFT
 10
0.0
 20
0.0
 30
0.0
  9
$UCSORGRIGHT
 10
0.0
 20
0.0
 30
0.0
  9
$UCSORGFRONT
 10
0.0
 20
0.0
 30
0.0
  9
$UCSORGBACK
 10
0.0
 20
0.0
 30
0.0
  9
$PUCSBASE
  2

  9
$PUCSNAME
  2

  9
$PUCSORG
 10
0.0
 20
0.0
 30
0.0
  9
$PUCSXDIR
 10
1.0
 20
0.0
 30
0.0
  9
$PUCSYDIR
 10
0.0
 20
1.0
 30
0.0
  9
$PUCSORTHOREF
  2

  9
$PUCSORTHOVIEW
 70
     0
  9
$PUCSORGTOP
 10
0.0
 20
0.0
 30
0.0
  9
$PUCSORGBOTTOM
 10
0.0
 20
0.0
 30
0.0
  9
$PUCSORGLEFT
 10
0.0
 20
0.0
 30
0.0
  9
$PUCSORGRIGHT
 10
0.0
 20
0.0
 30
0.0
  9
$PUCSORGFRONT
 10
0.0
 20
0.0
 30
0.0
  9
$PUCSORGBACK
 10
0.0
 20
0.0
 30
0.0
  9
$USERI1
 70
     0
  9
$USERI2
 70
     0
  9
$USERI3
 70
     0
  9
$USERI4
 70
     0
  9
$USERI5
 70
     0
  9
$USERR1
 40
0.0
  9
$USERR2
 40
0.0
  9
$USERR3
 40
0.0
  9
$USERR4
 40
0.0
  9
$USERR5
 40
0.0
  9
$WORLDVIEW
 70
     1
  9
$SHADEDGE
 70
     3
  9
$SHADEDIF
 70
    70
  9
$TILEMODE
 70
     1
  9
$MAXACTVP
 70
    64
  9
$PINSBASE
 10
0.0
 20
0.0
 30
0.0
  9
$PLIMCHECK
 70
     0
  9
$PEXTMIN
 10
11.54075536349836
 20
4.391491168708682
 30
0.0
  9
$PEXTMAX
 10
278.9527666247095
 20
200.5225356522986
 30
0.0
  9
$PLIMMIN
 10
-3.174999952316283
 20
-3.174999952316283
  9
$PLIMMAX
 10
293.856829881668
 20
206.7983276844024
  9
$UNITMODE
 70
     0
  9
$VISRETAIN
 70
     1
  9
$PLINEGEN
 70
     0
  9
$PSLTSCALE
 70
     1
  9
$TREEDEPTH
 70
  3020
  9
$CMLSTYLE
  2
Standard
  9
$CMLJUST
 70
     0
  9
$CMLSCALE
 40
20.0
  9
$PROXYGRAPHICS
 70
     1
  9
$MEASUREMENT
 70
     1
  9
$CELWEIGHT
370
    -1
  9
$ENDCAPS
280
     0
  9
$JOINSTYLE
280
     0
  9
$LWDISPLAY
290
     0
  9
$INSUNITS
 70
     4
  9
$HYPERLINKBASE
  1

  9
$STYLESHEET
  1

  9
$XEDIT
290
     1
  9
$CEPSNTYPE
380
     0
  9
$PSTYLEMODE
290
     1
  9
$FINGERPRINTGUID
  2
{8D857D7B-D612-449F-BAF4-CB0812802B13}
  9
$VERSIONGUID
  2
{5592AA7C-25E2-4F34-9434-363535DC53BE}
  9
$EXTNAMES
290
     1
  9
$PSVPSCALE
 40
0.0
  9
$OLESTARTUP
290
     0
  0
ENDSEC
  0
SECTION
  2
CLASSES
  0
CLASS
  1
ACDBDICTIONARYWDFLT
  2
AcDbDictionaryWithDefault
  3
AutoCAD 2000
 90
        0
280
     0
281
     0
  0
CLASS
  1
ACDBPLACEHOLDER
  2
AcDbPlaceHolder
  3
AutoCAD 2000
 90
        0
280
     0
281
     0
  0
CLASS
  1
LAYOUT
  2
AcDbLayout
  3
AutoCAD 2000
 90
        0
280
     0
281
     0
  0
CLASS
  1
DIMASSOC
  2
AcDbDimAssoc
  3
"AcDbDimAssoc|Product Desc:     AcDim ARX App For Dimension|Company:          Autodesk, Inc.|WEB Address:      www.autodesk.com"
 90
        0
280
     0
281
     0
  0
CLASS
  1
DICTIONARYVAR
  2
AcDbDictionaryVar
  3
AutoCAD 2000
 90
        0
280
     0
281
     0
  0
CLASS
  1
SORTENTSTABLE
  2
AcDbSortentsTable
  3
AutoCAD 2000
 90
        0
280
     0
281
     0
  0
ENDSEC
  0
SECTION
  2
TABLES
  0
TABLE
  2
VPORT
  5
8
330
0
100
AcDbSymbolTable
 70
     4
  0
VPORT
  5
3E5B
330
8
100
AcDbSymbolTableRecord
100
AcDbViewportTableRecord
  2
*Active
 70
     0
 10
0.0
 20
0.0
 11
1.0
 21
1.0
 12
95.63769613969867
 22
260.8835020093209
 13
0.0
 23
0.0
 14
10.0
 24
10.0
 15
10.0
 25
10.0
 16
0.0
 26
0.0
 36
1.0
 17
0.0
 27
0.0
 37
0.0
 40
253.9892861838316
 41
1.527918781725888
 42
50.0
 43
0.0
 44
0.0
 50
0.0
 51
0.0
 71
     0
 72
   100
 73
     1
 74
     3
 75
     0
 76
     0
 77
     0
 78
     0
281
     0
 65
     1
110
0.0
120
0.0
130
0.0
111
1.0
121
0.0
131
0.0
112
0.0
122
1.0
132
0.0
 79
     0
146
0.0
  0
ENDTAB
  0
TABLE
  2
LTYPE
  5
5
330
0
100
AcDbSymbolTable
 70
     5
  0
LTYPE
  5
14
330
5
100
AcDbSymbolTableRecord
100
AcDbLinetypeTableRecord
  2
ByBlock
 70
     0
  3

 72
    65
 73
     0
 40
0.0
  0
LTYPE
  5
15
330
5
100
AcDbSymbolTableRecord
100
AcDbLinetypeTableRecord
  2
ByLayer
 70
     0
  3

 72
    65
 73
     0
 40
0.0
  0
LTYPE
  5
16
330
5
100
AcDbSymbolTableRecord
100
AcDbLinetypeTableRecord
  2
Continuous
 70
     0
  3
Solid line
 72
    65
 73
     0
 40
0.0
  0
LTYPE
  5
ABF
330
5
100
AcDbSymbolTableRecord
100
AcDbLinetypeTableRecord
  2
CENTER2
 70
     0
  3
Center (.5x) ___ _ ___ _ ___ _ ___ _ ___ _ ___
 72
    65
 73
     4
 40
28.57499999999999
 49
19.05
 74
     0
 49
-3.174999999999998
 74
     0
 49
3.174999999999998
 74
     0
 49
-3.174999999999998
 74
     0
  0
LTYPE
  5
AC9
330
5
100
AcDbSymbolTableRecord
100
AcDbLinetypeTableRecord
  2
CENTERX2
 70
     0
  3
Center (2x) ________  __  ________  __  _____
 72
    65
 73
     4
 40
101.6
 49
63.5
 74
     0
 49
-12.7
 74
     0
 49
12.7
 74
     0
 49
-12.7
 74
     0
  0
LTYPE
  5
BF3
330
5
100
AcDbSymbolTableRecord
100
AcDbLinetypeTableRecord
  2
HIDDEN2
 70
     0
  3
Hidden (.5x) _ _ _ _ _ _ _ _ _ _ _ _ _ _ _ _ _
 72
    65
 73
     2
 40
4.762499999999998
 49
3.174999999999998
 74
     0
 49
-1.587499999999999
 74
     0
  0
LTYPE
  5
1977
330
5
100
AcDbSymbolTableRecord
100
AcDbLinetypeTableRecord
  2
DASHED2
 70
     0
  3
Dashed (.5x) _ _ _ _ _ _ _ _ _ _ _ _ _ _ _ _ _
 72
    65
 73
     2
 40
9.524999999999996
 49
6.349999999999997
 74
     0
 49
-3.174999999999998
 74
     0
  0
ENDTAB
  0
TABLE
  2
LAYER
  5
2
330
0
100
AcDbSymbolTable
 70
    11
  0
LAYER
  5
10
330
2
100
AcDbSymbolTableRecord
100
AcDbLayerTableRecord
  2
0
 70
     0
 62
    -7
  6
Continuous
370
    -3
390
F
  0
LAYER
  5
6A
330
2
100
AcDbSymbolTableRecord
100
AcDbLayerTableRecord
  2
外形１
 70
     0
 62
     5
  6
Continuous
370
    -3
390
F
  0
LAYER
  5
6B
330
2
100
AcDbSymbolTableRecord
100
AcDbLayerTableRecord
  2
外形２
 70
     0
 62
     7
  6
Continuous
370
    -3
390
F
  0
LAYER
  5
960
330
2
100
AcDbSymbolTableRecord
100
AcDbLayerTableRecord
  2
寸法
 70
     0
 62
     1
  6
Continuous
370
    -3
390
F
  0
LAYER
  5
961
330
2
100
AcDbSymbolTableRecord
100
AcDbLayerTableRecord
  2
Defpoints
 70
     0
 62
    -7
  6
Continuous
290
     0
370
    -3
390
F
  0
LAYER
  5
AC0
330
2
100
AcDbSymbolTableRecord
100
AcDbLayerTableRecord
  2
中心線
 70
     0
 62
     5
  6
CENTER2
370
    -3
390
F
  0
LAYER
  5
AC7
330
2
100
AcDbSymbolTableRecord
100
AcDbLayerTableRecord
  2
隠れ線
 70
     0
 62
     3
  6
CENTERX2
370
    -3
390
F
  0
LAYER
  5
1978
330
2
100
AcDbSymbolTableRecord
100
AcDbLayerTableRecord
  2
細線
 70
     0
 62
     7
  6
DASHED2
370
     5
390
F
  0
LAYER
  5
1979
330
2
100
AcDbSymbolTableRecord
100
AcDbLayerTableRecord
  2
文字
 70
     0
 62
     7
  6
Continuous
370
     9
390
F
  0
LAYER
  5
197A
330
2
100
AcDbSymbolTableRecord
100
AcDbLayerTableRecord
  2
GAIKEI
 70
     0
 62
     7
  6
Continuous
370
    -3
390
F
  0
LAYER
  5
2943
330
2
100
AcDbSymbolTableRecord
100
AcDbLayerTableRecord
  2
フレーム
 70
     0
 62
     7
  6
Continuous
290
     0
370
    -3
390
F
  0
ENDTAB
  0
TABLE
  2
STYLE
  5
3
330
0
100
AcDbSymbolTable
 70
     5
  0
STYLE
  5
11
330
3
100
AcDbSymbolTableRecord
100
AcDbTextStyleTableRecord
  2
Standard
 70
     0
 40
0.0
 41
1.0
 50
0.0
 71
     0
 42
2.5
  3
txt
  4

  0
STYLE
  5
6C
330
3
100
AcDbSymbolTableRecord
100
AcDbTextStyleTableRecord
  2
STD
 70
     0
 40
0.0
 41
1.0
 50
0.0
 71
     0
 42
0.0
  3
txt
  4

  0
STYLE
  5
6D
330
3
100
AcDbSymbolTableRecord
100
AcDbTextStyleTableRecord
  2
0615
 70
     0
 40
0.0
 41
1.0
 50
0.0
 71
     0
 42
2.5
  3
simplex.shx
  4
bigfont.shx
  0
STYLE
  5
ABE
330
3
100
AcDbSymbolTableRecord
100
AcDbTextStyleTableRecord
  2

 70
     1
 40
0.0
 41
1.0
 50
0.0
 71
     0
 42
2.5
  3
ltypeshp.shx
  4

  0
STYLE
  5
2944
330
3
100
AcDbSymbolTableRecord
100
AcDbTextStyleTableRecord
  2
Roman
 70
     0
 40
0.0
 41
1.0
 50
0.0
 71
     0
 42
5.0
  3
romans
  4
bigfont
  0
ENDTAB
  0
TABLE
  2
VIEW
  5
6
330
0
100
AcDbSymbolTable
 70
     0
  0
ENDTAB
  0
TABLE
  2
UCS
  5
7
330
0
100
AcDbSymbolTable
 70
     0
  0
ENDTAB
  0
TABLE
  2
APPID
  5
9
330
0
100
AcDbSymbolTable
 70
     1
  0
APPID
  5
12
330
9
100
AcDbSymbolTableRecord
100
AcDbRegAppTableRecord
  2
ACAD
 70
     0
  0
ENDTAB
  0
TABLE
  2
DIMSTYLE
  5
A
330
0
100
AcDbSymbolTable
 70
     3
100
AcDbDimStyleTable
 71
     3
340
27
340
6E
340
6F
  0
DIMSTYLE
105
27
102
{ACAD_REACTORS
330
35C4
330
35CB
330
3677
330
367A
330
367D
330
3680
330
3683
330
36AF
102
}
330
A
100
AcDbSymbolTableRecord
100
AcDbDimStyleTableRecord
  2
ISO-25
 70
     0
 41
2.5
 42
0.625
 43
3.75
 44
1.25
 73
     0
 74
     0
 77
     1
 78
     8
140
2.5
141
2.5
143
0.03937007874016
147
0.625
171
     3
172
     1
271
     2
272
     2
274
     3
283
     0
284
     8
340
11
  0
DIMSTYLE
105
6E
330
A
100
AcDbSymbolTableRecord
100
AcDbDimStyleTableRecord
  2
Standard
 70
     0
340
11
  0
DIMSTYLE
105
6F
330
A
100
AcDbSymbolTableRecord
100
AcDbDimStyleTableRecord
  2
LINEEYE
 70
     0
 41
2.5
 42
1.0
 43
7.0
 44
1.0
 73
     0
 77
     1
 78
     8
140
2.5
141
0.0
143
0.0394
147
1.0
172
     1
176
   256
177
   256
178
   256
271
     1
272
     1
340
6D
371
    -1
372
    -1
  0
ENDTAB
  0
TABLE
  2
BLOCK_RECORD
  5
1
330
0
100
AcDbSymbolTable
 70
    17
  0
BLOCK_RECORD
  5
1F
102
{ACAD_XDICTIONARY
360
F87
102
}
330
1
100
AcDbSymbolTableRecord
100
AcDbBlockTableRecord
  2
*Model_Space
340
22
  0
BLOCK_RECORD
  5
3E2C
330
1
100
AcDbSymbolTableRecord
100
AcDbBlockTableRecord
  2
*Paper_Space
340
3E2D
  0
BLOCK_RECORD
  5
2B
330
1
100
AcDbSymbolTableRecord
100
AcDbBlockTableRecord
  2
AI9-BLK1
340
0
  0
BLOCK_RECORD
  5
2F
330
1
100
AcDbSymbolTableRecord
100
AcDbBlockTableRecord
  2
AI9-BLK2
340
0
  0
BLOCK_RECORD
  5
34
330
1
100
AcDbSymbolTableRecord
100
AcDbBlockTableRecord
  2
AI9-BLK3
340
0
102
{BLKREFS
331
30
102
}
  0
BLOCK_RECORD
  5
3E
330
1
100
AcDbSymbolTableRecord
100
AcDbBlockTableRecord
  2
AI9-BLK4
340
0
102
{BLKREFS
331
3A
102
}
  0
BLOCK_RECORD
  5
42
330
1
100
AcDbSymbolTableRecord
100
AcDbBlockTableRecord
  2
AI9-BLK5
340
0
  0
BLOCK_RECORD
  5
2078
330
1
100
AcDbSymbolTableRecord
100
AcDbBlockTableRecord
  2
*D5
340
0
  0
BLOCK_RECORD
  5
2090
330
1
100
AcDbSymbolTableRecord
100
AcDbBlockTableRecord
  2
*D6
340
0
  0
BLOCK_RECORD
  5
2126
330
1
100
AcDbSymbolTableRecord
100
AcDbBlockTableRecord
  2
*D7
340
0
  0
BLOCK_RECORD
  5
2164
330
1
100
AcDbSymbolTableRecord
100
AcDbBlockTableRecord
  2
*D8
340
0
  0
BLOCK_RECORD
  5
3CA2
330
1
100
AcDbSymbolTableRecord
100
AcDbBlockTableRecord
  2
*D9
340
0
  0
BLOCK_RECORD
  5
3CAE
330
1
100
AcDbSymbolTableRecord
100
AcDbBlockTableRecord
  2
*D10
340
0
  0
BLOCK_RECORD
  5
3CBA
330
1
100
AcDbSymbolTableRecord
100
AcDbBlockTableRecord
  2
*D11
340
0
  0
BLOCK_RECORD
  5
3CC6
330
1
100
AcDbSymbolTableRecord
100
AcDbBlockTableRecord
  2
*D12
340
0
  0
BLOCK_RECORD
  5
3CD2
330
1
100
AcDbSymbolTableRecord
100
AcDbBlockTableRecord
  2
*D13
340
0
  0
BLOCK_RECORD
  5
3CDE
330
1
100
AcDbSymbolTableRecord
100
AcDbBlockTableRecord
  2
*D14
340
0
  0
BLOCK_RECORD
  5
3CEA
330
1
100
AcDbSymbolTableRecord
100
AcDbBlockTableRecord
  2
*D15
340
0
  0
BLOCK_RECORD
  5
3CFF
330
1
100
AcDbSymbolTableRecord
100
AcDbBlockTableRecord
  2
*D16
340
0
  0
ENDTAB
  0
ENDSEC
  0
SECTION
  2
BLOCKS
  0
BLOCK
  5
20
330
1F
100
AcDbEntity
  8
0
100
AcDbBlockBegin
  2
*Model_Space
 70
     0
 10
0.0
 20
0.0
 30
0.0
  3
*Model_Space
  1

  0
ENDBLK
  5
21
330
1F
100
AcDbEntity
  8
0
100
AcDbBlockEnd
  0
BLOCK
  5
3E2E
330
3E2C
100
AcDbEntity
 67
     1
  8
0
100
AcDbBlockBegin
  2
*Paper_Space
 70
     0
 10
0.0
 20
0.0
 30
0.0
  3
*Paper_Space
  1

  0
ENDBLK
  5
3E2F
330
3E2C
100
AcDbEntity
 67
     1
  8
0
100
AcDbBlockEnd
  0
BLOCK
  5
2D
330
2B
100
AcDbEntity
  8
外形１
 62
     7
100
AcDbBlockBegin
  2
AI9-BLK1
 70
     0
 10
0.0
 20
0.0
 30
0.0
  3
AI9-BLK1
  1

  0
HATCH
  5
2C
330
2B
100
AcDbEntity
  8
外形１
 62
     7
100
AcDbHatch
 10
0.0
 20
0.0
 30
0.0
210
0.0
220
0.0
230
1.0
  2
SOLID
 70
     1
 71
     0
 91
        1
 92
        1
 93
        1
 72
     4
 94
        3
 73
     0
 74
     0
 95
       17
 96
       13
 40
0.0
 40
0.0
 40
0.0
 40
0.0
 40
1.0
 40
1.0
 40
1.0
 40
2.0
 40
2.0
 40
2.0
 40
3.0
 40
3.0
 40
3.0
 40
4.0
 40
4.0
 40
4.0
 40
4.0
 10
-0.4265028211805558
 20
-0.2425347222222222
 10
-0.4265028211805558
 20
-0.2425347222222222
 10
-0.4265028211805558
 20
0.2425347222222222
 10
-0.4265028211805558
 20
0.2425347222222222
 10
-0.4265028211805558
 20
0.2425347222222222
 10
0.4265028211805558
 20
0.2425347222222222
 10
0.4265028211805558
 20
0.2425347222222222
 10
0.4265028211805558
 20
0.2425347222222222
 10
0.4265028211805558
 20
-0.2425347222222222
 10
0.4265028211805558
 20
-0.2425347222222222
 10
0.4265028211805558
 20
-0.2425347222222222
 10
-0.4265028211805558
 20
-0.2425347222222222
 10
-0.4265028211805558
 20
-0.2425347222222222
 97
        0
 75
     0
 76
     1
 98
        1
 10
0.0
 20
0.0
  0
ENDBLK
  5
2E
330
2B
100
AcDbEntity
  8
外形１
100
AcDbBlockEnd
  0
BLOCK
  5
32
330
2F
100
AcDbEntity
  8
外形１
 62
     7
100
AcDbBlockBegin
  2
AI9-BLK2
 70
     0
 10
0.0
 20
0.0
 30
0.0
  3
AI9-BLK2
  1

  0
INSERT
  5
30
330
2F
100
AcDbEntity
  8
外形１
 62
     7
100
AcDbBlockReference
  2
AI9-BLK3
 10
0.0
 20
0.0
 30
0.0
  0
HATCH
  5
31
330
2F
100
AcDbEntity
  8
外形１
 62
     7
100
AcDbHatch
 10
0.0
 20
0.0
 30
0.0
210
0.0
220
0.0
230
1.0
  2
SOLID
 70
     1
 71
     0
 91
        1
 92
        1
 93
        1
 72
     4
 94
        3
 73
     0
 74
     0
 95
       32
 96
       28
 40
0.0
 40
0.0
 40
0.0
 40
0.0
 40
1.0
 40
1.0
 40
1.0
 40
2.0
 40
2.0
 40
2.0
 40
3.0
 40
3.0
 40
3.0
 40
4.0
 40
4.0
 40
4.0
 40
5.0
 40
5.0
 40
5.0
 40
6.0
 40
6.0
 40
6.0
 40
7.0
 40
7.0
 40
7.0
 40
8.0
 40
8.0
 40
8.0
 40
9.0
 40
9.0
 40
9.0
 40
9.0
 10
5.68897230360243
 20
2.320444064670136
 10
5.684838189019097
 20
2.32767876519097
 10
5.677258978949653
 20
2.331468370225693
 10
5.669679768880207
 20
2.331468370225693
 10
5.669679768880207
 20
2.331468370225693
 10
4.733302815755208
 20
2.331468370225693
 10
4.733302815755208
 20
2.331468370225693
 10
4.72503458658854
 20
2.331468370225693
 10
4.717455376519096
 20
2.32767876519097
 10
4.713321261935761
 20
2.320444064670136
 10
4.708498128255206
 20
2.313553873697915
 10
4.708498128255206
 20
2.305285644531249
 10
4.711943223741318
 20
2.297361924913194
 10
4.806338840060761
 20
2.086866590711804
 10
5.058519829644096
 20
1.55838894314236
 10
5.177031114366318
 20
1.323433430989582
 10
5.180476209852428
 20
1.315165201822916
 10
5.189433458116318
 20
1.309653049045137
 10
5.197701687282985
 20
1.309653049045137
 10
5.206658935546872
 20
1.309653049045137
 10
5.21492716471354
 20
1.315165201822916
 10
5.219061279296873
 20
1.323433430989582
 10
5.337572564019096
 20
1.55563286675347
 10
5.59319864908854
 20
2.084110514322916
 10
5.690350341796873
 20
2.297706434461805
 10
5.693795437282985
 20
2.305630154079858
 10
5.693106418185761
 20
2.313553873697915
 10
5.68897230360243
 20
2.320444064670136
 97
        0
 75
     0
 76
     1
 98
        1
 10
0.0
 20
0.0
  0
ENDBLK
  5
33
330
2F
100
AcDbEntity
  8
外形１
100
AcDbBlockEnd
  0
BLOCK
  5
3C
330
34
100
AcDbEntity
  8
外形１
 62
     7
100
AcDbBlockBegin
  2
AI9-BLK3
 70
     0
 10
0.0
 20
0.0
 30
0.0
  3
AI9-BLK3
  1

  0
HATCH
  5
35
330
34
100
AcDbEntity
  8
外形１
 62
     7
100
AcDbHatch
 10
0.0
 20
0.0
 30
0.0
210
0.0
220
0.0
230
1.0
  2
SOLID
 70
     1
 71
     0
 91
        1
 92
        1
 93
        1
 72
     4
 94
        3
 73
     0
 74
     0
 95
       47
 96
       43
 40
0.0
 40
0.0
 40
0.0
 40
0.0
 40
1.0
 40
1.0
 40
1.0
 40
2.0
 40
2.0
 40
2.0
 40
3.0
 40
3.0
 40
3.0
 40
4.0
 40
4.0
 40
4.0
 40
5.0
 40
5.0
 40
5.0
 40
6.0
 40
6.0
 40
6.0
 40
7.0
 40
7.0
 40
7.0
 40
8.0
 40
8.0
 40
8.0
 40
9.0
 40
9.0
 40
9.0
 40
10.0
 40
10.0
 40
10.0
 40
11.0
 40
11.0
 40
11.0
 40
12.0
 40
12.0
 40
12.0
 40
13.0
 40
13.0
 40
13.0
 40
14.0
 40
14.0
 40
14.0
 40
14.0
 10
-6.96675821940104
 20
-1.544264051649304
 10
-6.96675821940104
 20
-1.544264051649304
 10
-7.655432807074652
 20
-1.544264051649304
 10
-7.655432807074652
 20
-1.544264051649304
 10
-7.877985975477428
 20
-1.544264051649304
 10
-8.029225667317707
 20
-1.504989963107638
 10
-8.143602837456597
 20
-1.305174424913194
 10
-8.226974148220485
 20
-1.162547471788194
 10
-8.232830810546875
 20
-0.9413723415798608
 10
-8.232830810546875
 20
-0.5941067165798609
 10
-8.232830810546875
 20
-0.5941067165798609
 10
-8.232830810546875
 20
1.80643581814236
 10
-8.232830810546875
 20
1.80643581814236
 10
-8.232830810546875
 20
1.838130696614583
 10
-8.258324517144096
 20
1.863624403211805
 10
-8.289674886067707
 20
1.863624403211805
 10
-8.289674886067707
 20
1.863624403211805
 10
-8.873618570963538
 20
1.863624403211805
 10
-8.873618570963538
 20
1.863624403211805
 10
-8.905313449435762
 20
1.863624403211805
 10
-8.930807156032981
 20
1.838130696614583
 10
-8.930807156032981
 20
1.80643581814236
 10
-8.930807156032981
 20
1.80643581814236
 10
-8.930807156032981
 20
-0.6223564995659722
 10
-8.930807156032981
 20
-0.6223564995659722
 10
-8.930807156032981
 20
-1.177705891927083
 10
-8.889466010199647
 20
-1.542196994357638
 10
-8.670357937282981
 20
-1.882572428385415
 10
-8.401295979817707
 20
-2.30218505859375
 10
-8.100539143880206
 20
-2.334568956163193
 10
-7.705731201171873
 20
-2.334568956163193
 10
-7.705731201171873
 20
-2.334568956163193
 10
-6.96675821940104
 20
-2.334568956163193
 10
-6.96675821940104
 20
-2.334568956163193
 10
-6.935407850477428
 20
-2.334568956163193
 10
-6.909914143880207
 20
-2.30907524956597
 10
-6.909914143880207
 20
-2.27806939019097
 10
-6.909914143880207
 20
-2.27806939019097
 10
-6.909914143880207
 20
-1.601108127170136
 10
-6.909914143880207
 20
-1.601108127170136
 10
-6.909914143880207
 20
-1.569757758246525
 10
-6.935407850477428
 20
-1.544264051649304
 10
-6.96675821940104
 20
-1.544264051649304
 97
        0
 75
     0
 76
     1
 98
        1
 10
0.0
 20
0.0
  0
HATCH
  5
36
330
34
100
AcDbEntity
  8
外形１
 62
     7
100
AcDbHatch
 10
0.0
 20
0.0
 30
0.0
210
0.0
220
0.0
230
1.0
  2
SOLID
 70
     1
 71
     0
 91
        1
 92
        1
 93
        1
 72
     4
 94
        3
 73
     0
 74
     0
 95
       29
 96
       25
 40
0.0
 40
0.0
 40
0.0
 40
0.0
 40
1.0
 40
1.0
 40
1.0
 40
2.0
 40
2.0
 40
2.0
 40
3.0
 40
3.0
 40
3.0
 40
4.0
 40
4.0
 40
4.0
 40
5.0
 40
5.0
 40
5.0
 40
6.0
 40
6.0
 40
6.0
 40
7.0
 40
7.0
 40
7.0
 40
8.0
 40
8.0
 40
8.0
 40
8.0
 10
-5.704130723741316
 20
1.863624403211805
 10
-5.704130723741316
 20
1.863624403211805
 10
-6.315979682074653
 20
1.863624403211805
 10
-6.315979682074653
 20
1.863624403211805
 10
-6.346985541449653
 20
1.863624403211805
 10
-6.372479248046873
 20
1.838130696614583
 10
-6.372479248046873
 20
1.80643581814236
 10
-6.372479248046873
 20
1.80643581814236
 10
-6.372479248046873
 20
-2.27806939019097
 10
-6.372479248046873
 20
-2.27806939019097
 10
-6.372479248046873
 20
-2.30907524956597
 10
-6.346985541449653
 20
-2.334568956163193
 10
-6.315979682074653
 20
-2.334568956163193
 10
-6.315979682074653
 20
-2.334568956163193
 10
-5.704130723741316
 20
-2.334568956163193
 10
-5.704130723741316
 20
-2.334568956163193
 10
-5.672780354817707
 20
-2.334568956163193
 10
-5.647631157769096
 20
-2.30907524956597
 10
-5.647631157769096
 20
-2.27806939019097
 10
-5.647631157769096
 20
-2.27806939019097
 10
-5.647631157769096
 20
1.80643581814236
 10
-5.647631157769096
 20
1.80643581814236
 10
-5.647631157769096
 20
1.838130696614583
 10
-5.672780354817707
 20
1.863624403211805
 10
-5.704130723741316
 20
1.863624403211805
 97
        0
 75
     0
 76
     1
 98
        1
 10
0.0
 20
0.0
  0
HATCH
  5
37
330
34
100
AcDbEntity
  8
外形１
 62
     7
100
AcDbHatch
 10
0.0
 20
0.0
 30
0.0
210
0.0
220
0.0
230
1.0
  2
SOLID
 70
     1
 71
     0
 91
        1
 92
        1
 93
        1
 72
     4
 94
        3
 73
     0
 74
     0
 95
       65
 96
       61
 40
0.0
 40
0.0
 40
0.0
 40
0.0
 40
1.0
 40
1.0
 40
1.0
 40
2.0
 40
2.0
 40
2.0
 40
3.0
 40
3.0
 40
3.0
 40
4.0
 40
4.0
 40
4.0
 40
5.0
 40
5.0
 40
5.0
 40
6.0
 40
6.0
 40
6.0
 40
7.0
 40
7.0
 40
7.0
 40
8.0
 40
8.0
 40
8.0
 40
9.0
 40
9.0
 40
9.0
 40
10.0
 40
10.0
 40
10.0
 40
11.0
 40
11.0
 40
11.0
 40
12.0
 40
12.0
 40
12.0
 40
13.0
 40
13.0
 40
13.0
 40
14.0
 40
14.0
 40
14.0
 40
15.0
 40
15.0
 40
15.0
 40
16.0
 40
16.0
 40
16.0
 40
17.0
 40
17.0
 40
17.0
 40
18.0
 40
18.0
 40
18.0
 40
19.0
 40
19.0
 40
19.0
 40
20.0
 40
20.0
 40
20.0
 40
20.0
 10
-2.609056939019095
 20
1.863624403211805
 10
-2.609056939019095
 20
1.863624403211805
 10
-3.205058458116318
 20
1.863624403211805
 10
-3.205058458116318
 20
1.863624403211805
 10
-3.220216878255206
 20
1.863624403211805
 10
-3.234686279296874
 20
1.858112250434025
 10
-3.245366075303818
 20
1.84674343532986
 10
-3.256045871310763
 20
1.836063639322915
 10
-3.261558024088541
 20
1.821594238281249
 10
-3.261558024088541
 20
1.80643581814236
 10
-3.261558024088541
 20
1.80643581814236
 10
-3.242265489366318
 20
-0.3181545681423611
 10
-3.237786865234373
 20
-0.81700439453125
 10
-3.420721435546874
 20
-0.3443372938368055
 10
-4.262013753255208
 20
1.827106391059025
 10
-4.262013753255208
 20
1.827106391059025
 10
-4.270281982421873
 20
1.849155002170136
 10
-4.291986083984373
 20
1.863624403211805
 10
-4.315068223741318
 20
1.863624403211805
 10
-4.315068223741318
 20
1.863624403211805
 10
-5.054385715060761
 20
1.863624403211805
 10
-5.054385715060761
 20
1.863624403211805
 10
-5.085391574435761
 20
1.863624403211805
 10
-5.110885281032985
 20
1.838130696614583
 10
-5.110885281032985
 20
1.80643581814236
 10
-5.110885281032985
 20
1.80643581814236
 10
-5.110885281032985
 20
-2.27806939019097
 10
-5.110885281032985
 20
-2.27806939019097
 10
-5.110885281032985
 20
-2.30907524956597
 10
-5.085391574435761
 20
-2.334568956163193
 10
-5.054385715060761
 20
-2.334568956163193
 10
-5.054385715060761
 20
-2.334568956163193
 10
-4.454250081380208
 20
-2.334568956163193
 10
-4.454250081380208
 20
-2.334568956163193
 10
-4.439091661241318
 20
-2.334568956163193
 10
-4.424622260199652
 20
-2.328367784288194
 10
-4.414286973741318
 20
-2.318032497829858
 10
-4.403262668185761
 20
-2.307697211371525
 10
-4.397750515407985
 20
-2.29322781032986
 10
-4.397750515407985
 20
-2.27806939019097
 10
-4.397750515407985
 20
-2.27806939019097
 10
-4.41738755967882
 20
-0.0049953884548611
 10
-4.421866183810761
 20
0.4993665907118058
 10
-4.236520046657983
 20
0.0211873372395833
 10
-3.339072672526041
 20
-2.298739963107636
 10
-3.339072672526041
 20
-2.298739963107636
 10
-3.330459933810764
 20
-2.320788574218749
 10
-3.309444851345483
 20
-2.334568956163193
 10
-3.28636271158854
 20
-2.334568956163193
 10
-3.28636271158854
 20
-2.334568956163193
 10
-2.609056939019095
 20
-2.334568956163193
 10
-2.609056939019095
 20
-2.334568956163193
 10
-2.578051079644095
 20
-2.334568956163193
 10
-2.552557373046874
 20
-2.30907524956597
 10
-2.552557373046874
 20
-2.27806939019097
 10
-2.552557373046874
 20
-2.27806939019097
 10
-2.552557373046874
 20
1.80643581814236
 10
-2.552557373046874
 20
1.80643581814236
 10
-2.552557373046874
 20
1.838130696614583
 10
-2.578051079644095
 20
1.863624403211805
 10
-2.609056939019095
 20
1.863624403211805
 97
        0
 75
     0
 76
     1
 98
        1
 10
0.0
 20
0.0
  0
HATCH
  5
38
330
34
100
AcDbEntity
  8
外形１
 62
     7
100
AcDbHatch
 10
0.0
 20
0.0
 30
0.0
210
0.0
220
0.0
230
1.0
  2
SOLID
 70
     1
 71
     0
 91
        1
 92
        1
 93
        1
 72
     4
 94
        3
 73
     0
 74
     0
 95
       65
 96
       61
 40
0.0
 40
0.0
 40
0.0
 40
0.0
 40
1.0
 40
1.0
 40
1.0
 40
2.0
 40
2.0
 40
2.0
 40
3.0
 40
3.0
 40
3.0
 40
4.0
 40
4.0
 40
4.0
 40
5.0
 40
5.0
 40
5.0
 40
6.0
 40
6.0
 40
6.0
 40
7.0
 40
7.0
 40
7.0
 40
8.0
 40
8.0
 40
8.0
 40
9.0
 40
9.0
 40
9.0
 40
10.0
 40
10.0
 40
10.0
 40
11.0
 40
11.0
 40
11.0
 40
12.0
 40
12.0
 40
12.0
 40
13.0
 40
13.0
 40
13.0
 40
14.0
 40
14.0
 40
14.0
 40
15.0
 40
15.0
 40
15.0
 40
16.0
 40
16.0
 40
16.0
 40
17.0
 40
17.0
 40
17.0
 40
18.0
 40
18.0
 40
18.0
 40
19.0
 40
19.0
 40
19.0
 40
20.0
 40
20.0
 40
20.0
 40
20.0
 10
0.1876715766059028
 20
1.863624403211805
 10
0.1876715766059028
 20
1.863624403211805
 10
-0.7831563313802084
 20
1.863624403211805
 10
-0.7831563313802084
 20
1.863624403211805
 10
-1.714021131727428
 20
1.863624403211805
 10
-2.147758653428819
 20
1.173227267795136
 10
-2.147758653428819
 20
-0.3088528103298611
 10
-2.147758653428819
 20
-1.071596950954859
 10
-2.004098171657985
 20
-1.609720865885416
 10
-1.708853488498263
 20
-1.956297471788194
 10
-1.41085272894965
 20
-2.306319173177083
 10
-1.120775689019095
 20
-2.334568956163193
 10
-0.7986592610677084
 20
-2.334568956163193
 10
-0.7986592610677084
 20
-2.334568956163193
 10
0.1876715766059028
 20
-2.334568956163193
 10
0.1876715766059028
 20
-2.334568956163193
 10
0.2186774359809028
 20
-2.334568956163193
 10
0.2448601616753472
 20
-2.30907524956597
 10
0.2448601616753472
 20
-2.27806939019097
 10
0.2448601616753472
 20
-2.27806939019097
 10
0.2448601616753472
 20
-1.567001681857638
 10
0.2448601616753472
 20
-1.567001681857638
 10
0.2448601616753472
 20
-1.535306803385416
 10
0.2186774359809028
 20
-1.509813096788194
 10
0.1876715766059028
 20
-1.509813096788194
 10
0.1876715766059028
 20
-1.509813096788194
 10
-0.7721320258246527
 20
-1.509813096788194
 10
-0.7721320258246527
 20
-1.509813096788194
 10
-1.132489013671873
 20
-1.509813096788194
 10
-1.357798258463541
 20
-1.355472819010415
 10
-1.373645697699652
 20
-0.6223564995659722
 10
-1.263402642144095
 20
-0.6223564995659722
 10
0.1876715766059028
 20
-0.6223564995659722
 10
0.1876715766059028
 20
-0.6223564995659722
 10
0.2186774359809028
 20
-0.6223564995659722
 10
0.2448601616753472
 20
-0.59686279296875
 10
0.2448601616753472
 20
-0.5655124240451388
 10
0.2448601616753472
 20
-0.5655124240451388
 10
0.2448601616753472
 20
0.1452107747395833
 10
0.2448601616753472
 20
0.1452107747395833
 10
0.2448601616753472
 20
0.1769056532118055
 10
0.2186774359809028
 20
0.2023993598090278
 10
0.1876715766059028
 20
0.2023993598090278
 10
0.1876715766059028
 20
0.2023993598090278
 10
-1.252378336588541
 20
0.2023993598090278
 10
-1.36744452582465
 20
0.2023993598090278
 10
-1.323347303602428
 20
0.9455064561631944
 10
-1.009154595269097
 20
1.038868543836805
 10
-0.7721320258246527
 20
1.038868543836805
 10
-0.7721320258246527
 20
1.038868543836805
 10
0.1876715766059028
 20
1.038868543836805
 10
0.1876715766059028
 20
1.038868543836805
 10
0.2186774359809028
 20
1.038868543836805
 10
0.2448601616753472
 20
1.064362250434027
 10
0.2448601616753472
 20
1.096057128906249
 10
0.2448601616753472
 20
1.096057128906249
 10
0.2448601616753472
 20
1.80643581814236
 10
0.2448601616753472
 20
1.80643581814236
 10
0.2448601616753472
 20
1.838130696614583
 10
0.2186774359809028
 20
1.863624403211805
 10
0.1876715766059028
 20
1.863624403211805
 97
        0
 75
     0
 76
     1
 98
        1
 10
0.0
 20
0.0
  0
HATCH
  5
39
330
34
100
AcDbEntity
  8
外形１
 62
     7
100
AcDbHatch
 10
0.0
 20
0.0
 30
0.0
210
0.0
220
0.0
230
1.0
  2
SOLID
 70
     1
 71
     0
 91
        1
 92
        1
 93
        1
 72
     4
 94
        3
 73
     0
 74
     0
 95
       65
 96
       61
 40
0.0
 40
0.0
 40
0.0
 40
0.0
 40
1.0
 40
1.0
 40
1.0
 40
2.0
 40
2.0
 40
2.0
 40
3.0
 40
3.0
 40
3.0
 40
4.0
 40
4.0
 40
4.0
 40
5.0
 40
5.0
 40
5.0
 40
6.0
 40
6.0
 40
6.0
 40
7.0
 40
7.0
 40
7.0
 40
8.0
 40
8.0
 40
8.0
 40
9.0
 40
9.0
 40
9.0
 40
10.0
 40
10.0
 40
10.0
 40
11.0
 40
11.0
 40
11.0
 40
12.0
 40
12.0
 40
12.0
 40
13.0
 40
13.0
 40
13.0
 40
14.0
 40
14.0
 40
14.0
 40
15.0
 40
15.0
 40
15.0
 40
16.0
 40
16.0
 40
16.0
 40
17.0
 40
17.0
 40
17.0
 40
18.0
 40
18.0
 40
18.0
 40
19.0
 40
19.0
 40
19.0
 40
20.0
 40
20.0
 40
20.0
 40
20.0
 10
3.387820773654513
 20
1.863624403211805
 10
3.387820773654513
 20
1.863624403211805
 10
2.417337375217011
 20
1.863624403211805
 10
2.417337375217011
 20
1.863624403211805
 10
1.486128065321179
 20
1.863624403211805
 10
1.05239054361979
 20
1.173227267795136
 10
1.05239054361979
 20
-0.3088528103298611
 10
1.05239054361979
 20
-1.071596950954859
 10
1.195706515842011
 20
-1.609720865885416
 10
1.491640218098958
 20
-1.956297471788194
 10
1.788951958550345
 20
-2.306319173177083
 10
2.079373508029513
 20
-2.334568956163193
 10
2.4014899359809
 20
-2.334568956163193
 10
2.4014899359809
 20
-2.334568956163193
 10
3.387820773654513
 20
-2.334568956163193
 10
3.387820773654513
 20
-2.334568956163193
 10
3.419171142578123
 20
-2.334568956163193
 10
3.444320339626735
 20
-2.30907524956597
 10
3.444320339626735
 20
-2.27806939019097
 10
3.444320339626735
 20
-2.27806939019097
 10
3.444320339626735
 20
-1.567001681857638
 10
3.444320339626735
 20
-1.567001681857638
 10
3.444320339626735
 20
-1.535306803385416
 10
3.419171142578123
 20
-1.509813096788194
 10
3.387820773654513
 20
-1.509813096788194
 10
3.387820773654513
 20
-1.509813096788194
 10
2.428361680772568
 20
-1.509813096788194
 10
2.428361680772568
 20
-1.509813096788194
 10
2.068004692925345
 20
-1.509813096788194
 10
1.84269544813368
 20
-1.355472819010415
 10
1.826848008897569
 20
-0.6223564995659722
 10
1.9364020453559
 20
-0.6223564995659722
 10
3.387820773654513
 20
-0.6223564995659722
 10
3.387820773654513
 20
-0.6223564995659722
 10
3.419171142578123
 20
-0.6223564995659722
 10
3.444320339626735
 20
-0.59686279296875
 10
3.444320339626735
 20
-0.5655124240451388
 10
3.444320339626735
 20
-0.5655124240451388
 10
3.444320339626735
 20
0.1452107747395833
 10
3.444320339626735
 20
0.1452107747395833
 10
3.444320339626735
 20
0.1769056532118055
 10
3.419171142578123
 20
0.2023993598090278
 10
3.387820773654513
 20
0.2023993598090278
 10
3.387820773654513
 20
0.2023993598090278
 10
1.947081841362845
 20
0.2023993598090278
 10
1.833049180772569
 20
0.2023993598090278
 10
1.877146402994791
 20
0.9455064561631944
 10
2.191339111328124
 20
1.038868543836805
 10
2.428361680772568
 20
1.038868543836805
 10
2.428361680772568
 20
1.038868543836805
 10
3.387820773654513
 20
1.038868543836805
 10
3.387820773654513
 20
1.038868543836805
 10
3.419171142578123
 20
1.038868543836805
 10
3.444320339626735
 20
1.064362250434027
 10
3.444320339626735
 20
1.096057128906249
 10
3.444320339626735
 20
1.096057128906249
 10
3.444320339626735
 20
1.80643581814236
 10
3.444320339626735
 20
1.80643581814236
 10
3.444320339626735
 20
1.838130696614583
 10
3.419171142578123
 20
1.863624403211805
 10
3.387820773654513
 20
1.863624403211805
 97
        0
 75
     0
 76
     1
 98
        1
 10
0.0
 20
0.0
  0
INSERT
  5
3A
330
34
100
AcDbEntity
  8
外形１
 62
     7
100
AcDbBlockReference
  2
AI9-BLK4
 10
5.210707
 20
0.0
 30
0.0
  0
HATCH
  5
3B
330
34
100
AcDbEntity
  8
外形１
 62
     7
100
AcDbHatch
 10
0.0
 20
0.0
 30
0.0
210
0.0
220
0.0
230
1.0
  2
SOLID
 70
     1
 71
     0
 91
        1
 92
        1
 93
        1
 72
     4
 94
        3
 73
     0
 74
     0
 95
       65
 96
       61
 40
0.0
 40
0.0
 40
0.0
 40
0.0
 40
1.0
 40
1.0
 40
1.0
 40
2.0
 40
2.0
 40
2.0
 40
3.0
 40
3.0
 40
3.0
 40
4.0
 40
4.0
 40
4.0
 40
5.0
 40
5.0
 40
5.0
 40
6.0
 40
6.0
 40
6.0
 40
7.0
 40
7.0
 40
7.0
 40
8.0
 40
8.0
 40
8.0
 40
9.0
 40
9.0
 40
9.0
 40
10.0
 40
10.0
 40
10.0
 40
11.0
 40
11.0
 40
11.0
 40
12.0
 40
12.0
 40
12.0
 40
13.0
 40
13.0
 40
13.0
 40
14.0
 40
14.0
 40
14.0
 40
15.0
 40
15.0
 40
15.0
 40
16.0
 40
16.0
 40
16.0
 40
17.0
 40
17.0
 40
17.0
 40
18.0
 40
18.0
 40
18.0
 40
19.0
 40
19.0
 40
19.0
 40
20.0
 40
20.0
 40
20.0
 40
20.0
 10
7.915193006727426
 20
1.038868543836805
 10
7.915193006727426
 20
1.038868543836805
 10
8.874307590060762
 20
1.038868543836805
 10
8.874307590060762
 20
1.038868543836805
 10
8.906002468532982
 20
1.038868543836805
 10
8.930807156032981
 20
1.064362250434027
 10
8.930807156032981
 20
1.096057128906249
 10
8.930807156032981
 20
1.096057128906249
 10
8.930807156032981
 20
1.80643581814236
 10
8.930807156032981
 20
1.80643581814236
 10
8.930807156032981
 20
1.838130696614583
 10
8.906002468532982
 20
1.863624403211805
 10
8.874307590060762
 20
1.863624403211805
 10
8.874307590060762
 20
1.863624403211805
 10
7.903479682074652
 20
1.863624403211805
 10
7.903479682074652
 20
1.863624403211805
 10
6.972614881727427
 20
1.863624403211805
 10
6.539221869574651
 20
1.173227267795136
 10
6.539221869574651
 20
-0.3088528103298611
 10
6.539221869574651
 20
-1.071596950954859
 10
6.682537841796873
 20
-1.609720865885416
 10
6.978127034505207
 20
-1.956297471788194
 10
7.275094265407985
 20
-2.306319173177083
 10
7.565860324435762
 20
-2.334568956163193
 10
7.888321261935762
 20
-2.334568956163193
 10
7.888321261935762
 20
-2.334568956163193
 10
8.874307590060762
 20
-2.334568956163193
 10
8.874307590060762
 20
-2.334568956163193
 10
8.906002468532982
 20
-2.334568956163193
 10
8.930807156032981
 20
-2.30907524956597
 10
8.930807156032981
 20
-2.27806939019097
 10
8.930807156032981
 20
-2.27806939019097
 10
8.930807156032981
 20
-1.567001681857638
 10
8.930807156032981
 20
-1.567001681857638
 10
8.930807156032981
 20
-1.535306803385416
 10
8.906002468532982
 20
-1.509813096788194
 10
8.874307590060762
 20
-1.509813096788194
 10
8.874307590060762
 20
-1.509813096788194
 10
7.915193006727426
 20
-1.509813096788194
 10
7.915193006727426
 20
-1.509813096788194
 10
7.554836018880206
 20
-1.509813096788194
 10
7.328837754991316
 20
-1.355472819010415
 10
7.312990315755207
 20
-0.6223564995659722
 10
7.423233371310762
 20
-0.6223564995659722
 10
8.874307590060762
 20
-0.6223564995659722
 10
8.874307590060762
 20
-0.6223564995659722
 10
8.906002468532982
 20
-0.6223564995659722
 10
8.930807156032981
 20
-0.59686279296875
 10
8.930807156032981
 20
-0.5655124240451388
 10
8.930807156032981
 20
-0.5655124240451388
 10
8.930807156032981
 20
0.1452107747395833
 10
8.930807156032981
 20
0.1452107747395833
 10
8.930807156032981
 20
0.1769056532118055
 10
8.906002468532982
 20
0.2023993598090278
 10
8.874307590060762
 20
0.2023993598090278
 10
8.874307590060762
 20
0.2023993598090278
 10
7.434257676866316
 20
0.2023993598090278
 10
7.319191487630206
 20
0.2023993598090278
 10
7.36328870985243
 20
0.9455064561631944
 10
7.677481418185761
 20
1.038868543836805
 10
7.915193006727426
 20
1.038868543836805
 97
        0
 75
     0
 76
     1
 98
        1
 10
0.0
 20
0.0
  0
ENDBLK
  5
3D
330
34
100
AcDbEntity
  8
外形１
100
AcDbBlockEnd
  0
BLOCK
  5
40
330
3E
100
AcDbEntity
  8
外形１
 62
     7
100
AcDbBlockBegin
  2
AI9-BLK4
 70
     0
 10
0.0
 20
0.0
 30
0.0
  3
AI9-BLK4
  1

  0
HATCH
  5
3F
330
3E
100
AcDbEntity
  8
外形１
 62
     7
100
AcDbHatch
 10
0.0
 20
0.0
 30
0.0
210
0.0
220
0.0
230
1.0
  2
SOLID
 70
     1
 71
     0
 91
        1
 92
        1
 93
        1
 72
     4
 94
        3
 73
     0
 74
     0
 95
       62
 96
       58
 40
0.0
 40
0.0
 40
0.0
 40
0.0
 40
1.0
 40
1.0
 40
1.0
 40
2.0
 40
2.0
 40
2.0
 40
3.0
 40
3.0
 40
3.0
 40
4.0
 40
4.0
 40
4.0
 40
5.0
 40
5.0
 40
5.0
 40
6.0
 40
6.0
 40
6.0
 40
7.0
 40
7.0
 40
7.0
 40
8.0
 40
8.0
 40
8.0
 40
9.0
 40
9.0
 40
9.0
 40
10.0
 40
10.0
 40
10.0
 40
11.0
 40
11.0
 40
11.0
 40
12.0
 40
12.0
 40
12.0
 40
13.0
 40
13.0
 40
13.0
 40
14.0
 40
14.0
 40
14.0
 40
15.0
 40
15.0
 40
15.0
 40
16.0
 40
16.0
 40
16.0
 40
17.0
 40
17.0
 40
17.0
 40
18.0
 40
18.0
 40
18.0
 40
19.0
 40
19.0
 40
19.0
 40
19.0
 10
1.626860215928819
 20
2.334568956163193
 10
1.626860215928819
 20
2.334568956163193
 10
0.9502434624565971
 20
2.334568956163193
 10
0.9502434624565971
 20
2.334568956163193
 10
0.9268168131510416
 20
2.334568956163193
 10
0.9075242784288192
 20
2.322166612413193
 10
0.8978780110677082
 20
2.301840549045138
 10
0.8978780110677082
 20
2.301840549045138
 10
0.075189208984375
 20
0.7260538736979166
 10
-0.0150722927517361
 20
0.5338175455729166
 10
-0.1032667371961805
 20
0.7260538736979166
 10
-0.9163092719184028
 20
2.301840549045138
 10
-0.9163092719184028
 20
2.301840549045138
 10
-0.9259555392795135
 20
2.32147759331597
 10
-0.9459370930989582
 20
2.334568956163193
 10
-0.9693637424045139
 20
2.334568956163193
 10
-0.9693637424045139
 20
2.334568956163193
 10
-1.626171196831595
 20
2.334568956163193
 10
-1.626171196831595
 20
2.334568956163193
 10
-1.64615275065104
 20
2.334568956163193
 10
-1.664067247178819
 20
2.32457817925347
 10
-1.67440253363715
 20
2.30873074001736
 10
-1.68060370551215
 20
2.300462510850693
 10
-1.683359781901041
 20
2.290127224392358
 10
-1.683359781901041
 20
2.279791937934028
 10
-1.683359781901041
 20
2.27186821831597
 10
-1.681981743706595
 20
2.264289008246528
 10
-1.678192138671874
 20
2.257054307725693
 10
-1.678192138671874
 20
2.257054307725693
 10
-0.365093994140625
 20
-0.2840481228298611
 10
-0.3540696885850694
 20
-0.3057522243923611
 10
-0.3540696885850694
 20
-0.3295233832465278
 10
-0.3540696885850694
 20
-2.280136447482638
 10
-0.3540696885850694
 20
-2.280136447482638
 10
-0.3540696885850694
 20
-2.310453287760414
 10
-0.3292650010850694
 20
-2.334568956163193
 10
-0.2975701226128472
 20
-2.334568956163193
 10
-0.2975701226128472
 20
-2.334568956163193
 10
0.286029052734375
 20
-2.334568956163193
 10
0.286029052734375
 20
-2.334568956163193
 10
0.3177239312065972
 20
-2.334568956163193
 10
0.3432176378038194
 20
-2.310453287760414
 10
0.3432176378038194
 20
-2.280136447482638
 10
0.3432176378038194
 20
-2.280136447482638
 10
0.3432176378038194
 20
-0.33021240234375
 10
0.3432176378038194
 20
-0.3057522243923611
 10
0.354241943359375
 20
-0.2840481228298611
 10
1.678536648220485
 20
2.256709798177082
 10
1.678536648220485
 20
2.256709798177082
 10
1.681981743706595
 20
2.264289008246528
 10
1.683359781901041
 20
2.27186821831597
 10
1.683359781901041
 20
2.279791937934028
 10
1.683359781901041
 20
2.290127224392358
 10
1.68060370551215
 20
2.300462510850693
 10
1.675091552734374
 20
2.30873074001736
 10
1.664067247178819
 20
2.32457817925347
 10
1.64615275065104
 20
2.334568956163193
 10
1.626860215928819
 20
2.334568956163193
 97
        0
 75
     0
 76
     1
 98
        1
 10
0.0
 20
0.0
  0
ENDBLK
  5
41
330
3E
100
AcDbEntity
  8
外形１
100
AcDbBlockEnd
  0
BLOCK
  5
44
330
42
100
AcDbEntity
  8
外形１
 62
     7
100
AcDbBlockBegin
  2
AI9-BLK5
 70
     0
 10
0.0
 20
0.0
 30
0.0
  3
AI9-BLK5
  1

  0
HATCH
  5
43
330
42
100
AcDbEntity
  8
外形１
 62
     7
100
AcDbHatch
 10
0.0
 20
0.0
 30
0.0
210
0.0
220
0.0
230
1.0
  2
SOLID
 70
     1
 71
     0
 91
        1
 92
        1
 93
        1
 72
     4
 94
        3
 73
     0
 74
     0
 95
       17
 96
       13
 40
0.0
 40
0.0
 40
0.0
 40
0.0
 40
1.0
 40
1.0
 40
1.0
 40
2.0
 40
2.0
 40
2.0
 40
3.0
 40
3.0
 40
3.0
 40
4.0
 40
4.0
 40
4.0
 40
4.0
 10
-0.49144287109375
 20
-1.306380208333332
 10
-0.49144287109375
 20
-1.306380208333332
 10
0.2416734483506944
 20
1.306380208333332
 10
0.2416734483506944
 20
1.306380208333332
 10
0.2416734483506944
 20
1.306380208333332
 10
0.49144287109375
 20
1.306380208333332
 10
0.49144287109375
 20
1.306380208333332
 10
0.49144287109375
 20
1.306380208333332
 10
-0.2416734483506944
 20
-1.306380208333332
 10
-0.2416734483506944
 20
-1.306380208333332
 10
-0.2416734483506944
 20
-1.306380208333332
 10
-0.49144287109375
 20
-1.306380208333332
 10
-0.49144287109375
 20
-1.306380208333332
 97
        0
 75
     0
 76
     1
 98
        1
 10
0.0
 20
0.0
  0
ENDBLK
  5
45
330
42
100
AcDbEntity
  8
外形１
100
AcDbBlockEnd
  0
BLOCK
  5
2082
330
2078
100
AcDbEntity
  8
0
100
AcDbBlockBegin
  2
*D5
 70
     1
 10
0.0
 20
0.0
 30
0.0
  3
*D5
  1

  0
LINE
  5
2085
330
2078
100
AcDbEntity
  8
寸法
 62
     0
370
    -2
100
AcDbLine
 10
75.82399080928941
 20
115.545556830333
 30
0.0
 11
75.82399080928941
 21
121.6200265068434
 31
0.0
  0
LINE
  5
2086
330
2078
100
AcDbEntity
  8
寸法
 62
     0
370
    -2
100
AcDbLine
 10
165.8239908092894
 20
115.545556830333
 30
0.0
 11
165.8239908092894
 21
121.6200265068434
 31
0.0
  0
LINE
  5
2087
330
2078
100
AcDbEntity
  8
寸法
 62
     0
370
    -2
100
AcDbLine
 10
78.32399080928941
 20
120.3700265068434
 30
0.0
 11
163.3239908092894
 21
120.3700265068434
 31
0.0
  0
SOLID
  5
2088
330
2078
100
AcDbEntity
  8
寸法
 62
     0
100
AcDbTrace
 10
78.32399080928941
 20
120.7866931735102
 30
0.0
 11
78.32399080928941
 21
119.9533598401767
 31
0.0
 12
75.82399080928941
 22
120.3700265068434
 32
0.0
 13
75.82399080928941
 23
120.3700265068434
 33
0.0
  0
SOLID
  5
2089
330
2078
100
AcDbEntity
  8
寸法
 62
     0
100
AcDbTrace
 10
163.3239908092894
 20
120.7866931735102
 30
0.0
 11
163.3239908092894
 21
119.9533598401767
 31
0.0
 12
165.8239908092894
 22
120.3700265068434
 32
0.0
 13
165.8239908092894
 23
120.3700265068434
 33
0.0
  0
MTEXT
  5
208A
330
2078
100
AcDbEntity
  8
寸法
 62
     0
100
AcDbMText
 10
120.8239908092894
 20
122.2450265068434
 30
0.0
 40
2.5
 41
0.0
 71
     5
 72
     1
  1
90
 73
     1
 44
1.0
  0
POINT
  5
208B
330
2078
100
AcDbEntity
  8
Defpoints
 62
     0
100
AcDbPoint
 10
75.82399080928941
 20
114.9205568303329
 30
0.0
  0
POINT
  5
208C
330
2078
100
AcDbEntity
  8
Defpoints
 62
     0
100
AcDbPoint
 10
165.8239908092894
 20
114.9205568303329
 30
0.0
  0
POINT
  5
208D
330
2078
100
AcDbEntity
  8
Defpoints
 62
     0
100
AcDbPoint
 10
165.8239908092894
 20
120.3700265068434
 30
0.0
  0
ENDBLK
  5
2083
330
2078
100
AcDbEntity
  8
0
100
AcDbBlockEnd
  0
BLOCK
  5
209A
330
2090
100
AcDbEntity
  8
0
100
AcDbBlockBegin
  2
*D6
 70
     1
 10
0.0
 20
0.0
 30
0.0
  3
*D6
  1

  0
LINE
  5
209D
330
2090
100
AcDbEntity
  8
寸法
 62
     0
370
    -2
100
AcDbLine
 10
166.4489908092894
 20
114.9205568303329
 30
0.0
 11
173.9146100278701
 21
114.9205568303329
 31
0.0
  0
LINE
  5
209E
330
2090
100
AcDbEntity
  8
寸法
 62
     0
370
    -2
100
AcDbLine
 10
166.4489908092894
 20
49.92055683033299
 30
0.0
 11
173.9146100278701
 21
49.92055683033299
 31
0.0
  0
LINE
  5
209F
330
2090
100
AcDbEntity
  8
寸法
 62
     0
370
    -2
100
AcDbLine
 10
172.6646100278701
 20
112.420556830333
 30
0.0
 11
172.6646100278701
 21
52.42055683033299
 31
0.0
  0
SOLID
  5
20A0
330
2090
100
AcDbEntity
  8
寸法
 62
     0
100
AcDbTrace
 10
172.2479433612035
 20
112.420556830333
 30
0.0
 11
173.0812766945368
 21
112.420556830333
 31
0.0
 12
172.6646100278701
 22
114.9205568303329
 32
0.0
 13
172.6646100278701
 23
114.9205568303329
 33
0.0
  0
SOLID
  5
20A1
330
2090
100
AcDbEntity
  8
寸法
 62
     0
100
AcDbTrace
 10
172.2479433612034
 20
52.42055683033299
 30
0.0
 11
173.0812766945367
 21
52.42055683033299
 31
0.0
 12
172.6646100278701
 22
49.92055683033299
 32
0.0
 13
172.6646100278701
 23
49.92055683033299
 33
0.0
  0
MTEXT
  5
20A2
330
2090
100
AcDbEntity
  8
寸法
 62
     0
100
AcDbMText
 10
170.7896100278701
 20
82.42055683033303
 30
0.0
 40
2.5
 41
0.0
 71
     5
 72
     1
  1
65
 11
0.0000000000000001
 21
1.0
 31
0.0
 73
     1
 44
1.0
  0
POINT
  5
20A3
330
2090
100
AcDbEntity
  8
Defpoints
 62
     0
100
AcDbPoint
 10
165.8239908092894
 20
114.9205568303329
 30
0.0
  0
POINT
  5
20A4
330
2090
100
AcDbEntity
  8
Defpoints
 62
     0
100
AcDbPoint
 10
165.8239908092894
 20
49.92055683033299
 30
0.0
  0
POINT
  5
20A5
330
2090
100
AcDbEntity
  8
Defpoints
 62
     0
100
AcDbPoint
 10
172.6646100278701
 20
49.92055683033299
 30
0.0
  0
ENDBLK
  5
209B
330
2090
100
AcDbEntity
  8
0
100
AcDbBlockEnd
  0
BLOCK
  5
2132
330
2126
100
AcDbEntity
  8
0
100
AcDbBlockBegin
  2
*D7
 70
     1
 10
0.0
 20
0.0
 30
0.0
  3
*D7
  1

  0
LINE
  5
2135
330
2126
100
AcDbEntity
  8
寸法
 62
     0
370
    -2
100
AcDbLine
 10
77.19899080928938
 20
155.9279807897999
 30
0.0
 11
69.81154515588468
 21
155.9279807897999
 31
0.0
  0
LINE
  5
2136
330
2126
100
AcDbEntity
  8
寸法
 62
     0
370
    -2
100
AcDbLine
 10
81.16608153872084
 20
158.5279808481478
 30
0.0
 11
69.81154515588468
 21
158.5279808481478
 31
0.0
  0
LINE
  5
2137
330
2126
100
AcDbEntity
  8
寸法
 62
     0
370
    -2
100
AcDbLine
 10
71.06154515588468
 20
153.4279807897999
 30
0.0
 11
71.06154515588468
 21
150.9279807897998
 31
0.0
  0
LINE
  5
2138
330
2126
100
AcDbEntity
  8
寸法
 62
     0
370
    -2
100
AcDbLine
 10
71.0615451558847
 20
161.027980848148
 30
0.0
 11
71.0615451558847
 21
169.7779808481478
 31
0.0
  0
LINE
  5
2139
330
2126
100
AcDbEntity
  8
寸法
 62
     0
370
    -2
100
AcDbLine
 10
71.06154515588468
 20
155.9279807897999
 30
0.0
 11
71.06154515588468
 21
158.5279808481478
 31
0.0
  0
SOLID
  5
213A
330
2126
100
AcDbEntity
  8
寸法
 62
     0
100
AcDbTrace
 10
70.64487848921801
 20
153.4279807897999
 30
0.0
 11
71.47821182255134
 21
153.4279807897999
 31
0.0
 12
71.06154515588468
 22
155.9279807897999
 32
0.0
 13
71.06154515588468
 23
155.9279807897999
 33
0.0
  0
SOLID
  5
213B
330
2126
100
AcDbEntity
  8
寸法
 62
     0
100
AcDbTrace
 10
70.64487848921803
 20
161.027980848148
 30
0.0
 11
71.47821182255137
 21
161.027980848148
 31
0.0
 12
71.06154515588468
 22
158.5279808481478
 32
0.0
 13
71.06154515588468
 23
158.5279808481478
 33
0.0
  0
MTEXT
  5
213C
330
2126
100
AcDbEntity
  8
寸法
 62
     0
100
AcDbMText
 10
69.18654515588468
 20
166.6529808481478
 30
0.0
 40
2.5
 41
0.0
 71
     5
 72
     1
  1
2.6
 11
0.0000000000000001
 21
1.0
 31
0.0
 73
     1
 44
1.0
  0
POINT
  5
213D
330
2126
100
AcDbEntity
  8
Defpoints
 62
     0
100
AcDbPoint
 10
77.82399080928938
 20
155.9279807897999
 30
0.0
  0
POINT
  5
213E
330
2126
100
AcDbEntity
  8
Defpoints
 62
     0
100
AcDbPoint
 10
81.79108153872084
 20
158.5279808481478
 30
0.0
  0
POINT
  5
213F
330
2126
100
AcDbEntity
  8
Defpoints
 62
     0
100
AcDbPoint
 10
71.06154515588468
 20
158.5279808481478
 30
0.0
  0
ENDBLK
  5
2133
330
2126
100
AcDbEntity
  8
0
100
AcDbBlockEnd
  0
BLOCK
  5
216E
330
2164
100
AcDbEntity
  8
0
100
AcDbBlockBegin
  2
*D8
 70
     1
 10
0.0
 20
0.0
 30
0.0
  3
*D8
  1

  0
LINE
  5
2171
330
2164
100
AcDbEntity
  8
寸法
 62
     0
370
    -2
100
AcDbLine
 10
166.4489908092894
 20
132.7279807897997
 30
0.0
 11
173.9146100278701
 21
132.7279807897997
 31
0.0
  0
LINE
  5
2172
330
2164
100
AcDbEntity
  8
寸法
 62
     0
370
    -2
100
AcDbLine
 10
164.4489908092894
 20
155.9279807897999
 30
0.0
 11
173.9146100278701
 21
155.9279807897999
 31
0.0
  0
LINE
  5
2173
330
2164
100
AcDbEntity
  8
寸法
 62
     0
370
    -2
100
AcDbLine
 10
172.6646100278701
 20
135.2279807897998
 30
0.0
 11
172.6646100278701
 21
153.4279807897999
 31
0.0
  0
SOLID
  5
2174
330
2164
100
AcDbEntity
  8
寸法
 62
     0
100
AcDbTrace
 10
172.2479433612035
 20
135.2279807897998
 30
0.0
 11
173.0812766945368
 21
135.2279807897998
 31
0.0
 12
172.6646100278701
 22
132.7279807897997
 32
0.0
 13
172.6646100278701
 23
132.7279807897997
 33
0.0
  0
SOLID
  5
2175
330
2164
100
AcDbEntity
  8
寸法
 62
     0
100
AcDbTrace
 10
172.2479433612035
 20
153.4279807897999
 30
0.0
 11
173.0812766945368
 21
153.4279807897999
 31
0.0
 12
172.6646100278701
 22
155.9279807897999
 32
0.0
 13
172.6646100278701
 23
155.9279807897999
 33
0.0
  0
MTEXT
  5
2176
330
2164
100
AcDbEntity
  8
寸法
 62
     0
100
AcDbMText
 10
170.7896100278701
 20
144.3279807897999
 30
0.0
 40
2.5
 41
0.0
 71
     5
 72
     1
  1
23.2
 11
0.0000000000000001
 21
1.0
 31
0.0
 73
     1
 44
1.0
  0
POINT
  5
2177
330
2164
100
AcDbEntity
  8
Defpoints
 62
     0
100
AcDbPoint
 10
165.8239908092894
 20
132.7279807897997
 30
0.0
  0
POINT
  5
2178
330
2164
100
AcDbEntity
  8
Defpoints
 62
     0
100
AcDbPoint
 10
163.8239908092893
 20
155.9279807897999
 30
0.0
  0
POINT
  5
2179
330
2164
100
AcDbEntity
  8
Defpoints
 62
     0
100
AcDbPoint
 10
172.6646100278701
 20
155.9279807897999
 30
0.0
  0
ENDBLK
  5
216F
330
2164
100
AcDbEntity
  8
0
100
AcDbBlockEnd
  0
BLOCK
  5
3CAC
330
3CA2
100
AcDbEntity
  8
0
100
AcDbBlockBegin
  2
*D9
 70
     1
 10
0.0
 20
0.0
 30
0.0
  3
*D9
  1

  0
LINE
  5
3CF6
330
3CA2
100
AcDbEntity
  8
文字
 62
     0
370
    -2
100
AcDbLine
 10
25.30476050713528
 20
288.8385555246299
 30
0.0
 11
25.30476050713528
 21
310.1144670873665
 31
0.0
  0
LINE
  5
3CF7
330
3CA2
100
AcDbEntity
  8
文字
 62
     0
370
    -2
100
AcDbLine
 10
16.30476050713524
 20
299.7635555246298
 30
0.0
 11
16.30476050713524
 21
310.1144670873665
 31
0.0
  0
LINE
  5
3CF8
330
3CA2
100
AcDbEntity
  8
文字
 62
     0
370
    -2
100
AcDbLine
 10
22.80476050713528
 20
308.8644670873665
 30
0.0
 11
18.80476050713524
 21
308.8644670873665
 31
0.0
  0
SOLID
  5
3CF9
330
3CA2
100
AcDbEntity
  8
文字
 62
     0
100
AcDbTrace
 10
22.80476050713528
 20
309.2811337540331
 30
0.0
 11
22.80476050713528
 21
308.4478004206998
 31
0.0
 12
25.30476050713528
 22
308.8644670873665
 32
0.0
 13
25.30476050713528
 23
308.8644670873665
 33
0.0
  0
SOLID
  5
3CFA
330
3CA2
100
AcDbEntity
  8
文字
 62
     0
100
AcDbTrace
 10
18.80476050713524
 20
309.2811337540331
 30
0.0
 11
18.80476050713524
 21
308.4478004206998
 31
0.0
 12
16.30476050713524
 22
308.8644670873665
 32
0.0
 13
16.30476050713524
 23
308.8644670873665
 33
0.0
  0
MTEXT
  5
3CFB
330
3CA2
100
AcDbEntity
  8
文字
 62
     0
100
AcDbMText
 10
20.80476050713527
 20
310.7394670873665
 30
0.0
 40
2.5
 41
0.0
 71
     5
 72
     1
  1
9
 73
     1
 44
1.0
  0
POINT
  5
3CFC
330
3CA2
100
AcDbEntity
  8
Defpoints
 62
     0
100
AcDbPoint
 10
25.30476050713528
 20
288.2135555246299
 30
0.0
  0
POINT
  5
3CFD
330
3CA2
100
AcDbEntity
  8
Defpoints
 62
     0
100
AcDbPoint
 10
16.30476050713524
 20
299.1385555246298
 30
0.0
  0
POINT
  5
3CFE
330
3CA2
100
AcDbEntity
  8
Defpoints
 62
     0
100
AcDbPoint
 10
16.30476050713524
 20
308.8644670873665
 30
0.0
  0
ENDBLK
  5
3CAD
330
3CA2
100
AcDbEntity
  8
0
100
AcDbBlockEnd
  0
BLOCK
  5
3CB8
330
3CAE
100
AcDbEntity
  8
0
100
AcDbBlockBegin
  2
*D10
 70
     1
 10
0.0
 20
0.0
 30
0.0
  3
*D10
  1

  0
LINE
  5
3CAF
330
3CAE
100
AcDbEntity
  8
文字
 62
     0
370
    -2
100
AcDbLine
 10
177.876286873796
 20
307.1147392012564
 30
0.0
 11
177.876286873796
 21
316.8660361588553
 31
0.0
  0
LINE
  5
3CB0
330
3CAE
100
AcDbEntity
  8
文字
 62
     0
370
    -2
100
AcDbLine
 10
71.87246888190802
 20
287.53855552463
 30
0.0
 11
71.87246888190802
 21
316.8660361588553
 31
0.0
  0
LINE
  5
3CB1
330
3CAE
100
AcDbEntity
  8
文字
 62
     0
370
    -2
100
AcDbLine
 10
175.376286873796
 20
315.6160361588553
 30
0.0
 11
74.37246888190802
 21
315.6160361588553
 31
0.0
  0
SOLID
  5
3CB2
330
3CAE
100
AcDbEntity
  8
文字
 62
     0
100
AcDbTrace
 10
175.376286873796
 20
316.032702825522
 30
0.0
 11
175.376286873796
 21
315.1993694921886
 31
0.0
 12
177.876286873796
 22
315.6160361588553
 32
0.0
 13
177.876286873796
 23
315.6160361588553
 33
0.0
  0
SOLID
  5
3CB3
330
3CAE
100
AcDbEntity
  8
文字
 62
     0
100
AcDbTrace
 10
74.37246888190802
 20
316.032702825522
 30
0.0
 11
74.37246888190802
 21
315.1993694921886
 31
0.0
 12
71.87246888190802
 22
315.6160361588553
 32
0.0
 13
71.87246888190802
 23
315.6160361588553
 33
0.0
  0
MTEXT
  5
3CB4
330
3CAE
100
AcDbEntity
  8
文字
 62
     0
100
AcDbMText
 10
130.618957963117
 20
317.4910361588552
 30
0.0
 40
2.5
 41
0.0
 71
     5
 72
     1
  1
106
 73
     1
 44
1.0
  0
POINT
  5
3CB5
330
3CAE
100
AcDbEntity
  8
Defpoints
 62
     0
100
AcDbPoint
 10
177.876286873796
 20
306.4897392012562
 30
0.0
  0
POINT
  5
3CB6
330
3CAE
100
AcDbEntity
  8
Defpoints
 62
     0
100
AcDbPoint
 10
71.87246888190802
 20
286.91355552463
 30
0.0
  0
POINT
  5
3CB7
330
3CAE
100
AcDbEntity
  8
Defpoints
 62
     0
100
AcDbPoint
 10
71.87246888190802
 20
315.6160361588553
 30
0.0
  0
ENDBLK
  5
3CB9
330
3CAE
100
AcDbEntity
  8
0
100
AcDbBlockEnd
  0
BLOCK
  5
3CC4
330
3CBA
100
AcDbEntity
  8
0
100
AcDbBlockBegin
  2
*D11
 70
     1
 10
0.0
 20
0.0
 30
0.0
  3
*D11
  1

  0
LINE
  5
3CBB
330
3CBA
100
AcDbEntity
  8
文字
 62
     0
370
    -2
100
AcDbLine
 10
71.24746888190802
 20
286.91355552463
 30
0.0
 11
66.85577118365529
 21
286.91355552463
 31
0.0
  0
LINE
  5
3CBC
330
3CBA
100
AcDbEntity
  8
文字
 62
     0
370
    -2
100
AcDbLine
 10
71.24746888190795
 20
236.1135555246299
 30
0.0
 11
66.85577118365529
 21
236.1135555246299
 31
0.0
  0
LINE
  5
3CBD
330
3CBA
100
AcDbEntity
  8
文字
 62
     0
370
    -2
100
AcDbLine
 10
68.10577118365529
 20
284.41355552463
 30
0.0
 11
68.10577118365529
 21
238.6135555246299
 31
0.0
  0
SOLID
  5
3CBE
330
3CBA
100
AcDbEntity
  8
文字
 62
     0
100
AcDbTrace
 10
67.68910451698862
 20
284.41355552463
 30
0.0
 11
68.52243785032197
 21
284.41355552463
 31
0.0
 12
68.10577118365529
 22
286.91355552463
 32
0.0
 13
68.10577118365529
 23
286.91355552463
 33
0.0
  0
SOLID
  5
3CBF
330
3CBA
100
AcDbEntity
  8
文字
 62
     0
100
AcDbTrace
 10
67.68910451698862
 20
238.6135555246299
 30
0.0
 11
68.52243785032197
 21
238.6135555246299
 31
0.0
 12
68.10577118365529
 22
236.1135555246299
 32
0.0
 13
68.10577118365529
 23
236.1135555246299
 33
0.0
  0
MTEXT
  5
3CC0
330
3CBA
100
AcDbEntity
  8
文字
 62
     0
100
AcDbMText
 10
66.23077118365525
 20
261.5135555246299
 30
0.0
 40
2.5
 41
0.0
 71
     5
 72
     1
  1
50.8
 11
0.0000000000000001
 21
1.0
 31
0.0
 73
     1
 44
1.0
  0
POINT
  5
3CC1
330
3CBA
100
AcDbEntity
  8
Defpoints
 62
     0
100
AcDbPoint
 10
71.87246888190802
 20
286.91355552463
 30
0.0
  0
POINT
  5
3CC2
330
3CBA
100
AcDbEntity
  8
Defpoints
 62
     0
100
AcDbPoint
 10
71.87246888190795
 20
236.1135555246299
 30
0.0
  0
POINT
  5
3CC3
330
3CBA
100
AcDbEntity
  8
Defpoints
 62
     0
100
AcDbPoint
 10
68.10577118365529
 20
236.1135555246299
 30
0.0
  0
ENDBLK
  5
3CC5
330
3CBA
100
AcDbEntity
  8
0
100
AcDbBlockEnd
  0
BLOCK
  5
3CD0
330
3CC6
100
AcDbEntity
  8
0
100
AcDbBlockBegin
  2
*D12
 70
     1
 10
0.0
 20
0.0
 30
0.0
  3
*D12
  1

  0
LINE
  5
3CC7
330
3CC6
100
AcDbEntity
  8
文字
 62
     0
370
    -2
100
AcDbLine
 10
177.876286873796
 20
299.1385555246298
 30
0.0
 11
177.876286873796
 21
310.2179127472036
 31
0.0
  0
LINE
  5
3CC8
330
3CC6
100
AcDbEntity
  8
文字
 62
     0
370
    -2
100
AcDbLine
 10
82.87628687379607
 20
299.1385555246298
 30
0.0
 11
82.87628687379607
 21
310.2179127472036
 31
0.0
  0
LINE
  5
3CC9
330
3CC6
100
AcDbEntity
  8
文字
 62
     0
370
    -2
100
AcDbLine
 10
175.376286873796
 20
308.9679127472036
 30
0.0
 11
85.37628687379607
 21
308.9679127472036
 31
0.0
  0
SOLID
  5
3CCA
330
3CC6
100
AcDbEntity
  8
文字
 62
     0
100
AcDbTrace
 10
175.376286873796
 20
309.3845794138703
 30
0.0
 11
175.376286873796
 21
308.5512460805369
 31
0.0
 12
177.876286873796
 22
308.9679127472036
 32
0.0
 13
177.876286873796
 23
308.9679127472036
 33
0.0
  0
SOLID
  5
3CCB
330
3CC6
100
AcDbEntity
  8
文字
 62
     0
100
AcDbTrace
 10
85.37628687379607
 20
309.3845794138703
 30
0.0
 11
85.37628687379607
 21
308.5512460805369
 31
0.0
 12
82.87628687379607
 22
308.9679127472036
 32
0.0
 13
82.87628687379607
 23
308.9679127472036
 33
0.0
  0
MTEXT
  5
3CCC
330
3CC6
100
AcDbEntity
  8
文字
 62
     0
100
AcDbMText
 10
130.376286873796
 20
310.8429127472037
 30
0.0
 40
2.5
 41
0.0
 71
     5
 72
     1
  1
95
 73
     1
 44
1.0
  0
POINT
  5
3CCD
330
3CC6
100
AcDbEntity
  8
Defpoints
 62
     0
100
AcDbPoint
 10
177.876286873796
 20
298.5135555246298
 30
0.0
  0
POINT
  5
3CCE
330
3CC6
100
AcDbEntity
  8
Defpoints
 62
     0
100
AcDbPoint
 10
82.87628687379607
 20
298.5135555246298
 30
0.0
  0
POINT
  5
3CCF
330
3CC6
100
AcDbEntity
  8
Defpoints
 62
     0
100
AcDbPoint
 10
82.87628687379607
 20
308.9679127472036
 30
0.0
  0
ENDBLK
  5
3CD1
330
3CC6
100
AcDbEntity
  8
0
100
AcDbBlockEnd
  0
BLOCK
  5
3CDC
330
3CD2
100
AcDbEntity
  8
0
100
AcDbBlockBegin
  2
*D13
 70
     1
 10
0.0
 20
0.0
 30
0.0
  3
*D13
  1

  0
LINE
  5
3CD3
330
3CD2
100
AcDbEntity
  8
文字
 62
     0
370
    -2
100
AcDbLine
 10
178.501286873796
 20
298.5135555246298
 30
0.0
 11
189.9823292362087
 21
298.5135555246298
 31
0.0
  0
LINE
  5
3CD4
330
3CD2
100
AcDbEntity
  8
文字
 62
     0
370
    -2
100
AcDbLine
 10
178.501286873796
 20
224.5135555246299
 30
0.0
 11
189.9823292362087
 21
224.5135555246299
 31
0.0
  0
LINE
  5
3CD5
330
3CD2
100
AcDbEntity
  8
文字
 62
     0
370
    -2
100
AcDbLine
 10
188.7323292362087
 20
296.0135555246298
 30
0.0
 11
188.7323292362087
 21
227.0135555246298
 31
0.0
  0
SOLID
  5
3CD6
330
3CD2
100
AcDbEntity
  8
文字
 62
     0
100
AcDbTrace
 10
188.315662569542
 20
296.0135555246298
 30
0.0
 11
189.1489959028754
 21
296.0135555246298
 31
0.0
 12
188.7323292362087
 22
298.5135555246298
 32
0.0
 13
188.7323292362087
 23
298.5135555246298
 33
0.0
  0
SOLID
  5
3CD7
330
3CD2
100
AcDbEntity
  8
文字
 62
     0
100
AcDbTrace
 10
188.315662569542
 20
227.0135555246298
 30
0.0
 11
189.1489959028754
 21
227.0135555246298
 31
0.0
 12
188.7323292362087
 22
224.5135555246299
 32
0.0
 13
188.7323292362087
 23
224.5135555246299
 33
0.0
  0
MTEXT
  5
3CD8
330
3CD2
100
AcDbEntity
  8
文字
 62
     0
100
AcDbMText
 10
186.8573292362087
 20
261.5135555246299
 30
0.0
 40
2.5
 41
0.0
 71
     5
 72
     1
  1
74
 11
0.0000000000000001
 21
1.0
 31
0.0
 73
     1
 44
1.0
  0
POINT
  5
3CD9
330
3CD2
100
AcDbEntity
  8
Defpoints
 62
     0
100
AcDbPoint
 10
177.876286873796
 20
298.5135555246298
 30
0.0
  0
POINT
  5
3CDA
330
3CD2
100
AcDbEntity
  8
Defpoints
 62
     0
100
AcDbPoint
 10
177.876286873796
 20
224.5135555246299
 30
0.0
  0
POINT
  5
3CDB
330
3CD2
100
AcDbEntity
  8
Defpoints
 62
     0
100
AcDbPoint
 10
188.7323292362087
 20
224.5135555246299
 30
0.0
  0
ENDBLK
  5
3CDD
330
3CD2
100
AcDbEntity
  8
0
100
AcDbBlockEnd
  0
BLOCK
  5
3CE8
330
3CDE
100
AcDbEntity
  8
0
100
AcDbBlockBegin
  2
*D14
 70
     1
 10
0.0
 20
0.0
 30
0.0
  3
*D14
  1

  0
LINE
  5
3CDF
330
3CDE
100
AcDbEntity
  8
文字
 62
     0
370
    -2
100
AcDbLine
 10
16.30476050713524
 20
299.1385555246298
 30
0.0
 11
16.30476050713524
 21
316.8045199027908
 31
0.0
  0
LINE
  5
3CE0
330
3CDE
100
AcDbEntity
  8
文字
 62
     0
370
    -2
100
AcDbLine
 10
43.30476050713524
 20
299.1385555246298
 30
0.0
 11
43.30476050713524
 21
316.8045199027908
 31
0.0
  0
LINE
  5
3CE1
330
3CDE
100
AcDbEntity
  8
文字
 62
     0
370
    -2
100
AcDbLine
 10
18.80476050713524
 20
315.5545199027908
 30
0.0
 11
40.80476050713524
 21
315.5545199027908
 31
0.0
  0
SOLID
  5
3CE2
330
3CDE
100
AcDbEntity
  8
文字
 62
     0
100
AcDbTrace
 10
18.80476050713524
 20
315.9711865694576
 30
0.0
 11
18.80476050713524
 21
315.1378532361242
 31
0.0
 12
16.30476050713524
 22
315.5545199027908
 32
0.0
 13
16.30476050713524
 23
315.5545199027908
 33
0.0
  0
SOLID
  5
3CE3
330
3CDE
100
AcDbEntity
  8
文字
 62
     0
100
AcDbTrace
 10
40.80476050713524
 20
315.9711865694576
 30
0.0
 11
40.80476050713524
 21
315.1378532361242
 31
0.0
 12
43.30476050713524
 22
315.5545199027908
 32
0.0
 13
43.30476050713524
 23
315.5545199027908
 33
0.0
  0
MTEXT
  5
3CE4
330
3CDE
100
AcDbEntity
  8
文字
 62
     0
100
AcDbMText
 10
29.80476050713525
 20
317.4295199027908
 30
0.0
 40
2.5
 41
0.0
 71
     5
 72
     1
  1
27
 73
     1
 44
1.0
  0
POINT
  5
3CE5
330
3CDE
100
AcDbEntity
  8
Defpoints
 62
     0
100
AcDbPoint
 10
16.30476050713524
 20
298.5135555246298
 30
0.0
  0
POINT
  5
3CE6
330
3CDE
100
AcDbEntity
  8
Defpoints
 62
     0
100
AcDbPoint
 10
43.30476050713524
 20
298.5135555246298
 30
0.0
  0
POINT
  5
3CE7
330
3CDE
100
AcDbEntity
  8
Defpoints
 62
     0
100
AcDbPoint
 10
43.30476050713524
 20
315.5545199027908
 30
0.0
  0
ENDBLK
  5
3CE9
330
3CDE
100
AcDbEntity
  8
0
100
AcDbBlockEnd
  0
BLOCK
  5
3CF4
330
3CEA
100
AcDbEntity
  8
0
100
AcDbBlockBegin
  2
*D15
 70
     1
 10
0.0
 20
0.0
 30
0.0
  3
*D15
  1

  0
LINE
  5
3CEB
330
3CEA
100
AcDbEntity
  8
文字
 62
     0
370
    -2
100
AcDbLine
 10
25.30476050713528
 20
288.8385555246299
 30
0.0
 11
25.30476050713528
 21
310.1144670873665
 31
0.0
  0
LINE
  5
3CEC
330
3CEA
100
AcDbEntity
  8
文字
 62
     0
370
    -2
100
AcDbLine
 10
40.5047605071353
 20
287.5385555246298
 30
0.0
 11
40.5047605071353
 21
310.1144670873665
 31
0.0
  0
LINE
  5
3CED
330
3CEA
100
AcDbEntity
  8
文字
 62
     0
370
    -2
100
AcDbLine
 10
27.80476050713528
 20
308.8644670873665
 30
0.0
 11
38.00476050713529
 21
308.8644670873665
 31
0.0
  0
SOLID
  5
3CEE
330
3CEA
100
AcDbEntity
  8
文字
 62
     0
100
AcDbTrace
 10
27.80476050713528
 20
309.2811337540331
 30
0.0
 11
27.80476050713528
 21
308.4478004206998
 31
0.0
 12
25.30476050713528
 22
308.8644670873665
 32
0.0
 13
25.30476050713528
 23
308.8644670873665
 33
0.0
  0
SOLID
  5
3CEF
330
3CEA
100
AcDbEntity
  8
文字
 62
     0
100
AcDbTrace
 10
38.00476050713529
 20
309.2811337540331
 30
0.0
 11
38.00476050713529
 21
308.4478004206998
 31
0.0
 12
40.5047605071353
 22
308.8644670873665
 32
0.0
 13
40.5047605071353
 23
308.8644670873665
 33
0.0
  0
MTEXT
  5
3CF0
330
3CEA
100
AcDbEntity
  8
文字
 62
     0
100
AcDbMText
 10
32.90476050713529
 20
310.7394670873665
 30
0.0
 40
2.5
 41
0.0
 71
     5
 72
     1
  1
15.2
 73
     1
 44
1.0
  0
POINT
  5
3CF1
330
3CEA
100
AcDbEntity
  8
Defpoints
 62
     0
100
AcDbPoint
 10
25.30476050713528
 20
288.2135555246299
 30
0.0
  0
POINT
  5
3CF2
330
3CEA
100
AcDbEntity
  8
Defpoints
 62
     0
100
AcDbPoint
 10
40.5047605071353
 20
286.9135555246298
 30
0.0
  0
POINT
  5
3CF3
330
3CEA
100
AcDbEntity
  8
Defpoints
 62
     0
100
AcDbPoint
 10
40.5047605071353
 20
308.8644670873665
 30
0.0
  0
ENDBLK
  5
3CF5
330
3CEA
100
AcDbEntity
  8
0
100
AcDbBlockEnd
  0
BLOCK
  5
3D0B
330
3CFF
100
AcDbEntity
  8
0
100
AcDbBlockBegin
  2
*D16
 70
     1
 10
0.0
 20
0.0
 30
0.0
  3
*D16
  1

  0
LINE
  5
3D00
330
3CFF
100
AcDbEntity
  8
文字
 62
     0
370
    -2
100
AcDbLine
 10
227.876286873796
 20
299.1385555246298
 30
0.0
 11
227.876286873796
 21
310.129546422868
 31
0.0
  0
LINE
  5
3D01
330
3CFF
100
AcDbEntity
  8
文字
 62
     0
370
    -2
100
AcDbLine
 10
230.4762868737959
 20
295.0725625603086
 30
0.0
 11
230.4762868737959
 21
310.129546422868
 31
0.0
  0
LINE
  5
3D02
330
3CFF
100
AcDbEntity
  8
文字
 62
     0
370
    -2
100
AcDbLine
 10
232.9762868737959
 20
308.8795464228681
 30
0.0
 11
235.476286873796
 21
308.8795464228681
 31
0.0
  0
LINE
  5
3D03
330
3CFF
100
AcDbEntity
  8
文字
 62
     0
370
    -2
100
AcDbLine
 10
225.376286873796
 20
308.8795464228681
 30
0.0
 11
206.1739059214151
 21
308.8795464228681
 31
0.0
  0
LINE
  5
3D04
330
3CFF
100
AcDbEntity
  8
文字
 62
     0
370
    -2
100
AcDbLine
 10
230.4762868737959
 20
308.8795464228681
 30
0.0
 11
227.876286873796
 21
308.8795464228681
 31
0.0
  0
SOLID
  5
3D05
330
3CFF
100
AcDbEntity
  8
文字
 62
     0
100
AcDbTrace
 10
232.9762868737959
 20
309.2962130895346
 30
0.0
 11
232.9762868737959
 21
308.4628797562013
 31
0.0
 12
230.4762868737959
 22
308.8795464228681
 32
0.0
 13
230.4762868737959
 23
308.8795464228681
 33
0.0
  0
SOLID
  5
3D06
330
3CFF
100
AcDbEntity
  8
文字
 62
     0
100
AcDbTrace
 10
225.376286873796
 20
309.2962130895346
 30
0.0
 11
225.376286873796
 21
308.4628797562013
 31
0.0
 12
227.876286873796
 22
308.8795464228681
 32
0.0
 13
227.876286873796
 23
308.8795464228681
 33
0.0
  0
MTEXT
  5
3D07
330
3CFF
100
AcDbEntity
  8
文字
 62
     0
100
AcDbMText
 10
214.5250963976055
 20
311.4093083276299
 30
0.0
 40
2.5
 41
0.0
 71
     5
 72
     1
  1
2.6(ｺﾞﾑ足)
  7
0615
 73
     1
 44
1.0
  0
POINT
  5
3D08
330
3CFF
100
AcDbEntity
  8
Defpoints
 62
     0
100
AcDbPoint
 10
227.876286873796
 20
298.5135555246298
 30
0.0
  0
POINT
  5
3D09
330
3CFF
100
AcDbEntity
  8
Defpoints
 62
     0
100
AcDbPoint
 10
230.4762868737959
 20
294.4475625603086
 30
0.0
  0
POINT
  5
3D0A
330
3CFF
100
AcDbEntity
  8
Defpoints
 62
     0
100
AcDbPoint
 10
230.4762868737959
 20
308.8795464228681
 30
0.0
  0
ENDBLK
  5
3D0C
330
3CFF
100
AcDbEntity
  8
0
100
AcDbBlockEnd
  0
ENDSEC
  0
SECTION
  2
ENTITIES
  0
LINE
  5
33AE
330
1F
100
AcDbEntity
  8
Defpoints
100
AcDbLine
 10
32.18472704188207
 20
261.5135555246299
 30
0.0
 11
238.0651593982701
 21
261.5135555246299
 31
0.0
  0
LINE
  5
33AF
102
{ACAD_REACTORS
330
3679
330
367C
102
}
330
1F
100
AcDbEntity
  8
文字
100
AcDbLine
 10
82.87628687379607
 20
298.5135555246298
 30
0.0
 11
177.876286873796
 21
298.5135555246298
 31
0.0
  0
LINE
  5
33B0
102
{ACAD_REACTORS
330
367C
102
}
330
1F
100
AcDbEntity
  8
文字
100
AcDbLine
 10
82.87628687379607
 20
224.5135555246299
 30
0.0
 11
177.876286873796
 21
224.5135555246299
 31
0.0
  0
LINE
  5
33B1
330
1F
100
AcDbEntity
  8
Defpoints
100
AcDbLine
 10
130.376286873796
 20
174.0761266902232
 30
0.0
 11
130.376286873796
 21
323.4484010674258
 31
0.0
  0
LINE
  5
33B2
330
1F
100
AcDbEntity
  8
文字
100
AcDbLine
 10
82.87628687379607
 20
298.5135555246298
 30
0.0
 11
82.87628687379607
 21
224.5135555246299
 31
0.0
  0
LINE
  5
33B3
102
{ACAD_REACTORS
330
367F
102
}
330
1F
100
AcDbEntity
  8
文字
100
AcDbLine
 10
43.30476050713524
 20
298.5135555246298
 30
0.0
 11
43.30476050713524
 21
224.5135555246299
 31
0.0
  0
LINE
  5
33B4
102
{ACAD_REACTORS
330
367F
102
}
330
1F
100
AcDbEntity
  8
文字
100
AcDbLine
 10
16.30476050713524
 20
224.5135555246299
 30
0.0
 11
16.30476050713524
 21
298.5135555246298
 31
0.0
  0
LINE
  5
33B5
330
1F
100
AcDbEntity
  8
文字
100
AcDbLine
 10
43.30476050713524
 20
224.5135555246299
 30
0.0
 11
16.30476050713524
 21
224.5135555246299
 31
0.0
  0
LINE
  5
33B6
330
1F
100
AcDbEntity
  8
文字
100
AcDbLine
 10
25.30476050713528
 20
234.8135555246298
 30
0.0
 11
34.30476050713528
 21
234.8135555246298
 31
0.0
  0
LINE
  5
33B7
330
1F
100
AcDbEntity
  8
文字
100
AcDbLine
 10
16.30476050713524
 20
298.5135555246298
 30
0.0
 11
43.30476050713524
 21
298.5135555246298
 31
0.0
  0
LINE
  5
33B8
330
1F
100
AcDbEntity
  8
文字
100
AcDbLine
 10
25.30476050713528
 20
288.2135555246299
 30
0.0
 11
34.30476050713528
 21
288.2135555246299
 31
0.0
  0
LINE
  5
33B9
330
1F
100
AcDbEntity
  8
文字
100
AcDbLine
 10
177.876286873796
 20
298.5135555246298
 30
0.0
 11
177.876286873796
 21
224.5135555246299
 31
0.0
  0
LINE
  5
33BA
330
1F
100
AcDbEntity
  8
文字
100
AcDbLine
 10
200.876286873796
 20
298.5135555246298
 30
0.0
 11
200.876286873796
 21
224.5135555246299
 31
0.0
  0
LINE
  5
33BB
330
1F
100
AcDbEntity
  8
文字
100
AcDbLine
 10
227.876286873796
 20
224.5135555246299
 30
0.0
 11
227.876286873796
 21
298.5135555246298
 31
0.0
  0
LINE
  5
33BC
330
1F
100
AcDbEntity
  8
文字
100
AcDbLine
 10
201.8762868737959
 20
296.5135555246298
 30
0.0
 11
201.8762868737959
 21
226.5135555246299
 31
0.0
  0
LINE
  5
33BD
330
1F
100
AcDbEntity
  8
文字
100
AcDbLine
 10
200.876286873796
 20
224.5135555246299
 30
0.0
 11
227.876286873796
 21
224.5135555246299
 31
0.0
  0
LINE
  5
33BE
330
1F
100
AcDbEntity
  8
文字
100
AcDbLine
 10
202.876286873796
 20
225.5135555246299
 30
0.0
 11
227.876286873796
 21
225.5135555246299
 31
0.0
  0
LINE
  5
33BF
102
{ACAD_REACTORS
330
36B1
102
}
330
1F
100
AcDbEntity
  8
文字
100
AcDbLine
 10
227.876286873796
 20
298.5135555246298
 30
0.0
 11
200.876286873796
 21
298.5135555246298
 31
0.0
  0
LINE
  5
33C0
330
1F
100
AcDbEntity
  8
文字
100
AcDbLine
 10
227.876286873796
 20
297.51355552463
 30
0.0
 11
202.876286873796
 21
297.51355552463
 31
0.0
  0
LINE
  5
33C1
330
1F
100
AcDbEntity
  8
文字
100
AcDbLine
 10
219.2762868737961
 20
262.3135555246299
 30
0.0
 11
219.2762868737961
 21
272.7135555246298
 31
0.0
  0
LINE
  5
33C2
330
1F
100
AcDbEntity
  8
文字
100
AcDbLine
 10
208.976286873796
 20
272.7135555246298
 30
0.0
 11
208.976286873796
 21
262.3135555246299
 31
0.0
  0
LINE
  5
33C3
330
1F
100
AcDbEntity
  8
文字
100
AcDbLine
 10
219.2762868737961
 20
239.6635555246299
 30
0.0
 11
208.0762868737962
 21
239.6635555246299
 31
0.0
  0
LINE
  5
33C4
330
1F
100
AcDbEntity
  8
文字
100
AcDbLine
 10
208.0762868737962
 20
230.1635555246298
 30
0.0
 11
219.2762868737961
 21
230.1635555246298
 31
0.0
  0
LINE
  5
33C5
330
1F
100
AcDbEntity
  8
文字
100
AcDbLine
 10
208.0762868737962
 20
239.6635555246299
 30
0.0
 11
208.0762868737962
 21
230.1635555246298
 31
0.0
  0
LINE
  5
33C6
330
1F
100
AcDbEntity
  8
文字
100
AcDbLine
 10
219.2762868737961
 20
230.1635555246298
 30
0.0
 11
219.2762868737961
 21
239.6635555246299
 31
0.0
  0
LINE
  5
33C7
330
1F
100
AcDbEntity
  8
文字
100
AcDbLine
 10
208.976286873796
 20
262.3135555246299
 30
0.0
 11
219.2762868737961
 21
262.3135555246299
 31
0.0
  0
LINE
  5
33C8
330
1F
100
AcDbEntity
  8
文字
100
AcDbLine
 10
219.2762868737961
 20
250.5137123823559
 30
0.0
 11
212.676286873796
 21
250.5137123823559
 31
0.0
  0
LINE
  5
33C9
330
1F
100
AcDbEntity
  8
文字
100
AcDbLine
 10
212.676286873796
 20
242.5137123823559
 30
0.0
 11
219.2762868737961
 21
242.5137123823559
 31
0.0
  0
LINE
  5
33CA
330
1F
100
AcDbEntity
  8
文字
100
AcDbLine
 10
212.6762868737963
 20
250.5137123823559
 30
0.0
 11
212.676286873796
 21
242.5137123823559
 31
0.0
  0
LINE
  5
33CB
330
1F
100
AcDbEntity
  8
文字
100
AcDbLine
 10
219.2762868737961
 20
242.5137123823559
 30
0.0
 11
219.2762868737961
 21
250.5137123823559
 31
0.0
  0
CIRCLE
  5
33CC
330
1F
100
AcDbEntity
  8
文字
370
    15
100
AcDbCircle
 10
215.2762868737962
 20
254.5135555246299
 30
0.0
 40
2.25
  0
LINE
  5
33CD
330
1F
100
AcDbEntity
  8
文字
100
AcDbLine
 10
218.976286873796
 20
275.55855552463
 30
0.0
 11
218.9762868737961
 21
292.2585555246298
 31
0.0
  0
LINE
  5
33CE
330
1F
100
AcDbEntity
  8
文字
100
AcDbLine
 10
205.376286873796
 20
292.2585555246298
 30
0.0
 11
205.376286873796
 21
275.55855552463
 31
0.0
  0
LINE
  5
33CF
330
1F
100
AcDbEntity
  8
文字
100
AcDbLine
 10
205.376286873796
 20
275.55855552463
 30
0.0
 11
218.976286873796
 21
275.55855552463
 31
0.0
  0
LINE
  5
33D0
330
1F
100
AcDbEntity
  8
文字
100
AcDbLine
 10
219.2762868737961
 20
272.7135555246298
 30
0.0
 11
208.976286873796
 21
272.7135555246298
 31
0.0
  0
LINE
  5
33D1
330
1F
100
AcDbEntity
  8
文字
100
AcDbLine
 10
218.976286873796
 20
292.2585555246298
 30
0.0
 11
205.376286873796
 21
292.2585555246298
 31
0.0
  0
TEXT
  5
33D2
330
1F
100
AcDbEntity
  8
GAIKEI
  6
Continuous
100
AcDbText
 10
216.3028927471775
 20
265.9667963767656
 30
0.001526
 40
1.6
  1
2
 50
225.0000000000002
 41
0.855
100
AcDbText
  0
TEXT
  5
33D3
330
1F
100
AcDbEntity
  8
GAIKEI
  6
Continuous
100
AcDbText
 10
212.6259367471775
 20
265.3296943767656
 30
0.001526
 40
1.6
  1
6
 50
134.9999999999996
 41
0.855
100
AcDbText
  0
TEXT
  5
33D4
330
1F
100
AcDbEntity
  8
GAIKEI
  6
Continuous
100
AcDbText
 10
211.9161757471773
 20
266.0755393767656
 30
0.001526
 40
1.6
  1
7
 50
112.4999999999982
 41
0.855
100
AcDbText
  0
ARC
  5
33D5
330
1F
100
AcDbEntity
  8
GAIKEI
  6
Continuous
100
AcDbCircle
 10
214.1458637471775
 20
267.4867223767656
 30
0.001526
 40
1.9
100
AcDbArc
 50
270.0
 51
90.0
  0
ARC
  5
33D6
330
1F
100
AcDbEntity
  8
GAIKEI
  6
Continuous
100
AcDbCircle
 10
214.1458637471775
 20
267.4867223767656
 30
0.001526
 40
1.9
100
AcDbArc
 50
90.0
 51
270.0
  0
ARC
  5
33D7
330
1F
100
AcDbEntity
  8
GAIKEI
  6
Continuous
100
AcDbCircle
 10
214.1458637471775
 20
267.4867223767656
 30
0.001526
 40
1.825
100
AcDbArc
 50
180.0
 51
0.0
  0
ARC
  5
33D8
330
1F
100
AcDbEntity
  8
GAIKEI
  6
Continuous
100
AcDbCircle
 10
214.1458637471775
 20
267.4867223767656
 30
0.001526
 40
1.95
100
AcDbArc
 50
4.411725999999161
 51
355.5882740000008
  0
LINE
  5
33D9
330
1F
100
AcDbEntity
  8
GAIKEI
  6
Continuous
100
AcDbLine
 10
215.9843417471773
 20
265.8603773767655
 30
0.001526
 11
215.7722097471775
 21
265.6482453767656
 31
0.001526
  0
LINE
  5
33DA
330
1F
100
AcDbEntity
  8
GAIKEI
  6
Continuous
100
AcDbLine
 10
215.7722097471775
 20
265.6482453767656
 30
0.001526
 11
215.4145707471775
 21
266.0058843767656
 31
0.001526
  0
LINE
  5
33DB
330
1F
100
AcDbEntity
  8
GAIKEI
  6
Continuous
100
AcDbLine
 10
212.8771567471775
 20
266.0058843767656
 30
0.001526
 11
212.5195177471773
 21
265.6482453767656
 31
0.001526
  0
LINE
  5
33DC
330
1F
100
AcDbEntity
  8
GAIKEI
  6
Continuous
100
AcDbLine
 10
212.5195177471773
 20
265.6482453767656
 30
0.001526
 11
212.3073857471775
 21
265.8603773767655
 31
0.001526
  0
LINE
  5
33DD
330
1F
100
AcDbEntity
  8
GAIKEI
  6
Continuous
100
AcDbLine
 10
219.1458637471773
 20
272.2867223767655
 30
0.001526
 11
219.1458637471773
 21
264.4867223767656
 31
0.001526
  0
LINE
  5
33DE
330
1F
100
AcDbEntity
  8
GAIKEI
  6
Continuous
100
AcDbLine
 10
209.1458637471773
 20
262.6867223767656
 30
0.001526
 11
209.1458637471773
 21
272.2867223767655
 31
0.001526
  0
LINE
  5
33DF
330
1F
100
AcDbEntity
  8
GAIKEI
  6
Continuous
100
AcDbLine
 10
217.1458637471773
 20
262.4867223767656
 30
0.001526
 11
209.3458637471774
 21
262.4867223767656
 31
0.001526
  0
LINE
  5
33E0
330
1F
100
AcDbEntity
  8
GAIKEI
  6
Continuous
100
AcDbLine
 10
219.1458637471773
 20
264.4867223767656
 30
0.001526
 11
219.1458637471773
 21
262.6867223767656
 31
0.001526
  0
LINE
  5
33E1
330
1F
100
AcDbEntity
  8
GAIKEI
  6
Continuous
100
AcDbLine
 10
219.1458637471773
 20
264.4867223767656
 30
0.001526
 11
217.1458637471773
 21
262.4867223767656
 31
0.001526
  0
LINE
  5
33E2
330
1F
100
AcDbEntity
  8
GAIKEI
  6
Continuous
100
AcDbLine
 10
217.1458637471773
 20
262.4867223767656
 30
0.001526
 11
218.9458637471775
 21
262.4867223767656
 31
0.001526
  0
ARC
  5
33E3
330
1F
100
AcDbEntity
  8
GAIKEI
  6
Continuous
100
AcDbCircle
 10
218.9458637471775
 20
262.6867223767656
 30
0.001526
 40
0.2
100
AcDbArc
 50
270.0
 51
0.0
  0
TEXT
  5
33E4
330
1F
100
AcDbEntity
  8
GAIKEI
  6
Continuous
100
AcDbText
 10
213.5670937471775
 20
264.9122373767657
 30
0.001526
 40
1.6
  1
5
 50
157.5000000000011
 41
0.855
100
AcDbText
  0
TEXT
  5
33E5
330
1F
100
AcDbEntity
  8
GAIKEI
  6
Continuous
100
AcDbText
 10
215.5570477471774
 20
265.2570343767656
 30
0.001526
 40
1.6
  1
3
 50
202.4999999999987
 41
0.855
100
AcDbText
  0
TEXT
  5
33E6
330
1F
100
AcDbEntity
  8
GAIKEI
  6
Continuous
100
AcDbText
 10
214.6615057471775
 20
264.8867223767656
 30
0.001526
 40
1.6
  1
4
 50
180.0
 41
0.855
100
AcDbText
  0
ARC
  5
33E7
330
1F
100
AcDbEntity
  8
GAIKEI
  6
Continuous
100
AcDbCircle
 10
214.1458637471775
 20
267.4867223767656
 30
0.001526
 40
1.95
100
AcDbArc
 50
283.5882739999983
 51
292.4117260000002
  0
ARC
  5
33E8
330
1F
100
AcDbEntity
  8
GAIKEI
  6
Continuous
100
AcDbCircle
 10
214.1458637471775
 20
267.4867223767656
 30
0.001526
 40
1.95
100
AcDbArc
 50
288.088274
 51
296.9117260000013
  0
LINE
  5
33E9
330
1F
100
AcDbEntity
  8
GAIKEI
  6
Continuous
100
AcDbLine
 10
215.0284677471775
 20
265.7478983767656
 30
0.001526
 11
215.2220197471775
 21
265.2806203767655
 31
0.001526
  0
LINE
  5
33EA
330
1F
100
AcDbEntity
  8
GAIKEI
  6
Continuous
100
AcDbLine
 10
215.2220197471775
 20
265.2806203767655
 30
0.001526
 11
214.9448557471774
 21
265.1658153767657
 31
0.001526
  0
LINE
  5
33EB
330
1F
100
AcDbEntity
  8
GAIKEI
  6
Continuous
100
AcDbLine
 10
214.9448557471774
 20
265.1658153767657
 30
0.001526
 11
214.7513037471775
 21
265.6330933767656
 31
0.001526
  0
ARC
  5
33EC
330
1F
100
AcDbEntity
  8
GAIKEI
  6
Continuous
100
AcDbCircle
 10
214.1458637471775
 20
267.4867223767656
 30
0.001526
 40
1.95
100
AcDbArc
 50
265.5882740000008
 51
274.4117259999991
  0
ARC
  5
33ED
330
1F
100
AcDbEntity
  8
GAIKEI
  6
Continuous
100
AcDbCircle
 10
214.1458637471775
 20
267.4867223767656
 30
0.001526
 40
1.95
100
AcDbArc
 50
243.0882739999988
 51
251.9117260000004
  0
ARC
  5
33EE
330
1F
100
AcDbEntity
  8
GAIKEI
  6
Continuous
100
AcDbCircle
 10
214.1458637471775
 20
267.4867223767656
 30
0.001526
 40
1.95
100
AcDbArc
 50
247.5882739999993
 51
256.4117260000014
  0
LINE
  5
33EF
330
1F
100
AcDbEntity
  8
GAIKEI
  6
Continuous
100
AcDbLine
 10
214.2958637471775
 20
265.5425003767656
 30
0.001526
 11
214.2958637471775
 21
265.0367223767655
 31
0.001526
  0
LINE
  5
33F0
330
1F
100
AcDbEntity
  8
GAIKEI
  6
Continuous
100
AcDbLine
 10
214.2958637471775
 20
265.0367223767655
 30
0.001526
 11
213.9958637471774
 21
265.0367223767655
 31
0.001526
  0
LINE
  5
33F1
330
1F
100
AcDbEntity
  8
GAIKEI
  6
Continuous
100
AcDbLine
 10
213.9958637471774
 20
265.0367223767655
 30
0.001526
 11
213.9958637471774
 21
265.5425003767656
 31
0.001526
  0
LINE
  5
33F2
330
1F
100
AcDbEntity
  8
GAIKEI
  6
Continuous
100
AcDbLine
 10
213.5404237471774
 20
265.6330933767656
 30
0.001526
 11
213.3468707471775
 21
265.1658153767657
 31
0.001526
  0
LINE
  5
33F3
330
1F
100
AcDbEntity
  8
GAIKEI
  6
Continuous
100
AcDbLine
 10
213.3468707471775
 20
265.1658153767657
 30
0.001526
 11
213.0697077471775
 21
265.2806203767655
 31
0.001526
  0
LINE
  5
33F4
330
1F
100
AcDbEntity
  8
GAIKEI
  6
Continuous
100
AcDbLine
 10
213.0697077471775
 20
265.2806203767655
 30
0.001526
 11
213.2632597471773
 21
265.7478983767656
 31
0.001526
  0
LINE
  5
33F5
330
1F
100
AcDbEntity
  8
GAIKEI
  6
Continuous
100
AcDbLine
 10
211.1458637471773
 20
262.4867223767656
 30
0.001526
 11
209.1458637471773
 21
264.4867223767656
 31
0.001526
  0
ARC
  5
33F6
330
1F
100
AcDbEntity
  8
GAIKEI
  6
Continuous
100
AcDbCircle
 10
209.3458637471774
 20
262.6867223767656
 30
0.001526
 40
0.2
100
AcDbArc
 50
180.0
 51
270.0
  0
TEXT
  5
33F7
330
1F
100
AcDbEntity
  8
GAIKEI
  6
Continuous
100
AcDbText
 10
216.6580267471773
 20
266.7574923767657
 30
0.001526
 40
1.6
  1
1
 50
247.5000000000016
 41
0.855
100
AcDbText
  0
TEXT
  5
33F8
330
1F
100
AcDbEntity
  8
GAIKEI
  6
Continuous
100
AcDbText
 10
215.7016167471775
 20
269.6079243767656
 30
0.001526
 40
1.6
  1
E
 50
314.9999999999995
 41
0.6650000000000002
100
AcDbText
  0
TEXT
  5
33F9
330
1F
100
AcDbEntity
  8
GAIKEI
  6
Continuous
100
AcDbText
 10
216.3949407471775
 20
268.8510963767656
 30
0.001526
 40
1.6
  1
F
 50
292.4999999999978
 41
0.6650000000000002
100
AcDbText
  0
LINE
  5
33FA
330
1F
100
AcDbEntity
  8
GAIKEI
  6
Continuous
100
AcDbLine
 10
209.3458637471774
 20
272.4867223767656
 30
0.001526
 11
218.9458637471775
 21
272.4867223767656
 31
0.001526
  0
TEXT
  5
33FB
330
1F
100
AcDbEntity
  8
GAIKEI
  6
Continuous
100
AcDbText
 10
216.7458637471775
 20
267.9372223767656
 30
0.001526
 40
1.6
  1
0
 50
270.0
 41
0.855
100
AcDbText
  0
LINE
  5
33FC
330
1F
100
AcDbEntity
  8
GAIKEI
  6
Continuous
100
AcDbLine
 10
217.1458637471773
 20
272.4867223767656
 30
0.001526
 11
219.1458637471773
 21
270.4867223767656
 31
0.001526
  0
ARC
  5
33FD
330
1F
100
AcDbEntity
  8
GAIKEI
  6
Continuous
100
AcDbCircle
 10
218.9458637471775
 20
272.2867223767656
 30
0.001526
 40
0.2
100
AcDbArc
 50
0.0
 51
90.0
  0
TEXT
  5
33FE
330
1F
100
AcDbEntity
  8
GAIKEI
  6
Continuous
100
AcDbText
 10
211.9888347471774
 20
269.0066493767656
 30
0.001526
 40
1.6
  1
A
 50
45.00000000000036
 41
0.6650000000000002
100
AcDbText
  0
LINE
  5
33FF
330
1F
100
AcDbEntity
  8
GAIKEI
  6
Continuous
100
AcDbLine
 10
213.2632597471773
 20
269.2255473767655
 30
0.001526
 11
213.0697077471775
 21
269.6928253767656
 31
0.001526
  0
LINE
  5
3400
330
1F
100
AcDbEntity
  8
GAIKEI
  6
Continuous
100
AcDbLine
 10
213.3468707471775
 20
269.8076303767656
 30
0.001526
 11
213.5404237471774
 21
269.3403523767656
 31
0.001526
  0
LINE
  5
3401
330
1F
100
AcDbEntity
  8
GAIKEI
  6
Continuous
100
AcDbLine
 10
213.9958637471774
 20
269.4309453767655
 30
0.001526
 11
213.9958637471774
 21
269.9367223767656
 31
0.001526
  0
LINE
  5
3402
330
1F
100
AcDbEntity
  8
GAIKEI
  6
Continuous
100
AcDbLine
 10
214.2958637471775
 20
269.9367223767656
 30
0.001526
 11
214.2958637471775
 21
269.4309453767655
 31
0.001526
  0
LINE
  5
3403
330
1F
100
AcDbEntity
  8
GAIKEI
  6
Continuous
100
AcDbLine
 10
214.7513037471775
 20
269.3403523767656
 30
0.001526
 11
214.9448557471774
 21
269.8076303767656
 31
0.001526
  0
LINE
  5
3404
330
1F
100
AcDbEntity
  8
GAIKEI
  6
Continuous
100
AcDbLine
 10
215.2220197471775
 20
269.6928253767656
 30
0.001526
 11
215.0284677471775
 21
269.2255473767655
 31
0.001526
  0
LINE
  5
3405
330
1F
100
AcDbEntity
  8
GAIKEI
  6
Continuous
100
AcDbLine
 10
215.0456137471774
 20
269.7704583767656
 30
0.001526
 11
214.8893197471775
 21
269.2894353767656
 31
0.001526
  0
ARC
  5
3406
330
1F
100
AcDbEntity
  8
GAIKEI
  6
Continuous
100
AcDbCircle
 10
214.1458637471775
 20
267.4867223767656
 30
0.001526
 40
1.675
100
AcDbArc
 50
0.0
 51
180.0
  0
ARC
  5
3407
330
1F
100
AcDbEntity
  8
GAIKEI
  6
Continuous
100
AcDbCircle
 10
214.1458637471775
 20
267.4867223767656
 30
0.001526
 40
1.825
100
AcDbArc
 50
0.0
 51
180.0
  0
ARC
  5
3408
330
1F
100
AcDbEntity
  8
GAIKEI
  6
Continuous
100
AcDbCircle
 10
214.1458637471775
 20
267.4867223767656
 30
0.001526
 40
1.675
100
AcDbArc
 50
180.0
 51
0.0
  0
ARC
  5
3409
330
1F
100
AcDbEntity
  8
GAIKEI
  6
Continuous
100
AcDbCircle
 10
214.1458637471775
 20
267.4867223767656
 30
0.001526
 40
1.95
100
AcDbArc
 50
220.588273999999
 51
229.4117259999997
  0
ARC
  5
340A
330
1F
100
AcDbEntity
  8
GAIKEI
  6
Continuous
100
AcDbCircle
 10
214.1458637471775
 20
267.4867223767656
 30
0.001526
 40
1.95
100
AcDbArc
 50
130.5882740000002
 51
139.4117260000009
  0
LINE
  5
340B
330
1F
100
AcDbEntity
  8
GAIKEI
  6
Continuous
100
AcDbLine
 10
212.5195177471773
 20
269.3252003767657
 30
0.001526
 11
212.8771567471775
 21
268.9675613767656
 31
0.001526
  0
LINE
  5
340C
330
1F
100
AcDbEntity
  8
GAIKEI
  6
Continuous
100
AcDbLine
 10
215.1408387471775
 20
267.9867223767656
 30
0.001526
 11
215.7958637471775
 21
267.4867223767656
 31
0.001526
  0
LINE
  5
340D
330
1F
100
AcDbEntity
  8
GAIKEI
  6
Continuous
100
AcDbLine
 10
213.6508887471775
 20
267.4867223767656
 30
0.001526
 11
212.8023607471773
 21
268.3352513767656
 31
0.001526
  0
LINE
  5
340E
330
1F
100
AcDbEntity
  8
GAIKEI
  6
Continuous
100
AcDbLine
 10
215.1408387471775
 20
267.9867223767656
 30
0.001526
 11
214.6408387471775
 21
267.4867223767656
 31
0.001526
  0
LINE
  5
340F
330
1F
100
AcDbEntity
  8
GAIKEI
  6
Continuous
100
AcDbLine
 10
214.9943917471774
 20
266.1432203767656
 30
0.001526
 11
214.1458637471775
 21
266.9917483767656
 31
0.001526
  0
LINE
  5
3410
330
1F
100
AcDbEntity
  8
GAIKEI
  6
Continuous
100
AcDbLine
 10
214.6408387471775
 20
267.4867223767656
 30
0.001526
 11
215.1408387471775
 21
266.9867223767656
 31
0.001526
  0
ARC
  5
3411
330
1F
100
AcDbEntity
  8
GAIKEI
  6
Continuous
100
AcDbCircle
 10
214.1458637471775
 20
267.4867223767656
 30
0.001526
 40
1.95
100
AcDbArc
 50
333.0882739999995
 51
341.9117260000009
  0
LINE
  5
3412
330
1F
100
AcDbEntity
  8
GAIKEI
  6
Continuous
100
AcDbLine
 10
215.1408387471775
 20
266.9867223767656
 30
0.001526
 11
215.4893667471774
 21
266.6381943767655
 31
0.001526
  0
LINE
  5
3413
330
1F
100
AcDbEntity
  8
GAIKEI
  6
Continuous
100
AcDbLine
 10
215.9994937471775
 20
266.8812833767655
 30
0.001526
 11
216.4667707471773
 21
266.6877303767656
 31
0.001526
  0
ARC
  5
3414
330
1F
100
AcDbEntity
  8
GAIKEI
  6
Continuous
100
AcDbCircle
 10
214.1458637471775
 20
267.4867223767656
 30
0.001526
 40
1.95
100
AcDbArc
 50
310.5882739999998
 51
319.4117260000008
  0
ARC
  5
3415
330
1F
100
AcDbEntity
  8
GAIKEI
  6
Continuous
100
AcDbCircle
 10
214.1458637471775
 20
267.4867223767656
 30
0.001526
 40
1.95
100
AcDbArc
 50
319.5882740000011
 51
328.4117260000009
  0
LINE
  5
3416
330
1F
100
AcDbEntity
  8
GAIKEI
  6
Continuous
100
AcDbLine
 10
215.4893667471774
 20
266.6381943767655
 30
0.001526
 11
214.9943917471774
 21
266.1432203767656
 31
0.001526
  0
LINE
  5
3417
330
1F
100
AcDbEntity
  8
GAIKEI
  6
Continuous
100
AcDbLine
 10
216.4667707471773
 20
266.6877303767656
 30
0.001526
 11
216.3519657471773
 21
266.4105663767656
 31
0.001526
  0
LINE
  5
3418
330
1F
100
AcDbEntity
  8
GAIKEI
  6
Continuous
100
AcDbLine
 10
216.3519657471773
 20
266.4105663767656
 30
0.001526
 11
215.8846887471775
 21
266.6041193767656
 31
0.001526
  0
LINE
  5
3419
330
1F
100
AcDbEntity
  8
GAIKEI
  6
Continuous
100
AcDbLine
 10
215.6267027471773
 20
266.2180163767656
 30
0.001526
 11
215.9843417471773
 21
265.8603773767655
 31
0.001526
  0
ARC
  5
341A
330
1F
100
AcDbEntity
  8
GAIKEI
  6
Continuous
100
AcDbCircle
 10
214.1458637471775
 20
267.4867223767656
 30
0.001526
 40
1.95
100
AcDbArc
 50
355.5882740000008
 51
4.411725999999161
  0
LINE
  5
341B
330
1F
100
AcDbEntity
  8
GAIKEI
  6
Continuous
100
AcDbLine
 10
215.7958637471775
 20
267.4867223767656
 30
0.001526
 11
215.1408387471775
 21
266.9867223767656
 31
0.001526
  0
LINE
  5
341C
330
1F
100
AcDbEntity
  8
GAIKEI
  6
Continuous
100
AcDbLine
 10
216.0900857471775
 20
267.6367223767656
 30
0.001526
 11
216.5958637471775
 21
267.6367223767656
 31
0.001526
  0
LINE
  5
341D
330
1F
100
AcDbEntity
  8
GAIKEI
  6
Continuous
100
AcDbLine
 10
216.5958637471775
 20
267.6367223767656
 30
0.001526
 11
216.5958637471775
 21
267.3367223767657
 31
0.001526
  0
LINE
  5
341E
330
1F
100
AcDbEntity
  8
GAIKEI
  6
Continuous
100
AcDbLine
 10
216.5958637471775
 20
267.3367223767657
 30
0.001526
 11
216.0900857471775
 21
267.3367223767657
 31
0.001526
  0
LINE
  5
341F
330
1F
100
AcDbEntity
  8
GAIKEI
  6
Continuous
100
AcDbLine
 10
212.8023607471773
 20
266.6381943767655
 30
0.001526
 11
213.6508887471775
 21
267.4867223767656
 31
0.001526
  0
LINE
  5
3420
330
1F
100
AcDbEntity
  8
GAIKEI
  6
Continuous
100
AcDbLine
 10
214.1458637471775
 20
266.9917483767656
 30
0.001526
 11
213.2973357471775
 21
266.1432203767656
 31
0.001526
  0
LINE
  5
3421
330
1F
100
AcDbEntity
  8
GAIKEI
  6
Continuous
100
AcDbLine
 10
213.2973357471775
 20
266.1432203767656
 30
0.001526
 11
212.8023607471773
 21
266.6381943767655
 31
0.001526
  0
ARC
  5
3422
330
1F
100
AcDbEntity
  8
GAIKEI
  6
Continuous
100
AcDbCircle
 10
214.1458637471775
 20
267.4867223767656
 30
0.001526
 40
1.95
100
AcDbArc
 50
67.58827399999972
 51
76.41172600000166
  0
ARC
  5
3423
330
1F
100
AcDbEntity
  8
GAIKEI
  6
Continuous
100
AcDbCircle
 10
214.1458637471775
 20
267.4867223767656
 30
0.001526
 40
1.95
100
AcDbArc
 50
67.58827399999972
 51
76.41172600000166
  0
LINE
  5
3424
330
1F
100
AcDbEntity
  8
GAIKEI
  6
Continuous
100
AcDbLine
 10
214.1458637471775
 20
267.9816973767655
 30
0.001526
 11
214.9943917471774
 21
268.8302253767655
 31
0.001526
  0
ARC
  5
3425
330
1F
100
AcDbEntity
  8
GAIKEI
  6
Continuous
100
AcDbCircle
 10
214.1458637471775
 20
267.4867223767656
 30
0.001526
 40
1.95
100
AcDbArc
 50
31.58827399999903
 51
40.41172599999891
  0
LINE
  5
3426
330
1F
100
AcDbEntity
  8
GAIKEI
  6
Continuous
100
AcDbLine
 10
214.9943917471774
 20
268.8302253767655
 30
0.001526
 11
215.4893667471774
 21
268.3352513767656
 31
0.001526
  0
ARC
  5
3427
330
1F
100
AcDbEntity
  8
GAIKEI
  6
Continuous
100
AcDbCircle
 10
214.1458637471775
 20
267.4867223767656
 30
0.001526
 40
1.95
100
AcDbArc
 50
18.08827399999914
 51
26.9117260000004
  0
LINE
  5
3428
330
1F
100
AcDbEntity
  8
GAIKEI
  6
Continuous
100
AcDbLine
 10
215.4893667471774
 20
268.3352513767656
 30
0.001526
 11
215.1408387471775
 21
267.9867223767656
 31
0.001526
  0
LINE
  5
3429
330
1F
100
AcDbEntity
  8
GAIKEI
  6
Continuous
100
AcDbLine
 10
215.8846887471775
 20
268.3693263767655
 30
0.001526
 11
216.3519657471773
 21
268.5628793767655
 31
0.001526
  0
LINE
  5
342A
330
1F
100
AcDbEntity
  8
GAIKEI
  6
Continuous
100
AcDbLine
 10
216.3519657471773
 20
268.5628793767655
 30
0.001526
 11
216.4667707471773
 21
268.2857153767656
 31
0.001526
  0
LINE
  5
342B
330
1F
100
AcDbEntity
  8
GAIKEI
  6
Continuous
100
AcDbLine
 10
216.4667707471773
 20
268.2857153767656
 30
0.001526
 11
215.9994937471775
 21
268.0921623767655
 31
0.001526
  0
ARC
  5
342C
330
1F
100
AcDbEntity
  8
GAIKEI
  6
Continuous
100
AcDbCircle
 10
214.1458637471775
 20
267.4867223767656
 30
0.001526
 40
1.95
100
AcDbArc
 50
63.08827399999859
 51
71.91172600000003
  0
ARC
  5
342D
330
1F
100
AcDbEntity
  8
GAIKEI
  6
Continuous
100
AcDbCircle
 10
214.1458637471775
 20
267.4867223767656
 30
0.001526
 40
1.95
100
AcDbArc
 50
40.58827399999905
 51
49.41172599999994
  0
LINE
  5
342E
330
1F
100
AcDbEntity
  8
GAIKEI
  6
Continuous
100
AcDbLine
 10
215.4145707471775
 20
268.9675613767656
 30
0.001526
 11
215.7722097471775
 21
269.3252003767657
 31
0.001526
  0
LINE
  5
342F
330
1F
100
AcDbEntity
  8
GAIKEI
  6
Continuous
100
AcDbLine
 10
215.7722097471775
 20
269.3252003767657
 30
0.001526
 11
215.9843417471773
 21
269.1130683767655
 31
0.001526
  0
LINE
  5
3430
330
1F
100
AcDbEntity
  8
GAIKEI
  6
Continuous
100
AcDbLine
 10
215.9843417471773
 20
269.1130683767655
 30
0.001526
 11
215.6267027471773
 21
268.7554293767656
 31
0.001526
  0
LINE
  5
3431
330
1F
100
AcDbEntity
  8
GAIKEI
  6
Continuous
100
AcDbLine
 10
212.8023607471773
 20
268.3352513767656
 30
0.001526
 11
213.2973357471775
 21
268.8302253767655
 31
0.001526
  0
LINE
  5
3432
330
1F
100
AcDbEntity
  8
GAIKEI
  6
Continuous
100
AcDbLine
 10
213.2973357471775
 20
268.8302253767655
 30
0.001526
 11
214.1458637471775
 21
267.9816973767655
 31
0.001526
  0
ARC
  5
3433
330
1F
100
AcDbEntity
  8
GAIKEI
  6
Continuous
100
AcDbCircle
 10
214.1458637471775
 20
267.4867223767656
 30
0.001526
 40
1.95
100
AcDbArc
 50
108.0882739999994
 51
116.911726000001
  0
ARC
  5
3434
330
1F
100
AcDbEntity
  8
GAIKEI
  6
Continuous
100
AcDbCircle
 10
214.1458637471775
 20
267.4867223767656
 30
0.001526
 40
1.95
100
AcDbArc
 50
85.58827400000081
 51
94.41172599999918
  0
ARC
  5
3435
330
1F
100
AcDbEntity
  8
GAIKEI
  6
Continuous
100
AcDbCircle
 10
214.1458637471775
 20
267.4867223767656
 30
0.001526
 40
1.95
100
AcDbArc
 50
103.5882739999983
 51
112.4117260000005
  0
ARC
  5
3436
330
1F
100
AcDbEntity
  8
GAIKEI
  6
Continuous
100
AcDbCircle
 10
214.1458637471775
 20
267.4867223767656
 30
0.001526
 40
1.95
100
AcDbArc
 50
103.5882739999983
 51
112.4117260000005
  0
TEXT
  5
3437
330
1F
100
AcDbEntity
  8
GAIKEI
  6
Continuous
100
AcDbText
 10
211.5458637471774
 20
267.0362233767657
 30
0.001526
 40
1.6
  1
8
 50
90.0
 41
0.855
100
AcDbText
  0
ARC
  5
3438
330
1F
100
AcDbEntity
  8
GAIKEI
  6
Continuous
100
AcDbCircle
 10
214.1458637471775
 20
267.4867223767656
 30
0.001526
 40
1.95
100
AcDbArc
 50
198.088273999999
 51
206.9117260000003
  0
LINE
  5
3439
330
1F
100
AcDbEntity
  8
GAIKEI
  6
Continuous
100
AcDbLine
 10
211.8249567471774
 20
266.6877303767656
 30
0.001526
 11
212.2922337471774
 21
266.8812833767655
 31
0.001526
  0
ARC
  5
343A
330
1F
100
AcDbEntity
  8
GAIKEI
  6
Continuous
100
AcDbCircle
 10
214.1458637471775
 20
267.4867223767656
 30
0.001526
 40
1.95
100
AcDbArc
 50
211.588273999999
 51
220.4117259999988
  0
LINE
  5
343B
330
1F
100
AcDbEntity
  8
GAIKEI
  6
Continuous
100
AcDbLine
 10
212.3073857471775
 20
265.8603773767655
 30
0.001526
 11
212.6650247471773
 21
266.2180163767656
 31
0.001526
  0
LINE
  5
343C
330
1F
100
AcDbEntity
  8
GAIKEI
  6
Continuous
100
AcDbLine
 10
212.4070387471774
 20
266.6041193767656
 30
0.001526
 11
211.9397617471775
 21
266.4105663767656
 31
0.001526
  0
LINE
  5
343D
330
1F
100
AcDbEntity
  8
GAIKEI
  6
Continuous
100
AcDbLine
 10
211.9397617471775
 20
266.4105663767656
 30
0.001526
 11
211.8249567471774
 21
266.6877303767656
 31
0.001526
  0
ARC
  5
343E
330
1F
100
AcDbEntity
  8
GAIKEI
  6
Continuous
100
AcDbCircle
 10
214.1458637471775
 20
267.4867223767656
 30
0.001526
 40
1.95
100
AcDbArc
 50
175.5882740000008
 51
184.411725999999
  0
LINE
  5
343F
330
1F
100
AcDbEntity
  8
GAIKEI
  6
Continuous
100
AcDbLine
 10
212.2016417471775
 20
267.3367223767657
 30
0.001526
 11
211.6958637471773
 21
267.3367223767657
 31
0.001526
  0
LINE
  5
3440
330
1F
100
AcDbEntity
  8
GAIKEI
  6
Continuous
100
AcDbLine
 10
211.6958637471773
 20
267.3367223767657
 30
0.001526
 11
211.6958637471773
 21
267.6367223767656
 31
0.001526
  0
LINE
  5
3441
330
1F
100
AcDbEntity
  8
GAIKEI
  6
Continuous
100
AcDbLine
 10
211.6958637471773
 20
267.6367223767656
 30
0.001526
 11
212.2016417471775
 21
267.6367223767656
 31
0.001526
  0
TEXT
  5
3442
330
1F
100
AcDbEntity
  8
GAIKEI
  6
Continuous
100
AcDbText
 10
211.5713787471775
 20
268.0654923767657
 30
0.001526
 40
1.6
  1
9
 50
67.50000000000206
 41
0.855
100
AcDbText
  0
ARC
  5
3443
330
1F
100
AcDbEntity
  8
GAIKEI
  6
Continuous
100
AcDbCircle
 10
214.1458637471775
 20
267.4867223767656
 30
0.001526
 40
1.95
100
AcDbArc
 50
139.588274000001
 51
148.4117260000009
  0
ARC
  5
3444
330
1F
100
AcDbEntity
  8
GAIKEI
  6
Continuous
100
AcDbCircle
 10
214.1458637471775
 20
267.4867223767656
 30
0.001526
 40
1.95
100
AcDbArc
 50
139.588274000001
 51
148.4117260000009
  0
ARC
  5
3445
330
1F
100
AcDbEntity
  8
GAIKEI
  6
Continuous
100
AcDbCircle
 10
214.1458637471775
 20
267.4867223767656
 30
0.001526
 40
1.95
100
AcDbArc
 50
153.0882739999995
 51
161.9117260000008
  0
LINE
  5
3446
330
1F
100
AcDbEntity
  8
GAIKEI
  6
Continuous
100
AcDbLine
 10
212.2922337471774
 20
268.0921623767655
 30
0.001526
 11
211.8249567471774
 21
268.2857153767656
 31
0.001526
  0
LINE
  5
3447
330
1F
100
AcDbEntity
  8
GAIKEI
  6
Continuous
100
AcDbLine
 10
211.8249567471774
 20
268.2857153767656
 30
0.001526
 11
211.9397617471775
 21
268.5628793767655
 31
0.001526
  0
LINE
  5
3448
330
1F
100
AcDbEntity
  8
GAIKEI
  6
Continuous
100
AcDbLine
 10
211.9397617471775
 20
268.5628793767655
 30
0.001526
 11
212.4070387471774
 21
268.3693263767655
 31
0.001526
  0
LINE
  5
3449
330
1F
100
AcDbEntity
  8
GAIKEI
  6
Continuous
100
AcDbLine
 10
212.6650247471773
 20
268.7554293767656
 30
0.001526
 11
212.3073857471775
 21
269.1130683767655
 31
0.001526
  0
LINE
  5
344A
330
1F
100
AcDbEntity
  8
GAIKEI
  6
Continuous
100
AcDbLine
 10
212.3073857471775
 20
269.1130683767655
 30
0.001526
 11
212.5195177471773
 21
269.3252003767657
 31
0.001526
  0
TEXT
  5
344B
330
1F
100
AcDbEntity
  8
GAIKEI
  6
Continuous
100
AcDbText
 10
212.7580847471775
 20
269.7261053767656
 30
0.001526
 40
1.6
  1
B
 50
22.49999999999876
 41
0.6650000000000002
100
AcDbText
  0
TEXT
  5
344C
330
1F
100
AcDbEntity
  8
GAIKEI
  6
Continuous
100
AcDbText
 10
213.7713647471773
 20
270.0867223767656
 30
0.001526
 40
1.6
  1
C
 41
0.6650000000000002
100
AcDbText
  0
TEXT
  5
344D
330
1F
100
AcDbEntity
  8
GAIKEI
  6
Continuous
100
AcDbText
 10
214.7480387471774
 20
270.0515133767656
 30
0.001526
 40
1.6
  1
D
 50
337.500000000001
 41
0.6650000000000002
100
AcDbText
  0
LINE
  5
344E
330
1F
100
AcDbEntity
  8
GAIKEI
  6
Continuous
100
AcDbLine
 10
214.9448557471774
 20
269.8076303767656
 30
0.001526
 11
215.2220197471775
 21
269.6928253767656
 31
0.001526
  0
LINE
  5
344F
330
1F
100
AcDbEntity
  8
GAIKEI
  6
Continuous
100
AcDbLine
 10
213.0697077471775
 20
269.6928253767656
 30
0.001526
 11
213.3468707471775
 21
269.8076303767656
 31
0.001526
  0
LINE
  5
3450
330
1F
100
AcDbEntity
  8
GAIKEI
  6
Continuous
100
AcDbLine
 10
213.9958637471774
 20
269.9367223767656
 30
0.001526
 11
214.2958637471775
 21
269.9367223767656
 31
0.001526
  0
LINE
  5
3451
330
1F
100
AcDbEntity
  8
GAIKEI
  6
Continuous
100
AcDbLine
 10
209.1458637471773
 20
270.4867223767656
 30
0.001526
 11
211.1458637471773
 21
272.4867223767656
 31
0.001526
  0
ARC
  5
3452
330
1F
100
AcDbEntity
  8
GAIKEI
  6
Continuous
100
AcDbCircle
 10
209.3458637471774
 20
272.2867223767656
 30
0.001526
 40
0.2
100
AcDbArc
 50
90.0
 51
180.0
  0
CIRCLE
  5
3453
330
1F
100
AcDbEntity
  8
文字
100
AcDbCircle
 10
213.063677575298
 20
234.9135555246299
 30
0.0
 40
3.25
  0
CIRCLE
  5
3454
330
1F
100
AcDbEntity
  8
文字
100
AcDbCircle
 10
213.063677575298
 20
234.9135555246299
 30
0.0
 40
0.75
  0
LINE
  5
3455
330
1F
100
AcDbEntity
  8
文字
100
AcDbLine
 10
208.0762868737962
 20
239.6635555246299
 30
0.0
 11
208.0762868737962
 21
239.4635555246299
 31
0.0
  0
LINE
  5
3456
330
1F
100
AcDbEntity
  8
文字
100
AcDbLine
 10
208.6876519716066
 20
239.2813329505504
 30
0.0
 11
218.8716105248936
 21
239.2813329505504
 31
0.0
  0
LINE
  5
3457
330
1F
100
AcDbEntity
  8
文字
100
AcDbLine
 10
218.926286873796
 20
292.0335555246299
 30
0.0
 11
216.926286873796
 21
292.0335555246299
 31
0.0
  0
LINE
  5
3458
330
1F
100
AcDbEntity
  8
文字
100
AcDbLine
 10
218.926286873796
 20
292.0335555246299
 30
0.0
 11
216.926286873796
 21
292.0335555246299
 31
0.0
  0
LINE
  5
3459
330
1F
100
AcDbEntity
  8
文字
100
AcDbLine
 10
205.426286873796
 20
275.7835555246298
 30
0.0
 11
218.926286873796
 21
275.7835555246299
 31
0.0
  0
LINE
  5
345A
330
1F
100
AcDbEntity
  8
文字
100
AcDbLine
 10
218.926286873796
 20
292.0335555246299
 30
0.0
 11
205.426286873796
 21
292.0335555246298
 31
0.0
  0
LINE
  5
345B
330
1F
100
AcDbEntity
  8
文字
100
AcDbLine
 10
214.4625817861825
 20
287.1984738988777
 30
0.0
 11
214.4625817861825
 21
287.6218773434571
 31
0.0
  0
LINE
  5
345C
330
1F
100
AcDbEntity
  8
文字
100
AcDbLine
 10
207.926286873796
 20
286.8085555246299
 30
0.0
 11
207.926286873796
 21
290.8335555246299
 31
0.0
  0
LINE
  5
345D
330
1F
100
AcDbEntity
  8
文字
100
AcDbLine
 10
208.1524636245278
 20
286.8085555246299
 30
0.0
 11
208.1524636245278
 21
290.1258298179687
 31
0.0
  0
LINE
  5
345E
330
1F
100
AcDbEntity
  8
文字
100
AcDbLine
 10
216.6083886405758
 20
290.1258298179683
 30
0.0
 11
216.6083886405758
 21
277.6912812312915
 31
0.0
  0
LINE
  5
345F
330
1F
100
AcDbEntity
  8
文字
100
AcDbLine
 10
216.926286873796
 20
290.8335555246299
 30
0.0
 11
216.926286873796
 21
275.7835555246299
 31
0.0
  0
LINE
  5
3460
330
1F
100
AcDbEntity
  8
文字
100
AcDbLine
 10
206.1262868737959
 20
286.8085555246299
 30
0.0
 11
206.1262868737959
 21
290.8335555246299
 31
0.0
  0
LINE
  5
3461
330
1F
100
AcDbEntity
  8
文字
100
AcDbLine
 10
205.426286873796
 20
292.0335555246298
 30
0.0
 11
205.426286873796
 21
275.7835555246298
 31
0.0
  0
LINE
  5
3462
330
1F
100
AcDbEntity
  8
文字
100
AcDbLine
 10
208.1524636245278
 20
277.6912812312912
 30
0.0
 11
211.8162868737961
 21
277.6912812312914
 31
0.0
  0
LINE
  5
3463
330
1F
100
AcDbEntity
  8
文字
100
AcDbLine
 10
206.1262868737959
 20
276.98355552463
 30
0.0
 11
216.926286873796
 21
276.98355552463
 31
0.0
  0
LINE
  5
3464
330
1F
100
AcDbEntity
  8
文字
100
AcDbLine
 10
206.7514064199229
 20
281.0085555246299
 30
0.0
 11
206.7514064199229
 21
281.3773330233193
 31
0.0
  0
LINE
  5
3465
330
1F
100
AcDbEntity
  8
文字
100
AcDbLine
 10
206.5370627165409
 20
281.0085555246299
 30
0.0
 11
206.7514064199229
 21
281.3773330233193
 31
0.0
  0
LINE
  5
3466
330
1F
100
AcDbEntity
  8
文字
100
AcDbLine
 10
206.1262868737959
 20
281.0085555246299
 30
0.0
 11
207.926286873796
 21
281.0085555246299
 31
0.0
  0
LINE
  5
3467
330
1F
100
AcDbEntity
  8
文字
100
AcDbLine
 10
206.1262868737959
 20
281.0085555246299
 30
0.0
 11
205.426286873796
 21
281.0085555246299
 31
0.0
  0
LINE
  5
3468
330
1F
100
AcDbEntity
  8
文字
100
AcDbLine
 10
206.1262868737959
 20
281.0085555246299
 30
0.0
 11
206.1262868737959
 21
276.98355552463
 31
0.0
  0
LINE
  5
3469
330
1F
100
AcDbEntity
  8
文字
100
AcDbLine
 10
208.7055666112955
 20
278.8413451328033
 30
0.0
 11
208.1524636245278
 21
278.8413451328033
 31
0.0
  0
LINE
  5
346A
330
1F
100
AcDbEntity
  8
文字
100
AcDbLine
 10
207.926286873796
 20
281.0085555246299
 30
0.0
 11
208.1524636245278
 21
281.0085555246299
 31
0.0
  0
LINE
  5
346B
330
1F
100
AcDbEntity
  8
文字
100
AcDbLine
 10
208.1524636245278
 20
277.6912812312912
 30
0.0
 11
207.926286873796
 21
276.98355552463
 31
0.0
  0
LINE
  5
346C
330
1F
100
AcDbEntity
  8
文字
100
AcDbLine
 10
208.1524636245278
 20
281.0085555246299
 30
0.0
 11
208.1524636245278
 21
277.6912812312912
 31
0.0
  0
LINE
  5
346D
330
1F
100
AcDbEntity
  8
文字
100
AcDbLine
 10
207.926286873796
 20
281.0085555246299
 30
0.0
 11
207.926286873796
 21
276.98355552463
 31
0.0
  0
LINE
  5
346E
330
1F
100
AcDbEntity
  8
文字
100
AcDbLine
 10
208.7055666112955
 20
277.6912812312912
 30
0.0
 11
208.7055666112955
 21
278.8413451328033
 31
0.0
  0
LINE
  5
346F
330
1F
100
AcDbEntity
  8
文字
100
AcDbLine
 10
206.7514064199229
 20
281.3773330233193
 30
0.0
 11
205.8107771193879
 21
281.3773330233193
 31
0.0
  0
LINE
  5
3470
330
1F
100
AcDbEntity
  8
文字
100
AcDbLine
 10
206.1262868737959
 20
286.8085555246299
 30
0.0
 11
207.926286873796
 21
286.8085555246299
 31
0.0
  0
LINE
  5
3471
330
1F
100
AcDbEntity
  8
文字
100
AcDbLine
 10
206.7514064199229
 20
286.4397780259405
 30
0.0
 11
205.8107771193879
 21
286.4397780259405
 31
0.0
  0
LINE
  5
3472
330
1F
100
AcDbEntity
  8
文字
100
AcDbLine
 10
206.1262868737959
 20
286.8085555246299
 30
0.0
 11
205.426286873796
 21
286.8085555246299
 31
0.0
  0
LINE
  5
3473
330
1F
100
AcDbEntity
  8
文字
100
AcDbLine
 10
205.8107771193879
 20
286.4397780259405
 30
0.0
 11
205.8107771193879
 21
281.3773330233193
 31
0.0
  0
LINE
  5
3474
330
1F
100
AcDbEntity
  8
文字
100
AcDbLine
 10
207.926286873796
 20
286.8085555246299
 30
0.0
 11
208.1524636245278
 21
286.8085555246299
 31
0.0
  0
LINE
  5
3475
330
1F
100
AcDbEntity
  8
文字
100
AcDbLine
 10
206.5370627165409
 20
286.8085555246299
 30
0.0
 11
206.7514064199229
 21
286.4397780259405
 31
0.0
  0
LINE
  5
3476
330
1F
100
AcDbEntity
  8
文字
100
AcDbLine
 10
206.7514064199229
 20
286.8085555246299
 30
0.0
 11
206.7514064199229
 21
286.4397780259405
 31
0.0
  0
LINE
  5
3477
330
1F
100
AcDbEntity
  8
文字
100
AcDbLine
 10
214.1562868737961
 20
277.6912812312915
 30
0.0
 11
216.6083886405758
 21
277.6912812312915
 31
0.0
  0
LINE
  5
3478
330
1F
100
AcDbEntity
  8
文字
100
AcDbLine
 10
214.1562868737961
 20
277.9085555246299
 30
0.0
 11
211.8162868737961
 21
277.9085555246299
 31
0.0
  0
LINE
  5
3479
330
1F
100
AcDbEntity
  8
文字
100
AcDbLine
 10
211.8162868737961
 20
277.9085555246299
 30
0.0
 11
211.8162868737961
 21
276.98355552463
 31
0.0
  0
LINE
  5
347A
330
1F
100
AcDbEntity
  8
文字
100
AcDbLine
 10
214.1562868737961
 20
277.9085555246299
 30
0.0
 11
214.1562868737961
 21
276.98355552463
 31
0.0
  0
LINE
  5
347B
330
1F
100
AcDbEntity
  8
文字
100
AcDbLine
 10
214.4625817861825
 20
279.6186371503823
 30
0.0
 11
214.4625817861825
 21
279.1952337058028
 31
0.0
  0
LINE
  5
347C
330
1F
100
AcDbEntity
  8
文字
100
AcDbLine
 10
214.4625817861825
 20
280.6186371503823
 30
0.0
 11
214.4625817861825
 21
280.1952337058029
 31
0.0
  0
LINE
  5
347D
330
1F
100
AcDbEntity
  8
文字
100
AcDbLine
 10
216.6083886405758
 20
279.6186371503823
 30
0.0
 11
214.4625817861825
 21
279.6186371503823
 31
0.0
  0
LINE
  5
347E
330
1F
100
AcDbEntity
  8
文字
100
AcDbLine
 10
216.6083886405758
 20
279.1952337058028
 30
0.0
 11
214.4625817861825
 21
279.1952337058028
 31
0.0
  0
LINE
  5
347F
330
1F
100
AcDbEntity
  8
文字
100
AcDbLine
 10
216.6083886405758
 20
280.1952337058029
 30
0.0
 11
214.4625817861825
 21
280.1952337058029
 31
0.0
  0
LINE
  5
3480
330
1F
100
AcDbEntity
  8
文字
100
AcDbLine
 10
216.6083886405758
 20
280.6186371503823
 30
0.0
 11
214.4625817861825
 21
280.6186371503823
 31
0.0
  0
LINE
  5
3481
330
1F
100
AcDbEntity
  8
文字
100
AcDbLine
 10
216.6083886405758
 20
277.6912812312915
 30
0.0
 11
216.926286873796
 21
276.98355552463
 31
0.0
  0
LINE
  5
3482
330
1F
100
AcDbEntity
  8
文字
100
AcDbLine
 10
214.4625817861825
 20
285.1984738988777
 30
0.0
 11
214.4625817861825
 21
285.6218773434571
 31
0.0
  0
LINE
  5
3483
330
1F
100
AcDbEntity
  8
文字
100
AcDbLine
 10
214.4625817861825
 20
286.1984738988777
 30
0.0
 11
214.4625817861825
 21
286.6218773434571
 31
0.0
  0
LINE
  5
3484
330
1F
100
AcDbEntity
  8
文字
100
AcDbLine
 10
214.4625817861825
 20
282.6186371503823
 30
0.0
 11
214.4625817861825
 21
282.1952337058028
 31
0.0
  0
LINE
  5
3485
330
1F
100
AcDbEntity
  8
文字
100
AcDbLine
 10
214.4625817861825
 20
284.6186371503823
 30
0.0
 11
214.4625817861825
 21
284.1952337058028
 31
0.0
  0
LINE
  5
3486
330
1F
100
AcDbEntity
  8
文字
100
AcDbLine
 10
214.4625817861825
 20
283.6186371503823
 30
0.0
 11
214.4625817861825
 21
283.1952337058028
 31
0.0
  0
LINE
  5
3487
330
1F
100
AcDbEntity
  8
文字
100
AcDbLine
 10
214.4625817861825
 20
281.6186371503823
 30
0.0
 11
214.4625817861825
 21
281.1952337058028
 31
0.0
  0
LINE
  5
3488
330
1F
100
AcDbEntity
  8
文字
100
AcDbLine
 10
216.6083886405758
 20
285.6218773434571
 30
0.0
 11
214.4625817861825
 21
285.6218773434571
 31
0.0
  0
LINE
  5
3489
330
1F
100
AcDbEntity
  8
文字
100
AcDbLine
 10
216.6083886405758
 20
285.1984738988777
 30
0.0
 11
214.4625817861825
 21
285.1984738988777
 31
0.0
  0
LINE
  5
348A
330
1F
100
AcDbEntity
  8
文字
100
AcDbLine
 10
216.6083886405758
 20
282.6186371503823
 30
0.0
 11
214.4625817861825
 21
282.6186371503823
 31
0.0
  0
LINE
  5
348B
330
1F
100
AcDbEntity
  8
文字
100
AcDbLine
 10
216.6083886405758
 20
284.6186371503823
 30
0.0
 11
214.4625817861825
 21
284.6186371503823
 31
0.0
  0
LINE
  5
348C
330
1F
100
AcDbEntity
  8
文字
100
AcDbLine
 10
216.6083886405758
 20
284.1952337058028
 30
0.0
 11
214.4625817861825
 21
284.1952337058028
 31
0.0
  0
LINE
  5
348D
330
1F
100
AcDbEntity
  8
文字
100
AcDbLine
 10
216.6083886405758
 20
283.1952337058028
 30
0.0
 11
214.4625817861825
 21
283.1952337058028
 31
0.0
  0
LINE
  5
348E
330
1F
100
AcDbEntity
  8
文字
100
AcDbLine
 10
216.6083886405758
 20
283.6186371503823
 30
0.0
 11
214.4625817861825
 21
283.6186371503823
 31
0.0
  0
LINE
  5
348F
330
1F
100
AcDbEntity
  8
文字
100
AcDbLine
 10
216.6083886405758
 20
282.1952337058028
 30
0.0
 11
214.4625817861825
 21
282.1952337058028
 31
0.0
  0
LINE
  5
3490
330
1F
100
AcDbEntity
  8
文字
100
AcDbLine
 10
216.6083886405758
 20
281.1952337058028
 30
0.0
 11
214.4625817861825
 21
281.1952337058028
 31
0.0
  0
LINE
  5
3491
330
1F
100
AcDbEntity
  8
文字
100
AcDbLine
 10
216.6083886405758
 20
281.6186371503823
 30
0.0
 11
214.4625817861825
 21
281.6186371503823
 31
0.0
  0
LINE
  5
3492
330
1F
100
AcDbEntity
  8
文字
100
AcDbLine
 10
216.6083886405758
 20
286.6218773434571
 30
0.0
 11
214.4625817861825
 21
286.6218773434571
 31
0.0
  0
LINE
  5
3493
330
1F
100
AcDbEntity
  8
文字
100
AcDbLine
 10
216.6083886405758
 20
287.1984738988777
 30
0.0
 11
214.4625817861825
 21
287.1984738988777
 31
0.0
  0
LINE
  5
3494
330
1F
100
AcDbEntity
  8
文字
100
AcDbLine
 10
216.6083886405758
 20
286.1984738988777
 30
0.0
 11
214.4625817861825
 21
286.1984738988777
 31
0.0
  0
LINE
  5
3495
330
1F
100
AcDbEntity
  8
文字
100
AcDbLine
 10
208.1524636245278
 20
290.1258298179687
 30
0.0
 11
211.8162868737961
 21
290.1258298179685
 31
0.0
  0
LINE
  5
3496
330
1F
100
AcDbEntity
  8
文字
100
AcDbLine
 10
206.1262868737959
 20
290.8335555246299
 30
0.0
 11
216.926286873796
 21
290.8335555246299
 31
0.0
  0
LINE
  5
3497
330
1F
100
AcDbEntity
  8
文字
100
AcDbLine
 10
208.1524636245278
 20
290.1258298179687
 30
0.0
 11
207.926286873796
 21
290.8335555246299
 31
0.0
  0
LINE
  5
3498
330
1F
100
AcDbEntity
  8
文字
100
AcDbLine
 10
208.7055666112955
 20
288.9757659164565
 30
0.0
 11
208.1524636245278
 21
288.9757659164565
 31
0.0
  0
LINE
  5
3499
330
1F
100
AcDbEntity
  8
文字
100
AcDbLine
 10
208.7055666112955
 20
290.1258298179687
 30
0.0
 11
208.7055666112955
 21
288.9757659164565
 31
0.0
  0
LINE
  5
349A
330
1F
100
AcDbEntity
  8
文字
100
AcDbLine
 10
214.1562868737961
 20
290.1258298179683
 30
0.0
 11
216.6083886405758
 21
290.1258298179683
 31
0.0
  0
LINE
  5
349B
330
1F
100
AcDbEntity
  8
文字
100
AcDbLine
 10
214.1562868737961
 20
289.9085555246298
 30
0.0
 11
211.8162868737961
 21
289.9085555246298
 31
0.0
  0
LINE
  5
349C
330
1F
100
AcDbEntity
  8
文字
100
AcDbLine
 10
211.8162868737961
 20
289.9085555246298
 30
0.0
 11
211.8162868737961
 21
290.8335555246299
 31
0.0
  0
LINE
  5
349D
330
1F
100
AcDbEntity
  8
文字
100
AcDbLine
 10
214.1562868737961
 20
289.9085555246298
 30
0.0
 11
214.1562868737961
 21
290.8335555246299
 31
0.0
  0
LINE
  5
349E
330
1F
100
AcDbEntity
  8
文字
100
AcDbLine
 10
216.6083886405758
 20
290.1258298179683
 30
0.0
 11
216.926286873796
 21
290.8335555246299
 31
0.0
  0
LINE
  5
349F
330
1F
100
AcDbEntity
  8
文字
100
AcDbLine
 10
214.4625817861825
 20
288.1984738988776
 30
0.0
 11
214.4625817861825
 21
288.6218773434571
 31
0.0
  0
LINE
  5
34A0
330
1F
100
AcDbEntity
  8
文字
100
AcDbLine
 10
216.6083886405758
 20
287.6218773434571
 30
0.0
 11
214.4625817861825
 21
287.6218773434571
 31
0.0
  0
LINE
  5
34A1
330
1F
100
AcDbEntity
  8
文字
100
AcDbLine
 10
216.6083886405758
 20
288.6218773434571
 30
0.0
 11
214.4625817861825
 21
288.6218773434571
 31
0.0
  0
LINE
  5
34A2
330
1F
100
AcDbEntity
  8
文字
100
AcDbLine
 10
216.6083886405758
 20
288.1984738988776
 30
0.0
 11
214.4625817861825
 21
288.1984738988776
 31
0.0
  0
LINE
  5
34A3
330
1F
100
AcDbEntity
  8
文字
100
AcDbLine
 10
218.926286873796
 20
275.7835555246299
 30
0.0
 11
218.926286873796
 21
292.0335555246299
 31
0.0
  0
LINE
  5
34A4
330
1F
100
AcDbEntity
  8
文字
100
AcDbLine
 10
215.5406540655444
 20
237.0176200357053
 30
0.0
 11
214.7026667899929
 21
237.0176200357053
 31
0.0
  0
LINE
  5
34A5
330
1F
100
AcDbEntity
  8
文字
100
AcDbLine
 10
215.5406540655444
 20
232.8094910135547
 30
0.0
 11
214.7026667899929
 21
232.8094910135547
 31
0.0
  0
LINE
  5
34A6
330
1F
100
AcDbEntity
  8
文字
100
AcDbLine
 10
214.7026667899929
 20
237.0176200357053
 30
0.0
 11
214.7026667899929
 21
232.8094910135547
 31
0.0
  0
LINE
  5
34A7
330
1F
100
AcDbEntity
  8
文字
100
AcDbLine
 10
213.141271141045
 20
250.3560258096517
 30
0.0
 11
213.141271141045
 21
242.67139895506
 31
0.0
  0
LINE
  5
34A8
330
1F
100
AcDbEntity
  8
文字
100
AcDbLine
 10
213.0350612497534
 20
242.5137123823559
 30
0.0
 11
213.0350612497534
 21
242.5137123823559
 31
0.0
  0
LINE
  5
34A9
330
1F
100
AcDbEntity
  8
文字
100
AcDbLine
 10
213.141271141045
 20
250.3560258096517
 30
0.0
 11
219.1493747177799
 21
250.3560258096516
 31
0.0
  0
LINE
  5
34AA
330
1F
100
AcDbEntity
  8
文字
100
AcDbLine
 10
219.1493747177799
 20
250.3560258096516
 30
0.0
 11
219.1493747177799
 21
242.67139895506
 31
0.0
  0
LINE
  5
34AB
330
1F
100
AcDbEntity
  8
文字
100
AcDbLine
 10
213.7214038663226
 20
250.3560258096516
 30
0.0
 11
213.7214038663226
 21
248.136797833838
 31
0.0
  0
LINE
  5
34AC
330
1F
100
AcDbEntity
  8
文字
100
AcDbLine
 10
214.4930493551459
 20
250.3560258096517
 30
0.0
 11
214.4930493551459
 21
249.8389808445572
 31
0.0
  0
LINE
  5
34AD
330
1F
100
AcDbEntity
  8
文字
100
AcDbLine
 10
213.7214038663226
 20
249.8389808445572
 30
0.0
 11
218.7704314001073
 21
249.8389808445572
 31
0.0
  0
LINE
  5
34AE
330
1F
100
AcDbEntity
  8
文字
100
AcDbLine
 10
218.7704314001073
 20
249.8389808445572
 30
0.0
 11
218.7704314001073
 21
243.1884439201546
 31
0.0
  0
LINE
  5
34AF
330
1F
100
AcDbEntity
  8
文字
100
AcDbLine
 10
213.141271141045
 20
248.136797833838
 30
0.0
 11
213.7214038663226
 21
248.136797833838
 31
0.0
  0
LINE
  5
34B0
330
1F
100
AcDbEntity
  8
文字
100
AcDbLine
 10
213.141271141045
 20
242.67139895506
 30
0.0
 11
219.1493747177799
 21
242.67139895506
 31
0.0
  0
LWPOLYLINE
  5
34B1
330
1F
100
AcDbEntity
  8
文字
100
AcDbPolyline
 90
        4
 70
     1
 43
0.0
 10
215.2003708165898
 20
247.2577271453013
 10
215.8170104486507
 20
247.2577271453013
 10
215.8170104486507
 20
248.0045727448877
 10
215.2003708165898
 20
248.0045727448877
  0
LWPOLYLINE
  5
34B2
330
1F
100
AcDbEntity
  8
文字
100
AcDbPolyline
 90
        4
 70
     1
 43
0.0
 10
215.2003708165898
 20
245.7696976194105
 10
215.8170104486507
 20
245.7696976194105
 10
215.8170104486507
 20
245.0228520198242
 10
215.2003708165898
 20
245.0228520198242
  0
LINE
  5
34B3
330
1F
100
AcDbEntity
  8
文字
100
AcDbLine
 10
213.7214038663226
 20
242.67139895506
 30
0.0
 11
213.7214038663226
 21
244.8906269308739
 31
0.0
  0
LINE
  5
34B4
330
1F
100
AcDbEntity
  8
文字
100
AcDbLine
 10
213.141271141045
 20
244.8906269308739
 30
0.0
 11
213.7214038663226
 21
244.8906269308739
 31
0.0
  0
LINE
  5
34B5
330
1F
100
AcDbEntity
  8
文字
100
AcDbLine
 10
213.7214038663226
 20
243.1884439201545
 30
0.0
 11
218.7704314001073
 21
243.1884439201546
 31
0.0
  0
LINE
  5
34B6
330
1F
100
AcDbEntity
  8
文字
100
AcDbLine
 10
214.4930493551459
 20
242.67139895506
 30
0.0
 11
214.4930493551459
 21
243.1884439201545
 31
0.0
  0
LINE
  5
34B7
330
1F
100
AcDbEntity
  8
文字
100
AcDbLine
 10
208.6876519716066
 20
230.5457780987094
 30
0.0
 11
218.8716105248936
 21
230.5457780987094
 31
0.0
  0
LINE
  5
34B8
330
1F
100
AcDbEntity
  8
文字
100
AcDbLine
 10
218.8716105248936
 20
239.2813329505504
 30
0.0
 11
218.8716105248936
 21
230.5457780987094
 31
0.0
  0
LINE
  5
34B9
330
1F
100
AcDbEntity
  8
文字
100
AcDbLine
 10
208.6876519716066
 20
230.5457780987094
 30
0.0
 11
208.6876519716066
 21
239.2813329505504
 31
0.0
  0
CIRCLE
  5
34BA
330
1F
100
AcDbEntity
  8
文字
100
AcDbCircle
 10
215.2762868737962
 20
254.5135555246299
 30
0.0
 40
1.435734896623898
  0
ARC
  5
34BB
330
1F
100
AcDbEntity
  8
文字
100
AcDbCircle
 10
77.85085464690695
 20
258.2235556978261
 30
0.0
 40
0.25
100
AcDbArc
 50
89.99999999999799
 51
180.0
  0
LINE
  5
34BC
330
1F
100
AcDbEntity
  8
文字
100
AcDbLine
 10
72.98493580337939
 20
257.695237680527
 30
0.0
 11
72.98493580337939
 21
258.9735555246298
 31
0.0
  0
LINE
  5
34BD
330
1F
100
AcDbEntity
  8
文字
100
AcDbLine
 10
73.75944017371901
 20
258.9735555246298
 30
0.0
 11
73.75944017371901
 21
257.695237680527
 31
0.0
  0
CIRCLE
  5
34BE
330
1F
100
AcDbEntity
  8
文字
100
AcDbCircle
 10
77.10085447371074
 20
258.97355552463
 30
0.0
 40
1.952876783943912
  0
CIRCLE
  5
34BF
330
1F
100
AcDbEntity
  8
文字
100
AcDbCircle
 10
77.10085447371074
 20
258.97355552463
 30
0.0
 40
2.093072897972974
  0
ARC
  5
34C0
330
1F
100
AcDbEntity
  8
文字
100
AcDbCircle
 10
76.35085464690695
 20
258.2235556978262
 30
0.0
 40
0.25
100
AcDbArc
 50
0.0
 51
90.0
  0
LINE
  5
34C1
330
1F
100
AcDbEntity
  8
文字
100
AcDbLine
 10
81.87246888190797
 20
236.1135555246299
 30
0.0
 11
81.87246888190802
 21
286.91355552463
 31
0.0
  0
LINE
  5
34C2
102
{ACAD_REACTORS
330
35C6
330
35CD
102
}
330
1F
100
AcDbEntity
  8
文字
100
AcDbLine
 10
71.87246888190802
 20
286.91355552463
 30
0.0
 11
71.87246888190795
 21
236.1135555246299
 31
0.0
  0
LINE
  5
34C3
330
1F
100
AcDbEntity
  8
文字
100
AcDbLine
 10
80.41635301078523
 20
286.91355552463
 30
0.0
 11
80.41635301078517
 21
236.1135555246299
 31
0.0
  0
LINE
  5
34C4
330
1F
100
AcDbEntity
  8
文字
100
AcDbLine
 10
71.87246888190795
 20
236.1135555246299
 30
0.0
 11
81.87246888190797
 21
236.1135555246299
 31
0.0
  0
LINE
  5
34C5
330
1F
100
AcDbEntity
  8
文字
100
AcDbLine
 10
76.60085464690692
 20
242.9835556978261
 30
0.0
 11
76.60085464690687
 21
242.2390427544194
 31
0.0
  0
LINE
  5
34C6
330
1F
100
AcDbEntity
  8
文字
100
AcDbLine
 10
77.60085464690694
 20
242.2390427544194
 30
0.0
 11
77.60085464690694
 21
242.9835556978261
 31
0.0
  0
CIRCLE
  5
34C7
330
1F
100
AcDbEntity
  8
文字
100
AcDbCircle
 10
77.10085447371074
 20
243.7335555246299
 30
0.0
 40
1.952876783943912
  0
CIRCLE
  5
34C8
330
1F
100
AcDbEntity
  8
文字
100
AcDbCircle
 10
77.10085447371074
 20
243.7335555246299
 30
0.0
 40
2.093072897972974
  0
LINE
  5
34C9
330
1F
100
AcDbEntity
  8
文字
100
AcDbLine
 10
72.98493580337939
 20
242.455237680527
 30
0.0
 11
72.98493580337939
 21
243.7335555246299
 31
0.0
  0
LINE
  5
34CA
330
1F
100
AcDbEntity
  8
文字
100
AcDbLine
 10
73.75944017371901
 20
243.7335555246299
 30
0.0
 11
73.75944017371901
 21
242.455237680527
 31
0.0
  0
CIRCLE
  5
34CB
330
1F
100
AcDbEntity
  8
文字
100
AcDbCircle
 10
77.10085447371074
 20
238.6535555246299
 30
0.0
 40
1.952876783943912
  0
CIRCLE
  5
34CC
330
1F
100
AcDbEntity
  8
文字
100
AcDbCircle
 10
77.10085447371074
 20
238.6535555246299
 30
0.0
 40
2.093072897972974
  0
ARC
  5
34CD
330
1F
100
AcDbEntity
  8
文字
100
AcDbCircle
 10
76.35085464690695
 20
237.903555697826
 30
0.0
 40
0.25
100
AcDbArc
 50
0.0
 51
90.0
  0
ARC
  5
34CE
330
1F
100
AcDbEntity
  8
文字
100
AcDbCircle
 10
76.35085464690695
 20
239.403555697826
 30
0.0
 40
0.25
100
AcDbArc
 50
270.0
 51
0.0
  0
LINE
  5
34CF
330
1F
100
AcDbEntity
  8
文字
100
AcDbLine
 10
72.98493580337939
 20
237.375237680527
 30
0.0
 11
72.98493580337939
 21
238.6535555246299
 31
0.0
  0
LINE
  5
34D0
330
1F
100
AcDbEntity
  8
文字
100
AcDbLine
 10
73.75944017371901
 20
238.6535555246299
 30
0.0
 11
73.75944017371901
 21
237.375237680527
 31
0.0
  0
LINE
  5
34D1
330
1F
100
AcDbEntity
  8
文字
100
AcDbLine
 10
73.75944017371901
 20
237.375237680527
 30
0.0
 11
72.98493580337939
 21
237.375237680527
 31
0.0
  0
LINE
  5
34D2
330
1F
100
AcDbEntity
  8
文字
100
AcDbLine
 10
75.2130706125488
 20
238.1535556978262
 30
0.0
 11
76.35085464690694
 21
238.1535556978262
 31
0.0
  0
LINE
  5
34D3
330
1F
100
AcDbEntity
  8
文字
100
AcDbLine
 10
73.75944017371901
 20
242.455237680527
 30
0.0
 11
72.98493580337939
 21
242.455237680527
 31
0.0
  0
LINE
  5
34D4
330
1F
100
AcDbEntity
  8
文字
100
AcDbLine
 10
73.75944017371901
 20
239.9318733687327
 30
0.0
 11
72.98493580337939
 21
239.9318733687327
 31
0.0
  0
LINE
  5
34D5
330
1F
100
AcDbEntity
  8
文字
100
AcDbLine
 10
76.35085464690694
 20
239.1535556978261
 30
0.0
 11
75.21307070429461
 21
239.1535556978261
 31
0.0
  0
LINE
  5
34D6
330
1F
100
AcDbEntity
  8
文字
100
AcDbLine
 10
73.75944017371901
 20
238.6535555246299
 30
0.0
 11
73.75944017371901
 21
239.9318733687327
 31
0.0
  0
LINE
  5
34D7
330
1F
100
AcDbEntity
  8
文字
100
AcDbLine
 10
72.98493580337939
 20
239.9318733687327
 30
0.0
 11
72.98493580337939
 21
238.6535555246299
 31
0.0
  0
LINE
  5
34D8
330
1F
100
AcDbEntity
  8
文字
100
AcDbLine
 10
78.98863833487259
 20
238.153555697826
 30
0.0
 11
77.85085464690692
 21
238.153555697826
 31
0.0
  0
LINE
  5
34D9
330
1F
100
AcDbEntity
  8
文字
100
AcDbLine
 10
77.35085464690692
 20
236.9090427544194
 30
0.0
 11
76.85085464690686
 21
236.9090427544194
 31
0.0
  0
LINE
  5
34DA
330
1F
100
AcDbEntity
  8
文字
100
AcDbLine
 10
76.60085464690692
 20
237.9035556978262
 30
0.0
 11
76.60085464690687
 21
237.1590427544194
 31
0.0
  0
LINE
  5
34DB
330
1F
100
AcDbEntity
  8
文字
100
AcDbLine
 10
77.60085464690694
 20
237.1590427544194
 30
0.0
 11
77.60085464690694
 21
237.903555697826
 31
0.0
  0
ARC
  5
34DC
330
1F
100
AcDbEntity
  8
文字
100
AcDbCircle
 10
77.35085464690695
 20
237.1590427544193
 30
0.0
 40
0.25
100
AcDbArc
 50
270.0
 51
0.0
  0
ARC
  5
34DD
330
1F
100
AcDbEntity
  8
文字
100
AcDbCircle
 10
77.85085464690695
 20
237.903555697826
 30
0.0
 40
0.25
100
AcDbArc
 50
89.99999999999799
 51
180.0
  0
LINE
  5
34DE
330
1F
100
AcDbEntity
  8
文字
100
AcDbLine
 10
77.35085464690692
 20
241.9890427544194
 30
0.0
 11
76.85085464690686
 21
241.9890427544194
 31
0.0
  0
ARC
  5
34DF
330
1F
100
AcDbEntity
  8
文字
100
AcDbCircle
 10
77.35085464690695
 20
242.2390427544194
 30
0.0
 40
0.25
100
AcDbArc
 50
270.0
 51
0.0
  0
LINE
  5
34E0
330
1F
100
AcDbEntity
  8
文字
100
AcDbLine
 10
77.85085464690692
 20
239.1535556978261
 30
0.0
 11
78.98863824312681
 21
239.1535556978261
 31
0.0
  0
LINE
  5
34E1
330
1F
100
AcDbEntity
  8
文字
100
AcDbLine
 10
76.60085464690692
 20
239.4035556978261
 30
0.0
 11
76.60085464690692
 21
240.1480682948406
 31
0.0
  0
LINE
  5
34E2
330
1F
100
AcDbEntity
  8
文字
100
AcDbLine
 10
77.60085464690694
 20
240.1480682948406
 30
0.0
 11
77.60085464690694
 21
239.403555697826
 31
0.0
  0
LINE
  5
34E3
330
1F
100
AcDbEntity
  8
文字
100
AcDbLine
 10
77.35085464690692
 20
240.3980682948406
 30
0.0
 11
76.85085464690692
 21
240.3980682948406
 31
0.0
  0
ARC
  5
34E4
330
1F
100
AcDbEntity
  8
文字
100
AcDbCircle
 10
77.35085464690695
 20
240.1480682948405
 30
0.0
 40
0.25
100
AcDbArc
 50
0.0
 51
90.0
  0
ARC
  5
34E5
330
1F
100
AcDbEntity
  8
文字
100
AcDbCircle
 10
77.85085464690695
 20
239.403555697826
 30
0.0
 40
0.25
100
AcDbArc
 50
180.0
 51
269.9999999999978
  0
ARC
  5
34E6
330
1F
100
AcDbEntity
  8
文字
100
AcDbCircle
 10
76.85085464690691
 20
242.2390427544194
 30
0.0
 40
0.25
100
AcDbArc
 50
180.0
 51
270.0
  0
ARC
  5
34E7
330
1F
100
AcDbEntity
  8
文字
100
AcDbCircle
 10
76.85085464690691
 20
237.1590427544193
 30
0.0
 40
0.25
100
AcDbArc
 50
180.0
 51
270.0
  0
ARC
  5
34E8
330
1F
100
AcDbEntity
  8
文字
100
AcDbCircle
 10
76.85085464690695
 20
240.1480682948405
 30
0.0
 40
0.25
100
AcDbArc
 50
90.0
 51
180.0
  0
ARC
  5
34E9
330
1F
100
AcDbEntity
  8
文字
100
AcDbCircle
 10
77.35085464690695
 20
250.3080682948405
 30
0.0
 40
0.25
100
AcDbArc
 50
0.0
 51
90.0
  0
CIRCLE
  5
34EA
330
1F
100
AcDbEntity
  8
文字
100
AcDbCircle
 10
77.10085447371074
 20
248.8135555246298
 30
0.0
 40
1.952876783943912
  0
CIRCLE
  5
34EB
330
1F
100
AcDbEntity
  8
文字
100
AcDbCircle
 10
77.10085447371074
 20
248.8135555246298
 30
0.0
 40
2.093072897972974
  0
ARC
  5
34EC
330
1F
100
AcDbEntity
  8
文字
100
AcDbCircle
 10
76.85085464690695
 20
250.3080682948405
 30
0.0
 40
0.25
100
AcDbArc
 50
90.0
 51
180.0
  0
ARC
  5
34ED
330
1F
100
AcDbEntity
  8
文字
100
AcDbCircle
 10
76.35085464690695
 20
242.9835556978261
 30
0.0
 40
0.25
100
AcDbArc
 50
0.0
 51
90.0
  0
ARC
  5
34EE
330
1F
100
AcDbEntity
  8
文字
100
AcDbCircle
 10
76.35085464690695
 20
248.0635556978262
 30
0.0
 40
0.25
100
AcDbArc
 50
0.0
 51
90.0
  0
ARC
  5
34EF
330
1F
100
AcDbEntity
  8
文字
100
AcDbCircle
 10
76.35085464690695
 20
249.563555697826
 30
0.0
 40
0.25
100
AcDbArc
 50
270.0
 51
0.0
  0
ARC
  5
34F0
330
1F
100
AcDbEntity
  8
文字
100
AcDbCircle
 10
76.35085464690695
 20
244.4835556978262
 30
0.0
 40
0.25
100
AcDbArc
 50
270.0
 51
0.0
  0
LINE
  5
34F1
330
1F
100
AcDbEntity
  8
文字
100
AcDbLine
 10
75.2130706125488
 20
243.2335556978262
 30
0.0
 11
76.35085464690694
 21
243.2335556978262
 31
0.0
  0
LINE
  5
34F2
330
1F
100
AcDbEntity
  8
文字
100
AcDbLine
 10
73.75944017371901
 20
247.535237680527
 30
0.0
 11
72.98493580337939
 21
247.535237680527
 31
0.0
  0
LINE
  5
34F3
330
1F
100
AcDbEntity
  8
文字
100
AcDbLine
 10
73.75944017371901
 20
245.0118733687328
 30
0.0
 11
72.98493580337939
 21
245.0118733687328
 31
0.0
  0
LINE
  5
34F4
330
1F
100
AcDbEntity
  8
文字
100
AcDbLine
 10
73.75944017371901
 20
243.7335555246299
 30
0.0
 11
73.75944017371901
 21
245.0118733687328
 31
0.0
  0
LINE
  5
34F5
330
1F
100
AcDbEntity
  8
文字
100
AcDbLine
 10
72.98493580337939
 20
245.0118733687328
 30
0.0
 11
72.98493580337939
 21
243.7335555246299
 31
0.0
  0
LINE
  5
34F6
330
1F
100
AcDbEntity
  8
文字
100
AcDbLine
 10
76.35085464690694
 20
244.2335556978262
 30
0.0
 11
75.21307070429461
 21
244.2335556978262
 31
0.0
  0
LINE
  5
34F7
330
1F
100
AcDbEntity
  8
文字
100
AcDbLine
 10
73.75944017371901
 20
250.0918733687327
 30
0.0
 11
72.98493580337939
 21
250.0918733687327
 31
0.0
  0
LINE
  5
34F8
330
1F
100
AcDbEntity
  8
文字
100
AcDbLine
 10
73.75944017371901
 20
248.8135555246298
 30
0.0
 11
73.75944017371901
 21
250.0918733687327
 31
0.0
  0
LINE
  5
34F9
330
1F
100
AcDbEntity
  8
文字
100
AcDbLine
 10
72.98493580337939
 20
250.0918733687327
 30
0.0
 11
72.98493580337939
 21
248.8135555246298
 31
0.0
  0
LINE
  5
34FA
330
1F
100
AcDbEntity
  8
文字
100
AcDbLine
 10
76.35085464690694
 20
249.313555697826
 30
0.0
 11
75.21307070429461
 21
249.313555697826
 31
0.0
  0
LINE
  5
34FB
330
1F
100
AcDbEntity
  8
文字
100
AcDbLine
 10
75.2130706125488
 20
248.3135556978262
 30
0.0
 11
76.35085464690694
 21
248.3135556978262
 31
0.0
  0
LINE
  5
34FC
330
1F
100
AcDbEntity
  8
文字
100
AcDbLine
 10
72.98493580337939
 20
247.535237680527
 30
0.0
 11
72.98493580337939
 21
248.8135555246298
 31
0.0
  0
LINE
  5
34FD
330
1F
100
AcDbEntity
  8
文字
100
AcDbLine
 10
73.75944017371901
 20
248.8135555246298
 30
0.0
 11
73.75944017371901
 21
247.535237680527
 31
0.0
  0
LINE
  5
34FE
330
1F
100
AcDbEntity
  8
文字
100
AcDbLine
 10
78.98863833487259
 20
243.233555697826
 30
0.0
 11
77.85085464690692
 21
243.233555697826
 31
0.0
  0
ARC
  5
34FF
330
1F
100
AcDbEntity
  8
文字
100
AcDbCircle
 10
77.85085464690695
 20
242.9835556978261
 30
0.0
 40
0.25
100
AcDbArc
 50
89.99999999999799
 51
180.0
  0
LINE
  5
3500
330
1F
100
AcDbEntity
  8
文字
100
AcDbLine
 10
77.35085464690692
 20
247.0690427544194
 30
0.0
 11
76.85085464690686
 21
247.0690427544194
 31
0.0
  0
ARC
  5
3501
330
1F
100
AcDbEntity
  8
文字
100
AcDbCircle
 10
77.35085464690695
 20
247.3190427544194
 30
0.0
 40
0.25
100
AcDbArc
 50
270.0
 51
0.0
  0
LINE
  5
3502
330
1F
100
AcDbEntity
  8
文字
100
AcDbLine
 10
77.85085464690692
 20
244.233555697826
 30
0.0
 11
78.98863824312681
 21
244.233555697826
 31
0.0
  0
LINE
  5
3503
330
1F
100
AcDbEntity
  8
文字
100
AcDbLine
 10
76.60085464690692
 20
244.4835556978262
 30
0.0
 11
76.60085464690692
 21
245.2280682948404
 31
0.0
  0
LINE
  5
3504
330
1F
100
AcDbEntity
  8
文字
100
AcDbLine
 10
77.60085464690694
 20
245.2280682948404
 30
0.0
 11
77.60085464690694
 21
244.4835556978261
 31
0.0
  0
LINE
  5
3505
330
1F
100
AcDbEntity
  8
文字
100
AcDbLine
 10
77.35085464690692
 20
245.4780682948405
 30
0.0
 11
76.85085464690692
 21
245.4780682948405
 31
0.0
  0
ARC
  5
3506
330
1F
100
AcDbEntity
  8
文字
100
AcDbCircle
 10
77.35085464690695
 20
245.2280682948404
 30
0.0
 40
0.25
100
AcDbArc
 50
0.0
 51
90.0
  0
ARC
  5
3507
330
1F
100
AcDbEntity
  8
文字
100
AcDbCircle
 10
77.85085464690695
 20
244.4835556978261
 30
0.0
 40
0.25
100
AcDbArc
 50
180.0
 51
269.9999999999978
  0
LINE
  5
3508
330
1F
100
AcDbEntity
  8
文字
100
AcDbLine
 10
77.85085464690692
 20
249.313555697826
 30
0.0
 11
78.98863824312681
 21
249.313555697826
 31
0.0
  0
LINE
  5
3509
330
1F
100
AcDbEntity
  8
文字
100
AcDbLine
 10
76.60085464690692
 20
249.563555697826
 30
0.0
 11
76.60085464690692
 21
250.3080682948405
 31
0.0
  0
LINE
  5
350A
330
1F
100
AcDbEntity
  8
文字
100
AcDbLine
 10
77.60085464690694
 20
250.3080682948405
 30
0.0
 11
77.60085464690694
 21
249.563555697826
 31
0.0
  0
ARC
  5
350B
330
1F
100
AcDbEntity
  8
文字
100
AcDbCircle
 10
77.85085464690695
 20
249.563555697826
 30
0.0
 40
0.25
100
AcDbArc
 50
180.0
 51
269.9999999999978
  0
LINE
  5
350C
330
1F
100
AcDbEntity
  8
文字
100
AcDbLine
 10
78.98863833487259
 20
248.3135556978259
 30
0.0
 11
77.85085464690692
 21
248.3135556978262
 31
0.0
  0
ARC
  5
350D
330
1F
100
AcDbEntity
  8
文字
100
AcDbCircle
 10
77.85085464690695
 20
248.063555697826
 30
0.0
 40
0.25
100
AcDbArc
 50
89.99999999999799
 51
180.0
  0
LINE
  5
350E
330
1F
100
AcDbEntity
  8
文字
100
AcDbLine
 10
76.60085464690692
 20
248.0635556978262
 30
0.0
 11
76.60085464690687
 21
247.3190427544194
 31
0.0
  0
LINE
  5
350F
330
1F
100
AcDbEntity
  8
文字
100
AcDbLine
 10
77.60085464690694
 20
247.3190427544194
 30
0.0
 11
77.60085464690694
 21
248.0635556978262
 31
0.0
  0
ARC
  5
3510
330
1F
100
AcDbEntity
  8
文字
100
AcDbCircle
 10
76.85085464690691
 20
247.3190427544194
 30
0.0
 40
0.25
100
AcDbArc
 50
180.0
 51
270.0
  0
ARC
  5
3511
330
1F
100
AcDbEntity
  8
文字
100
AcDbCircle
 10
76.85085464690695
 20
245.2280682948404
 30
0.0
 40
0.25
100
AcDbArc
 50
90.0
 51
180.0
  0
ARC
  5
3512
330
1F
100
AcDbEntity
  8
文字
100
AcDbCircle
 10
76.35085464690695
 20
253.143555697826
 30
0.0
 40
0.25
100
AcDbArc
 50
0.0
 51
90.0
  0
ARC
  5
3513
330
1F
100
AcDbEntity
  8
文字
100
AcDbCircle
 10
76.35085464690695
 20
254.6435556978261
 30
0.0
 40
0.25
100
AcDbArc
 50
270.0
 51
0.0
  0
CIRCLE
  5
3514
330
1F
100
AcDbEntity
  8
文字
100
AcDbCircle
 10
77.10085447371074
 20
253.8935555246299
 30
0.0
 40
1.952876783943912
  0
CIRCLE
  5
3515
330
1F
100
AcDbEntity
  8
文字
100
AcDbCircle
 10
77.10085447371074
 20
253.8935555246299
 30
0.0
 40
2.093072897972974
  0
LINE
  5
3516
330
1F
100
AcDbEntity
  8
文字
100
AcDbLine
 10
72.98493580337939
 20
252.615237680527
 30
0.0
 11
72.98493580337939
 21
253.8935555246299
 31
0.0
  0
LINE
  5
3517
330
1F
100
AcDbEntity
  8
文字
100
AcDbLine
 10
73.75944017371901
 20
253.8935555246299
 30
0.0
 11
73.75944017371901
 21
252.615237680527
 31
0.0
  0
LINE
  5
3518
330
1F
100
AcDbEntity
  8
文字
100
AcDbLine
 10
73.75944017371901
 20
255.1718733687327
 30
0.0
 11
72.98493580337939
 21
255.1718733687327
 31
0.0
  0
LINE
  5
3519
330
1F
100
AcDbEntity
  8
文字
100
AcDbLine
 10
73.75944017371901
 20
253.8935555246299
 30
0.0
 11
73.75944017371901
 21
255.1718733687327
 31
0.0
  0
LINE
  5
351A
330
1F
100
AcDbEntity
  8
文字
100
AcDbLine
 10
72.98493580337939
 20
255.1718733687327
 30
0.0
 11
72.98493580337939
 21
253.8935555246299
 31
0.0
  0
LINE
  5
351B
330
1F
100
AcDbEntity
  8
文字
100
AcDbLine
 10
76.35085464690694
 20
254.3935556978262
 30
0.0
 11
75.21307070429461
 21
254.3935556978262
 31
0.0
  0
LINE
  5
351C
330
1F
100
AcDbEntity
  8
文字
100
AcDbLine
 10
73.75944017371901
 20
252.615237680527
 30
0.0
 11
72.98493580337939
 21
252.615237680527
 31
0.0
  0
LINE
  5
351D
330
1F
100
AcDbEntity
  8
文字
100
AcDbLine
 10
75.2130706125488
 20
253.3935556978262
 30
0.0
 11
76.35085464690694
 21
253.3935556978262
 31
0.0
  0
LINE
  5
351E
330
1F
100
AcDbEntity
  8
文字
100
AcDbLine
 10
73.75944017371901
 20
257.695237680527
 30
0.0
 11
72.98493580337939
 21
257.695237680527
 31
0.0
  0
LINE
  5
351F
330
1F
100
AcDbEntity
  8
文字
100
AcDbLine
 10
77.35085464690692
 20
252.1490427544194
 30
0.0
 11
76.85085464690686
 21
252.1490427544194
 31
0.0
  0
ARC
  5
3520
330
1F
100
AcDbEntity
  8
文字
100
AcDbCircle
 10
77.35085464690695
 20
252.3990427544193
 30
0.0
 40
0.25
100
AcDbArc
 50
270.0
 51
0.0
  0
LINE
  5
3521
330
1F
100
AcDbEntity
  8
文字
100
AcDbLine
 10
77.35085464690692
 20
250.5580682948405
 30
0.0
 11
76.85085464690692
 21
250.5580682948405
 31
0.0
  0
ARC
  5
3522
330
1F
100
AcDbEntity
  8
文字
100
AcDbCircle
 10
76.85085464690691
 20
252.3990427544193
 30
0.0
 40
0.25
100
AcDbArc
 50
180.0
 51
270.0
  0
LINE
  5
3523
330
1F
100
AcDbEntity
  8
文字
100
AcDbLine
 10
77.85085464690692
 20
254.3935556978261
 30
0.0
 11
78.98863824312681
 21
254.3935556978261
 31
0.0
  0
LINE
  5
3524
330
1F
100
AcDbEntity
  8
文字
100
AcDbLine
 10
76.60085464690692
 20
254.6435556978261
 30
0.0
 11
76.60085464690692
 21
255.3880682948406
 31
0.0
  0
LINE
  5
3525
330
1F
100
AcDbEntity
  8
文字
100
AcDbLine
 10
77.60085464690694
 20
255.3880682948406
 30
0.0
 11
77.60085464690694
 21
254.6435556978261
 31
0.0
  0
LINE
  5
3526
330
1F
100
AcDbEntity
  8
文字
100
AcDbLine
 10
77.35085464690692
 20
255.6380682948406
 30
0.0
 11
76.85085464690692
 21
255.6380682948406
 31
0.0
  0
ARC
  5
3527
330
1F
100
AcDbEntity
  8
文字
100
AcDbCircle
 10
77.35085464690695
 20
255.3880682948405
 30
0.0
 40
0.25
100
AcDbArc
 50
0.0
 51
90.0
  0
ARC
  5
3528
330
1F
100
AcDbEntity
  8
文字
100
AcDbCircle
 10
77.85085464690695
 20
254.6435556978261
 30
0.0
 40
0.25
100
AcDbArc
 50
180.0
 51
269.9999999999978
  0
LINE
  5
3529
330
1F
100
AcDbEntity
  8
文字
100
AcDbLine
 10
78.98863833487259
 20
253.393555697826
 30
0.0
 11
77.85085464690692
 21
253.393555697826
 31
0.0
  0
ARC
  5
352A
330
1F
100
AcDbEntity
  8
文字
100
AcDbCircle
 10
77.85085464690695
 20
253.143555697826
 30
0.0
 40
0.25
100
AcDbArc
 50
89.99999999999799
 51
180.0
  0
LINE
  5
352B
330
1F
100
AcDbEntity
  8
文字
100
AcDbLine
 10
77.35085464690692
 20
257.2290427544193
 30
0.0
 11
76.85085464690686
 21
257.2290427544193
 31
0.0
  0
LINE
  5
352C
330
1F
100
AcDbEntity
  8
文字
100
AcDbLine
 10
76.60085464690692
 20
258.2235556978261
 30
0.0
 11
76.60085464690687
 21
257.4790427544193
 31
0.0
  0
LINE
  5
352D
330
1F
100
AcDbEntity
  8
文字
100
AcDbLine
 10
77.60085464690694
 20
257.4790427544193
 30
0.0
 11
77.60085464690694
 21
258.2235556978261
 31
0.0
  0
ARC
  5
352E
330
1F
100
AcDbEntity
  8
文字
100
AcDbCircle
 10
77.35085464690695
 20
257.4790427544194
 30
0.0
 40
0.25
100
AcDbArc
 50
270.0
 51
0.0
  0
ARC
  5
352F
330
1F
100
AcDbEntity
  8
文字
100
AcDbCircle
 10
76.85085464690691
 20
257.4790427544194
 30
0.0
 40
0.25
100
AcDbArc
 50
180.0
 51
270.0
  0
ARC
  5
3530
330
1F
100
AcDbEntity
  8
文字
100
AcDbCircle
 10
76.85085464690695
 20
255.3880682948405
 30
0.0
 40
0.25
100
AcDbArc
 50
90.0
 51
180.0
  0
LINE
  5
3531
330
1F
100
AcDbEntity
  8
文字
100
AcDbLine
 10
76.60085464690692
 20
253.1435556978262
 30
0.0
 11
76.60085464690687
 21
252.3990427544194
 31
0.0
  0
LINE
  5
3532
330
1F
100
AcDbEntity
  8
文字
100
AcDbLine
 10
77.60085464690694
 20
252.3990427544194
 30
0.0
 11
77.60085464690694
 21
253.143555697826
 31
0.0
  0
LINE
  5
3533
330
1F
100
AcDbEntity
  8
文字
100
AcDbLine
 10
81.87246888190802
 20
286.91355552463
 30
0.0
 11
71.87246888190802
 21
286.91355552463
 31
0.0
  0
LINE
  5
3534
330
1F
100
AcDbEntity
  8
文字
100
AcDbLine
 10
72.98493580337944
 20
272.935237680527
 30
0.0
 11
72.98493580337944
 21
274.2135555246298
 31
0.0
  0
LINE
  5
3535
330
1F
100
AcDbEntity
  8
文字
100
AcDbLine
 10
73.75944017371906
 20
274.2135555246298
 30
0.0
 11
73.75944017371906
 21
272.935237680527
 31
0.0
  0
CIRCLE
  5
3536
330
1F
100
AcDbEntity
  8
文字
100
AcDbCircle
 10
77.10085447371074
 20
274.2135555246299
 30
0.0
 40
1.952876783943912
  0
CIRCLE
  5
3537
330
1F
100
AcDbEntity
  8
文字
100
AcDbCircle
 10
77.10085447371074
 20
274.2135555246299
 30
0.0
 40
2.093072897972974
  0
ARC
  5
3538
330
1F
100
AcDbEntity
  8
文字
100
AcDbCircle
 10
76.35085464690695
 20
259.7235556978262
 30
0.0
 40
0.25
100
AcDbArc
 50
270.0
 51
0.0
  0
CIRCLE
  5
3539
330
1F
100
AcDbEntity
  8
文字
100
AcDbCircle
 10
77.10085447371074
 20
264.0535555246298
 30
0.0
 40
1.952876783943912
  0
CIRCLE
  5
353A
330
1F
100
AcDbEntity
  8
文字
100
AcDbCircle
 10
77.10085447371074
 20
264.0535555246298
 30
0.0
 40
2.093072897972974
  0
ARC
  5
353B
330
1F
100
AcDbEntity
  8
文字
100
AcDbCircle
 10
76.35085464690695
 20
263.3035556978262
 30
0.0
 40
0.25
100
AcDbArc
 50
0.0
 51
90.0
  0
ARC
  5
353C
330
1F
100
AcDbEntity
  8
文字
100
AcDbCircle
 10
76.35085464690695
 20
264.803555697826
 30
0.0
 40
0.25
100
AcDbArc
 50
270.0
 51
0.0
  0
LINE
  5
353D
330
1F
100
AcDbEntity
  8
文字
100
AcDbLine
 10
73.75944017371901
 20
260.2518733687328
 30
0.0
 11
72.98493580337939
 21
260.2518733687328
 31
0.0
  0
LINE
  5
353E
330
1F
100
AcDbEntity
  8
文字
100
AcDbLine
 10
73.75944017371901
 20
258.9735555246298
 30
0.0
 11
73.75944017371901
 21
260.2518733687328
 31
0.0
  0
LINE
  5
353F
330
1F
100
AcDbEntity
  8
文字
100
AcDbLine
 10
72.98493580337939
 20
260.2518733687328
 30
0.0
 11
72.98493580337939
 21
258.9735555246298
 31
0.0
  0
LINE
  5
3540
330
1F
100
AcDbEntity
  8
文字
100
AcDbLine
 10
76.35085464690694
 20
259.473555697826
 30
0.0
 11
75.21307070429461
 21
259.473555697826
 31
0.0
  0
LINE
  5
3541
330
1F
100
AcDbEntity
  8
文字
100
AcDbLine
 10
75.2130706125488
 20
258.4735556978261
 30
0.0
 11
76.35085464690694
 21
258.4735556978261
 31
0.0
  0
LINE
  5
3542
330
1F
100
AcDbEntity
  8
文字
100
AcDbLine
 10
72.98493580337939
 20
262.7752376805271
 30
0.0
 11
72.98493580337939
 21
264.0535555246298
 31
0.0
  0
LINE
  5
3543
330
1F
100
AcDbEntity
  8
文字
100
AcDbLine
 10
73.75944017371901
 20
264.0535555246298
 30
0.0
 11
73.75944017371901
 21
262.7752376805271
 31
0.0
  0
LINE
  5
3544
330
1F
100
AcDbEntity
  8
文字
100
AcDbLine
 10
73.75944017371901
 20
265.3318733687327
 30
0.0
 11
72.98493580337939
 21
265.3318733687327
 31
0.0
  0
LINE
  5
3545
330
1F
100
AcDbEntity
  8
文字
100
AcDbLine
 10
73.75944017371901
 20
264.0535555246298
 30
0.0
 11
73.75944017371901
 21
265.3318733687327
 31
0.0
  0
LINE
  5
3546
330
1F
100
AcDbEntity
  8
文字
100
AcDbLine
 10
72.98493580337939
 20
265.3318733687327
 30
0.0
 11
72.98493580337939
 21
264.0535555246298
 31
0.0
  0
LINE
  5
3547
330
1F
100
AcDbEntity
  8
文字
100
AcDbLine
 10
76.35085464690694
 20
264.5535556978261
 30
0.0
 11
75.21307070429461
 21
264.5535556978261
 31
0.0
  0
LINE
  5
3548
330
1F
100
AcDbEntity
  8
文字
100
AcDbLine
 10
73.75944017371901
 20
262.7752376805271
 30
0.0
 11
72.98493580337939
 21
262.7752376805271
 31
0.0
  0
LINE
  5
3549
330
1F
100
AcDbEntity
  8
文字
100
AcDbLine
 10
75.2130706125488
 20
263.5535556978262
 30
0.0
 11
76.35085464690694
 21
263.5535556978262
 31
0.0
  0
LINE
  5
354A
330
1F
100
AcDbEntity
  8
文字
100
AcDbLine
 10
77.85085464690692
 20
259.473555697826
 30
0.0
 11
78.98863824312681
 21
259.4735556978259
 31
0.0
  0
LINE
  5
354B
330
1F
100
AcDbEntity
  8
文字
100
AcDbLine
 10
76.60085464690692
 20
259.7235556978261
 30
0.0
 11
76.60085464690692
 21
260.4680682948405
 31
0.0
  0
LINE
  5
354C
330
1F
100
AcDbEntity
  8
文字
100
AcDbLine
 10
77.60085464690694
 20
260.4680682948405
 30
0.0
 11
77.60085464690694
 21
259.7235556978261
 31
0.0
  0
LINE
  5
354D
330
1F
100
AcDbEntity
  8
文字
100
AcDbLine
 10
77.35085464690692
 20
260.7180682948405
 30
0.0
 11
76.85085464690692
 21
260.7180682948405
 31
0.0
  0
ARC
  5
354E
330
1F
100
AcDbEntity
  8
文字
100
AcDbCircle
 10
77.35085464690695
 20
260.4680682948405
 30
0.0
 40
0.25
100
AcDbArc
 50
0.0
 51
90.0
  0
ARC
  5
354F
330
1F
100
AcDbEntity
  8
文字
100
AcDbCircle
 10
77.85085464690695
 20
259.7235556978261
 30
0.0
 40
0.25
100
AcDbArc
 50
180.0
 51
269.9999999999978
  0
LINE
  5
3550
330
1F
100
AcDbEntity
  8
文字
100
AcDbLine
 10
78.98863833487259
 20
258.4735556978261
 30
0.0
 11
77.85085464690692
 21
258.4735556978261
 31
0.0
  0
ARC
  5
3551
330
1F
100
AcDbEntity
  8
文字
100
AcDbCircle
 10
76.85085464690695
 20
260.4680682948405
 30
0.0
 40
0.25
100
AcDbArc
 50
90.0
 51
180.0
  0
LINE
  5
3552
330
1F
100
AcDbEntity
  8
文字
100
AcDbLine
 10
77.85085464690692
 20
264.5535556978261
 30
0.0
 11
78.98863824312681
 21
264.5535556978261
 31
0.0
  0
LINE
  5
3553
330
1F
100
AcDbEntity
  8
文字
100
AcDbLine
 10
76.60085464690692
 20
264.803555697826
 30
0.0
 11
76.60085464690692
 21
265.5480682948405
 31
0.0
  0
LINE
  5
3554
330
1F
100
AcDbEntity
  8
文字
100
AcDbLine
 10
77.60085464690694
 20
265.5480682948405
 30
0.0
 11
77.60085464690694
 21
264.803555697826
 31
0.0
  0
LINE
  5
3555
330
1F
100
AcDbEntity
  8
文字
100
AcDbLine
 10
77.35085464690692
 20
265.7980682948405
 30
0.0
 11
76.85085464690692
 21
265.7980682948405
 31
0.0
  0
ARC
  5
3556
330
1F
100
AcDbEntity
  8
文字
100
AcDbCircle
 10
77.35085464690695
 20
265.5480682948405
 30
0.0
 40
0.25
100
AcDbArc
 50
0.0
 51
90.0
  0
ARC
  5
3557
330
1F
100
AcDbEntity
  8
文字
100
AcDbCircle
 10
77.85085464690695
 20
264.803555697826
 30
0.0
 40
0.25
100
AcDbArc
 50
180.0
 51
269.9999999999978
  0
LINE
  5
3558
330
1F
100
AcDbEntity
  8
文字
100
AcDbLine
 10
78.98863833487259
 20
263.553555697826
 30
0.0
 11
77.85085464690692
 21
263.5535556978262
 31
0.0
  0
LINE
  5
3559
330
1F
100
AcDbEntity
  8
文字
100
AcDbLine
 10
77.35085464690692
 20
262.3090427544194
 30
0.0
 11
76.85085464690686
 21
262.3090427544194
 31
0.0
  0
LINE
  5
355A
330
1F
100
AcDbEntity
  8
文字
100
AcDbLine
 10
76.60085464690692
 20
263.3035556978262
 30
0.0
 11
76.60085464690687
 21
262.5590427544194
 31
0.0
  0
LINE
  5
355B
330
1F
100
AcDbEntity
  8
文字
100
AcDbLine
 10
77.60085464690694
 20
262.5590427544194
 30
0.0
 11
77.60085464690694
 21
263.3035556978262
 31
0.0
  0
ARC
  5
355C
330
1F
100
AcDbEntity
  8
文字
100
AcDbCircle
 10
77.35085464690695
 20
262.5590427544194
 30
0.0
 40
0.25
100
AcDbArc
 50
270.0
 51
0.0
  0
ARC
  5
355D
330
1F
100
AcDbEntity
  8
文字
100
AcDbCircle
 10
77.85085464690695
 20
263.303555697826
 30
0.0
 40
0.25
100
AcDbArc
 50
89.99999999999799
 51
180.0
  0
ARC
  5
355E
330
1F
100
AcDbEntity
  8
文字
100
AcDbCircle
 10
76.85085464690691
 20
262.5590427544194
 30
0.0
 40
0.25
100
AcDbArc
 50
180.0
 51
270.0
  0
ARC
  5
355F
330
1F
100
AcDbEntity
  8
文字
100
AcDbCircle
 10
76.85085464690695
 20
265.5480682948405
 30
0.0
 40
0.25
100
AcDbArc
 50
90.0
 51
180.0
  0
ARC
  5
3560
330
1F
100
AcDbEntity
  8
文字
100
AcDbCircle
 10
76.35085464690695
 20
268.383555697826
 30
0.0
 40
0.25
100
AcDbArc
 50
0.0
 51
90.0
  0
ARC
  5
3561
330
1F
100
AcDbEntity
  8
文字
100
AcDbCircle
 10
76.35085464690695
 20
269.8835556978262
 30
0.0
 40
0.25
100
AcDbArc
 50
270.0
 51
0.0
  0
ARC
  5
3562
330
1F
100
AcDbEntity
  8
文字
100
AcDbCircle
 10
76.35085464690695
 20
273.4635556978262
 30
0.0
 40
0.25
100
AcDbArc
 50
0.0
 51
90.0
  0
CIRCLE
  5
3563
330
1F
100
AcDbEntity
  8
文字
100
AcDbCircle
 10
77.10085447371074
 20
269.1335555246299
 30
0.0
 40
1.952876783943912
  0
CIRCLE
  5
3564
330
1F
100
AcDbEntity
  8
文字
100
AcDbCircle
 10
77.10085447371074
 20
269.1335555246299
 30
0.0
 40
2.093072897972974
  0
LINE
  5
3565
330
1F
100
AcDbEntity
  8
文字
100
AcDbLine
 10
72.98493580337944
 20
267.855237680527
 30
0.0
 11
72.98493580337944
 21
269.1335555246299
 31
0.0
  0
LINE
  5
3566
330
1F
100
AcDbEntity
  8
文字
100
AcDbLine
 10
73.75944017371906
 20
269.1335555246299
 30
0.0
 11
73.75944017371906
 21
267.855237680527
 31
0.0
  0
LINE
  5
3567
330
1F
100
AcDbEntity
  8
文字
100
AcDbLine
 10
73.75944017371906
 20
270.4118733687328
 30
0.0
 11
72.98493580337944
 21
270.4118733687328
 31
0.0
  0
LINE
  5
3568
330
1F
100
AcDbEntity
  8
文字
100
AcDbLine
 10
73.75944017371906
 20
269.1335555246299
 30
0.0
 11
73.75944017371906
 21
270.4118733687328
 31
0.0
  0
LINE
  5
3569
330
1F
100
AcDbEntity
  8
文字
100
AcDbLine
 10
72.98493580337944
 20
270.4118733687328
 30
0.0
 11
72.98493580337944
 21
269.1335555246299
 31
0.0
  0
LINE
  5
356A
330
1F
100
AcDbEntity
  8
文字
100
AcDbLine
 10
76.35085464690698
 20
269.633555697826
 30
0.0
 11
75.21307070429465
 21
269.633555697826
 31
0.0
  0
LINE
  5
356B
330
1F
100
AcDbEntity
  8
文字
100
AcDbLine
 10
73.75944017371906
 20
267.855237680527
 30
0.0
 11
72.98493580337944
 21
267.855237680527
 31
0.0
  0
LINE
  5
356C
330
1F
100
AcDbEntity
  8
文字
100
AcDbLine
 10
75.21307061254887
 20
268.633555697826
 30
0.0
 11
76.35085464690698
 21
268.633555697826
 31
0.0
  0
LINE
  5
356D
330
1F
100
AcDbEntity
  8
文字
100
AcDbLine
 10
73.75944017371906
 20
272.935237680527
 30
0.0
 11
72.98493580337944
 21
272.935237680527
 31
0.0
  0
LINE
  5
356E
330
1F
100
AcDbEntity
  8
文字
100
AcDbLine
 10
75.21307061254887
 20
273.713555697826
 30
0.0
 11
76.35085464690698
 21
273.713555697826
 31
0.0
  0
LINE
  5
356F
330
1F
100
AcDbEntity
  8
文字
100
AcDbLine
 10
77.85085464690698
 20
269.633555697826
 30
0.0
 11
78.98863824312688
 21
269.633555697826
 31
0.0
  0
LINE
  5
3570
330
1F
100
AcDbEntity
  8
文字
100
AcDbLine
 10
76.60085464690698
 20
269.8835556978262
 30
0.0
 11
76.60085464690698
 21
270.6280682948404
 31
0.0
  0
LINE
  5
3571
330
1F
100
AcDbEntity
  8
文字
100
AcDbLine
 10
77.60085464690698
 20
270.6280682948404
 30
0.0
 11
77.60085464690698
 21
269.883555697826
 31
0.0
  0
ARC
  5
3572
330
1F
100
AcDbEntity
  8
文字
100
AcDbCircle
 10
77.85085464690695
 20
269.8835556978262
 30
0.0
 40
0.25
100
AcDbArc
 50
180.0
 51
269.9999999999978
  0
LINE
  5
3573
330
1F
100
AcDbEntity
  8
文字
100
AcDbLine
 10
78.98863833487266
 20
268.633555697826
 30
0.0
 11
77.85085464690698
 21
268.633555697826
 31
0.0
  0
LINE
  5
3574
330
1F
100
AcDbEntity
  8
文字
100
AcDbLine
 10
77.35085464690698
 20
267.3890427544193
 30
0.0
 11
76.85085464690692
 21
267.3890427544193
 31
0.0
  0
LINE
  5
3575
330
1F
100
AcDbEntity
  8
文字
100
AcDbLine
 10
76.60085464690698
 20
268.383555697826
 30
0.0
 11
76.60085464690692
 21
267.6390427544193
 31
0.0
  0
LINE
  5
3576
330
1F
100
AcDbEntity
  8
文字
100
AcDbLine
 10
77.60085464690698
 20
267.6390427544193
 30
0.0
 11
77.60085464690698
 21
268.383555697826
 31
0.0
  0
ARC
  5
3577
330
1F
100
AcDbEntity
  8
文字
100
AcDbCircle
 10
77.35085464690695
 20
267.6390427544193
 30
0.0
 40
0.25
100
AcDbArc
 50
270.0
 51
0.0
  0
ARC
  5
3578
330
1F
100
AcDbEntity
  8
文字
100
AcDbCircle
 10
77.85085464690695
 20
268.383555697826
 30
0.0
 40
0.25
100
AcDbArc
 50
89.99999999999799
 51
180.0
  0
ARC
  5
3579
330
1F
100
AcDbEntity
  8
文字
100
AcDbCircle
 10
76.85085464690691
 20
267.6390427544193
 30
0.0
 40
0.25
100
AcDbArc
 50
180.0
 51
270.0
  0
LINE
  5
357A
330
1F
100
AcDbEntity
  8
文字
100
AcDbLine
 10
78.98863833487266
 20
273.713555697826
 30
0.0
 11
77.85085464690698
 21
273.713555697826
 31
0.0
  0
LINE
  5
357B
330
1F
100
AcDbEntity
  8
文字
100
AcDbLine
 10
77.35085464690698
 20
272.4690427544193
 30
0.0
 11
76.85085464690692
 21
272.4690427544193
 31
0.0
  0
LINE
  5
357C
330
1F
100
AcDbEntity
  8
文字
100
AcDbLine
 10
76.60085464690698
 20
273.463555697826
 30
0.0
 11
76.60085464690692
 21
272.7190427544193
 31
0.0
  0
LINE
  5
357D
330
1F
100
AcDbEntity
  8
文字
100
AcDbLine
 10
77.60085464690698
 20
272.7190427544193
 30
0.0
 11
77.60085464690698
 21
273.463555697826
 31
0.0
  0
ARC
  5
357E
330
1F
100
AcDbEntity
  8
文字
100
AcDbCircle
 10
77.35085464690695
 20
272.7190427544193
 30
0.0
 40
0.25
100
AcDbArc
 50
270.0
 51
0.0
  0
ARC
  5
357F
330
1F
100
AcDbEntity
  8
文字
100
AcDbCircle
 10
77.85085464690695
 20
273.463555697826
 30
0.0
 40
0.25
100
AcDbArc
 50
89.99999999999799
 51
180.0
  0
LINE
  5
3580
330
1F
100
AcDbEntity
  8
文字
100
AcDbLine
 10
77.35085464690698
 20
270.8780682948404
 30
0.0
 11
76.85085464690698
 21
270.8780682948404
 31
0.0
  0
ARC
  5
3581
330
1F
100
AcDbEntity
  8
文字
100
AcDbCircle
 10
76.85085464690691
 20
272.7190427544193
 30
0.0
 40
0.25
100
AcDbArc
 50
180.0
 51
270.0
  0
ARC
  5
3582
330
1F
100
AcDbEntity
  8
文字
100
AcDbCircle
 10
76.85085464690695
 20
270.6280682948404
 30
0.0
 40
0.25
100
AcDbArc
 50
90.0
 51
180.0
  0
ARC
  5
3583
330
1F
100
AcDbEntity
  8
文字
100
AcDbCircle
 10
77.35085464690695
 20
270.6280682948404
 30
0.0
 40
0.25
100
AcDbArc
 50
0.0
 51
90.0
  0
ARC
  5
3584
330
1F
100
AcDbEntity
  8
文字
100
AcDbCircle
 10
76.35085464690695
 20
278.543555697826
 30
0.0
 40
0.25
100
AcDbArc
 50
0.0
 51
90.0
  0
ARC
  5
3585
330
1F
100
AcDbEntity
  8
文字
100
AcDbCircle
 10
76.35085464690695
 20
274.9635556978262
 30
0.0
 40
0.25
100
AcDbArc
 50
270.0
 51
0.0
  0
CIRCLE
  5
3586
330
1F
100
AcDbEntity
  8
文字
100
AcDbCircle
 10
77.10085447371074
 20
279.2935555246298
 30
0.0
 40
1.952876783943912
  0
CIRCLE
  5
3587
330
1F
100
AcDbEntity
  8
文字
100
AcDbCircle
 10
77.10085447371074
 20
279.2935555246298
 30
0.0
 40
2.093072897972974
  0
ARC
  5
3588
330
1F
100
AcDbEntity
  8
文字
100
AcDbCircle
 10
76.35085464690695
 20
280.0435556978261
 30
0.0
 40
0.25
100
AcDbArc
 50
270.0
 51
0.0
  0
LINE
  5
3589
330
1F
100
AcDbEntity
  8
文字
100
AcDbLine
 10
76.35085464690698
 20
274.713555697826
 30
0.0
 11
75.21307070429465
 21
274.713555697826
 31
0.0
  0
LINE
  5
358A
330
1F
100
AcDbEntity
  8
文字
100
AcDbLine
 10
72.98493580337944
 20
278.0152376805271
 30
0.0
 11
72.98493580337944
 21
279.2935555246298
 31
0.0
  0
LINE
  5
358B
330
1F
100
AcDbEntity
  8
文字
100
AcDbLine
 10
73.75944017371906
 20
279.2935555246298
 30
0.0
 11
73.75944017371906
 21
278.0152376805271
 31
0.0
  0
LINE
  5
358C
330
1F
100
AcDbEntity
  8
文字
100
AcDbLine
 10
73.75944017371906
 20
278.0152376805271
 30
0.0
 11
72.98493580337944
 21
278.0152376805271
 31
0.0
  0
LINE
  5
358D
330
1F
100
AcDbEntity
  8
文字
100
AcDbLine
 10
75.21307061254887
 20
278.7935556978262
 30
0.0
 11
76.35085464690698
 21
278.7935556978262
 31
0.0
  0
LINE
  5
358E
330
1F
100
AcDbEntity
  8
文字
100
AcDbLine
 10
73.75944017371906
 20
275.4918733687328
 30
0.0
 11
72.98493580337944
 21
275.4918733687328
 31
0.0
  0
LINE
  5
358F
330
1F
100
AcDbEntity
  8
文字
100
AcDbLine
 10
73.75944017371906
 20
274.2135555246298
 30
0.0
 11
73.75944017371906
 21
275.4918733687328
 31
0.0
  0
LINE
  5
3590
330
1F
100
AcDbEntity
  8
文字
100
AcDbLine
 10
72.98493580337944
 20
275.4918733687328
 30
0.0
 11
72.98493580337944
 21
274.2135555246298
 31
0.0
  0
LINE
  5
3591
330
1F
100
AcDbEntity
  8
文字
100
AcDbLine
 10
73.75944017371906
 20
280.5718733687328
 30
0.0
 11
72.98493580337944
 21
280.5718733687328
 31
0.0
  0
LINE
  5
3592
330
1F
100
AcDbEntity
  8
文字
100
AcDbLine
 10
76.35085464690698
 20
279.7935556978262
 30
0.0
 11
75.21307070429465
 21
279.7935556978262
 31
0.0
  0
LINE
  5
3593
330
1F
100
AcDbEntity
  8
文字
100
AcDbLine
 10
73.75944017371906
 20
279.2935555246298
 30
0.0
 11
73.75944017371906
 21
280.5718733687328
 31
0.0
  0
LINE
  5
3594
330
1F
100
AcDbEntity
  8
文字
100
AcDbLine
 10
72.98493580337944
 20
280.5718733687328
 30
0.0
 11
72.98493580337944
 21
279.2935555246298
 31
0.0
  0
LINE
  5
3595
330
1F
100
AcDbEntity
  8
文字
100
AcDbLine
 10
77.85085464690698
 20
274.713555697826
 30
0.0
 11
78.98863824312688
 21
274.713555697826
 31
0.0
  0
ARC
  5
3596
330
1F
100
AcDbEntity
  8
文字
100
AcDbCircle
 10
77.85085464690695
 20
274.963555697826
 30
0.0
 40
0.25
100
AcDbArc
 50
180.0
 51
269.9999999999978
  0
LINE
  5
3597
330
1F
100
AcDbEntity
  8
文字
100
AcDbLine
 10
78.98863833487266
 20
278.793555697826
 30
0.0
 11
77.85085464690698
 21
278.793555697826
 31
0.0
  0
LINE
  5
3598
330
1F
100
AcDbEntity
  8
文字
100
AcDbLine
 10
77.35085464690698
 20
277.5490427544194
 30
0.0
 11
76.85085464690692
 21
277.5490427544194
 31
0.0
  0
LINE
  5
3599
330
1F
100
AcDbEntity
  8
文字
100
AcDbLine
 10
76.60085464690698
 20
278.5435556978262
 30
0.0
 11
76.60085464690692
 21
277.7990427544194
 31
0.0
  0
LINE
  5
359A
330
1F
100
AcDbEntity
  8
文字
100
AcDbLine
 10
77.60085464690698
 20
277.7990427544194
 30
0.0
 11
77.60085464690698
 21
278.543555697826
 31
0.0
  0
ARC
  5
359B
330
1F
100
AcDbEntity
  8
文字
100
AcDbCircle
 10
77.35085464690695
 20
277.7990427544192
 30
0.0
 40
0.25
100
AcDbArc
 50
270.0
 51
0.0
  0
ARC
  5
359C
330
1F
100
AcDbEntity
  8
文字
100
AcDbCircle
 10
77.85085464690695
 20
278.543555697826
 30
0.0
 40
0.25
100
AcDbArc
 50
89.99999999999799
 51
180.0
  0
LINE
  5
359D
330
1F
100
AcDbEntity
  8
文字
100
AcDbLine
 10
77.35085464690698
 20
275.9580682948405
 30
0.0
 11
76.85085464690698
 21
275.9580682948405
 31
0.0
  0
ARC
  5
359E
330
1F
100
AcDbEntity
  8
文字
100
AcDbCircle
 10
77.35085464690695
 20
275.7080682948406
 30
0.0
 40
0.25
100
AcDbArc
 50
0.0
 51
90.0
  0
LINE
  5
359F
330
1F
100
AcDbEntity
  8
文字
100
AcDbLine
 10
76.60085464690698
 20
274.963555697826
 30
0.0
 11
76.60085464690698
 21
275.7080682948405
 31
0.0
  0
LINE
  5
35A0
330
1F
100
AcDbEntity
  8
文字
100
AcDbLine
 10
77.60085464690698
 20
275.7080682948405
 30
0.0
 11
77.60085464690698
 21
274.963555697826
 31
0.0
  0
ARC
  5
35A1
330
1F
100
AcDbEntity
  8
文字
100
AcDbCircle
 10
76.85085464690691
 20
277.7990427544192
 30
0.0
 40
0.25
100
AcDbArc
 50
180.0
 51
270.0
  0
ARC
  5
35A2
330
1F
100
AcDbEntity
  8
文字
100
AcDbCircle
 10
76.85085464690695
 20
275.7080682948406
 30
0.0
 40
0.25
100
AcDbArc
 50
90.0
 51
180.0
  0
LINE
  5
35A3
330
1F
100
AcDbEntity
  8
文字
100
AcDbLine
 10
77.85085464690698
 20
279.7935556978261
 30
0.0
 11
78.98863824312688
 21
279.7935556978261
 31
0.0
  0
LINE
  5
35A4
330
1F
100
AcDbEntity
  8
文字
100
AcDbLine
 10
76.60085464690698
 20
280.0435556978261
 30
0.0
 11
76.60085464690698
 21
280.7880682948405
 31
0.0
  0
LINE
  5
35A5
330
1F
100
AcDbEntity
  8
文字
100
AcDbLine
 10
77.60085464690698
 20
280.7880682948405
 30
0.0
 11
77.60085464690698
 21
280.0435556978261
 31
0.0
  0
LINE
  5
35A6
330
1F
100
AcDbEntity
  8
文字
100
AcDbLine
 10
77.35085464690698
 20
281.0380682948405
 30
0.0
 11
76.85085464690698
 21
281.0380682948405
 31
0.0
  0
ARC
  5
35A7
330
1F
100
AcDbEntity
  8
文字
100
AcDbCircle
 10
77.35085464690695
 20
280.7880682948405
 30
0.0
 40
0.25
100
AcDbArc
 50
0.0
 51
90.0
  0
ARC
  5
35A8
330
1F
100
AcDbEntity
  8
文字
100
AcDbCircle
 10
76.85085464690695
 20
280.7880682948405
 30
0.0
 40
0.25
100
AcDbArc
 50
90.0
 51
180.0
  0
ARC
  5
35A9
330
1F
100
AcDbEntity
  8
文字
100
AcDbCircle
 10
77.85085464690695
 20
280.0435556978261
 30
0.0
 40
0.25
100
AcDbArc
 50
180.0
 51
269.9999999999978
  0
ARC
  5
35AA
330
1F
100
AcDbEntity
  8
文字
100
AcDbCircle
 10
76.35085464690698
 20
285.1235556978262
 30
0.0
 40
0.25
100
AcDbArc
 50
270.0
 51
0.0
  0
ARC
  5
35AB
330
1F
100
AcDbEntity
  8
文字
100
AcDbCircle
 10
76.35085464690695
 20
283.6235556978262
 30
0.0
 40
0.25
100
AcDbArc
 50
0.0
 51
90.0
  0
CIRCLE
  5
35AC
330
1F
100
AcDbEntity
  8
文字
100
AcDbCircle
 10
77.10085447371074
 20
284.3735555246298
 30
0.0
 40
2.093072897972974
  0
CIRCLE
  5
35AD
330
1F
100
AcDbEntity
  8
文字
100
AcDbCircle
 10
77.10085447371074
 20
284.3735555246298
 30
0.0
 40
1.952876783943912
  0
LINE
  5
35AE
330
1F
100
AcDbEntity
  8
文字
100
AcDbLine
 10
75.21307061254887
 20
283.8735556978262
 30
0.0
 11
76.35085464690698
 21
283.8735556978262
 31
0.0
  0
LINE
  5
35AF
330
1F
100
AcDbEntity
  8
文字
100
AcDbLine
 10
73.75944017371906
 20
283.0952376805271
 30
0.0
 11
72.98493580337944
 21
283.0952376805271
 31
0.0
  0
LINE
  5
35B0
330
1F
100
AcDbEntity
  8
文字
100
AcDbLine
 10
76.35085464690698
 20
284.8735556978261
 30
0.0
 11
75.21307070429465
 21
284.8735556978261
 31
0.0
  0
LINE
  5
35B1
330
1F
100
AcDbEntity
  8
文字
100
AcDbLine
 10
72.98493580337944
 20
285.6518733687328
 30
0.0
 11
72.98493580337944
 21
284.3735555246298
 31
0.0
  0
LINE
  5
35B2
330
1F
100
AcDbEntity
  8
文字
100
AcDbLine
 10
73.75944017371906
 20
284.3735555246298
 30
0.0
 11
73.75944017371906
 21
285.6518733687328
 31
0.0
  0
LINE
  5
35B3
330
1F
100
AcDbEntity
  8
文字
100
AcDbLine
 10
73.75944017371906
 20
285.6518733687328
 30
0.0
 11
72.98493580337944
 21
285.6518733687328
 31
0.0
  0
LINE
  5
35B4
330
1F
100
AcDbEntity
  8
文字
100
AcDbLine
 10
73.75944017371906
 20
284.3735555246298
 30
0.0
 11
73.75944017371906
 21
283.0952376805271
 31
0.0
  0
LINE
  5
35B5
330
1F
100
AcDbEntity
  8
文字
100
AcDbLine
 10
72.98493580337944
 20
283.0952376805271
 30
0.0
 11
72.98493580337944
 21
284.3735555246298
 31
0.0
  0
ARC
  5
35B6
330
1F
100
AcDbEntity
  8
文字
100
AcDbCircle
 10
77.85085464690695
 20
283.6235556978262
 30
0.0
 40
0.25
100
AcDbArc
 50
89.99999999999799
 51
180.0
  0
ARC
  5
35B7
330
1F
100
AcDbEntity
  8
文字
100
AcDbCircle
 10
77.35085464690695
 20
282.8790427544193
 30
0.0
 40
0.25
100
AcDbArc
 50
270.0
 51
0.0
  0
LINE
  5
35B8
330
1F
100
AcDbEntity
  8
文字
100
AcDbLine
 10
77.60085464690698
 20
282.8790427544193
 30
0.0
 11
77.60085464690698
 21
283.6235556978261
 31
0.0
  0
LINE
  5
35B9
330
1F
100
AcDbEntity
  8
文字
100
AcDbLine
 10
76.60085464690698
 20
283.6235556978262
 30
0.0
 11
76.60085464690692
 21
282.8790427544193
 31
0.0
  0
LINE
  5
35BA
330
1F
100
AcDbEntity
  8
文字
100
AcDbLine
 10
77.35085464690698
 20
282.6290427544193
 30
0.0
 11
76.85085464690692
 21
282.6290427544193
 31
0.0
  0
LINE
  5
35BB
330
1F
100
AcDbEntity
  8
文字
100
AcDbLine
 10
78.98863833487266
 20
283.8735556978261
 30
0.0
 11
77.85085464690698
 21
283.8735556978261
 31
0.0
  0
ARC
  5
35BC
330
1F
100
AcDbEntity
  8
文字
100
AcDbCircle
 10
77.85085464690698
 20
285.1235556978262
 30
0.0
 40
0.25
100
AcDbArc
 50
180.0
 51
269.9999999999978
  0
ARC
  5
35BD
330
1F
100
AcDbEntity
  8
文字
100
AcDbCircle
 10
77.35085464690698
 20
285.8680682948405
 30
0.0
 40
0.25
100
AcDbArc
 50
0.0
 51
90.0
  0
LINE
  5
35BE
330
1F
100
AcDbEntity
  8
文字
100
AcDbLine
 10
77.35085464690698
 20
286.1180682948404
 30
0.0
 11
76.85085464690698
 21
286.1180682948404
 31
0.0
  0
LINE
  5
35BF
330
1F
100
AcDbEntity
  8
文字
100
AcDbLine
 10
77.60085464690698
 20
285.8680682948405
 30
0.0
 11
77.60085464690698
 21
285.1235556978261
 31
0.0
  0
LINE
  5
35C0
330
1F
100
AcDbEntity
  8
文字
100
AcDbLine
 10
76.60085464690698
 20
285.1235556978262
 30
0.0
 11
76.60085464690698
 21
285.8680682948405
 31
0.0
  0
LINE
  5
35C1
330
1F
100
AcDbEntity
  8
文字
100
AcDbLine
 10
77.85085464690698
 20
284.8735556978261
 30
0.0
 11
78.98863824312688
 21
284.8735556978261
 31
0.0
  0
ARC
  5
35C2
330
1F
100
AcDbEntity
  8
文字
100
AcDbCircle
 10
76.85085464690698
 20
285.8680682948405
 30
0.0
 40
0.25
100
AcDbArc
 50
90.0
 51
180.0
  0
ARC
  5
35C3
330
1F
100
AcDbEntity
  8
文字
100
AcDbCircle
 10
76.85085464690691
 20
282.8790427544193
 30
0.0
 40
0.25
100
AcDbArc
 50
180.0
 51
270.0
  0
DIMENSION
  5
35C4
102
{ACAD_XDICTIONARY
360
35C5
102
}
102
{ACAD_REACTORS
330
35C6
102
}
330
1F
100
AcDbEntity
  8
文字
100
AcDbDimension
  2
*D10
 10
71.87246888190802
 20
315.6160361588553
 30
0.0
 11
130.618957963117
 21
315.6160361588553
 31
0.0
 70
   160
 71
     5
 42
106.003817991888
  3
ISO-25
100
AcDbAlignedDimension
 13
177.876286873796
 23
306.4897392012562
 33
0.0
 14
71.87246888190802
 24
286.91355552463
 34
0.0
100
AcDbRotatedDimension
  0
LINE
  5
35C7
330
1F
100
AcDbEntity
  8
文字
100
AcDbLine
 10
81.87246888190802
 20
286.91355552463
 30
0.0
 11
81.87246888190802
 21
288.4977863934733
 31
0.0
  0
LINE
  5
35C8
330
1F
100
AcDbEntity
  8
文字
100
AcDbLine
 10
81.87246888190802
 20
288.4977863934733
 30
0.0
 11
82.87628687379607
 21
288.4977863934733
 31
0.0
  0
LINE
  5
35C9
330
1F
100
AcDbEntity
  8
文字
100
AcDbLine
 10
81.87246888190802
 20
234.5293246557864
 30
0.0
 11
82.87628687379607
 21
234.5293246557864
 31
0.0
  0
LINE
  5
35CA
330
1F
100
AcDbEntity
  8
文字
100
AcDbLine
 10
81.87246888190802
 20
236.1135555246298
 30
0.0
 11
81.87246888190802
 21
234.5293246557864
 31
0.0
  0
DIMENSION
  5
35CB
102
{ACAD_XDICTIONARY
360
35CC
102
}
102
{ACAD_REACTORS
330
35CD
102
}
330
1F
100
AcDbEntity
  8
文字
100
AcDbDimension
  2
*D11
 10
68.10577118365529
 20
236.1135555246299
 30
0.0
 11
66.23077118365525
 21
261.5135555246299
 31
0.0
 70
    32
 71
     5
 42
50.80000000000004
  3
ISO-25
100
AcDbAlignedDimension
 13
71.87246888190802
 23
286.91355552463
 33
0.0
 14
71.87246888190795
 24
236.1135555246299
 34
0.0
 50
90.0
100
AcDbRotatedDimension
  0
LINE
  5
35CE
102
{ACAD_REACTORS
330
3682
102
}
330
1F
100
AcDbEntity
  8
文字
100
AcDbLine
 10
25.30476050713528
 20
234.8135555246298
 30
0.0
 11
25.30476050713528
 21
288.2135555246299
 31
0.0
  0
LINE
  5
35CF
330
1F
100
AcDbEntity
  8
文字
100
AcDbLine
 10
25.30476050713525
 20
236.1135555246299
 30
0.0
 11
25.30476050713531
 21
286.9135555246298
 31
0.0
  0
LINE
  5
35D0
102
{ACAD_REACTORS
330
3682
102
}
330
1F
100
AcDbEntity
  8
文字
100
AcDbLine
 10
40.5047605071353
 20
286.9135555246298
 30
0.0
 11
40.50476050713524
 21
236.1135555246299
 31
0.0
  0
LINE
  5
35D1
330
1F
100
AcDbEntity
  8
文字
100
AcDbLine
 10
39.24389392183405
 20
286.9135555246298
 30
0.0
 11
39.243893921834
 21
236.1135555246299
 31
0.0
  0
LINE
  5
35D2
330
1F
100
AcDbEntity
  8
文字
100
AcDbLine
 10
26.3962754569169
 20
236.1135555246299
 30
0.0
 11
26.39627545691694
 21
286.9135555246298
 31
0.0
  0
LINE
  5
35D3
330
1F
100
AcDbEntity
  8
文字
100
AcDbLine
 10
40.50476050713524
 20
236.1135555246299
 30
0.0
 11
25.30476050713525
 21
236.1135555246299
 31
0.0
  0
LINE
  5
35D4
330
1F
100
AcDbEntity
  8
文字
100
AcDbLine
 10
29.28145273750885
 20
237.5274037972057
 30
0.0
 11
32.78220973397754
 21
237.5274037972057
 31
0.0
  0
LINE
  5
35D5
330
1F
100
AcDbEntity
  8
文字
100
AcDbLine
 10
29.28145273750891
 20
242.6074037972056
 30
0.0
 11
32.78220973397758
 21
242.6074037972056
 31
0.0
  0
LINE
  5
35D6
330
1F
100
AcDbEntity
  8
文字
100
AcDbLine
 10
29.28145273750891
 20
239.7797072520541
 30
0.0
 11
32.78220973397758
 21
239.7797072520541
 31
0.0
  0
LINE
  5
35D7
330
1F
100
AcDbEntity
  8
文字
100
AcDbLine
 10
29.28145273750891
 20
247.6874037972057
 30
0.0
 11
32.78220973397758
 21
247.6874037972057
 31
0.0
  0
LINE
  5
35D8
330
1F
100
AcDbEntity
  8
文字
100
AcDbLine
 10
29.28145273750891
 20
244.8597072520541
 30
0.0
 11
32.78220973397758
 21
244.8597072520541
 31
0.0
  0
LINE
  5
35D9
330
1F
100
AcDbEntity
  8
文字
100
AcDbLine
 10
29.28145273750891
 20
249.9397072520541
 30
0.0
 11
32.78220973397758
 21
249.9397072520541
 31
0.0
  0
LINE
  5
35DA
330
1F
100
AcDbEntity
  8
文字
100
AcDbLine
 10
28.22800765939808
 20
250.8135555246298
 30
0.0
 11
35.22800765939809
 21
250.8135555246298
 31
0.0
  0
LINE
  5
35DB
330
1F
100
AcDbEntity
  8
文字
100
AcDbLine
 10
35.22800765939809
 20
246.8135555246298
 30
0.0
 11
28.22800765939808
 21
246.8135555246298
 31
0.0
  0
LINE
  5
35DC
330
1F
100
AcDbEntity
  8
文字
100
AcDbLine
 10
28.22800765939808
 20
245.7335555246299
 30
0.0
 11
35.22800765939809
 21
245.7335555246299
 31
0.0
  0
LINE
  5
35DD
330
1F
100
AcDbEntity
  8
文字
100
AcDbLine
 10
35.22800765939809
 20
241.7335555246299
 30
0.0
 11
28.22800765939808
 21
241.7335555246299
 31
0.0
  0
LINE
  5
35DE
330
1F
100
AcDbEntity
  8
文字
100
AcDbLine
 10
28.22800765939808
 20
240.6535555246299
 30
0.0
 11
35.22800765939809
 21
240.6535555246299
 31
0.0
  0
LINE
  5
35DF
330
1F
100
AcDbEntity
  8
文字
100
AcDbLine
 10
35.22800765939803
 20
236.6535555246298
 30
0.0
 11
28.22800765939803
 21
236.6535555246298
 31
0.0
  0
LINE
  5
35E0
330
1F
100
AcDbEntity
  8
文字
100
AcDbLine
 10
29.28145273750891
 20
243.7335555246299
 30
0.0
 11
29.28145273750891
 21
242.6074037972056
 31
0.0
  0
LINE
  5
35E1
330
1F
100
AcDbEntity
  8
文字
100
AcDbLine
 10
28.22800765939808
 20
241.7335555246299
 30
0.0
 11
28.22800765939808
 21
245.7335555246299
 31
0.0
  0
LINE
  5
35E2
330
1F
100
AcDbEntity
  8
文字
100
AcDbLine
 10
29.28145273750885
 20
238.6535555246299
 30
0.0
 11
29.28145273750885
 21
237.5274037972057
 31
0.0
  0
LINE
  5
35E3
330
1F
100
AcDbEntity
  8
文字
100
AcDbLine
 10
29.28145273750885
 20
238.6535555246299
 30
0.0
 11
29.28145273750891
 21
239.7797072520541
 31
0.0
  0
LINE
  5
35E4
330
1F
100
AcDbEntity
  8
文字
100
AcDbLine
 10
28.22800765939803
 20
236.6535555246298
 30
0.0
 11
28.22800765939808
 21
240.6535555246299
 31
0.0
  0
LINE
  5
35E5
330
1F
100
AcDbEntity
  8
文字
100
AcDbLine
 10
29.28145273750891
 20
242.6074037972056
 30
0.0
 11
28.22800765939808
 21
241.7335555246299
 31
0.0
  0
LINE
  5
35E6
330
1F
100
AcDbEntity
  8
文字
100
AcDbLine
 10
29.28145273750891
 20
239.7797072520541
 30
0.0
 11
28.22800765939808
 21
240.6535555246299
 31
0.0
  0
LINE
  5
35E7
330
1F
100
AcDbEntity
  8
文字
100
AcDbLine
 10
29.28145273750885
 20
237.5274037972057
 30
0.0
 11
28.22800765939803
 21
236.6535555246298
 31
0.0
  0
LINE
  5
35E8
330
1F
100
AcDbEntity
  8
文字
100
AcDbLine
 10
29.28145273750891
 20
248.8135555246298
 30
0.0
 11
29.28145273750891
 21
249.9397072520541
 31
0.0
  0
LINE
  5
35E9
330
1F
100
AcDbEntity
  8
文字
100
AcDbLine
 10
29.28145273750891
 20
248.8135555246298
 30
0.0
 11
29.28145273750891
 21
247.6874037972057
 31
0.0
  0
LINE
  5
35EA
330
1F
100
AcDbEntity
  8
文字
100
AcDbLine
 10
29.28145273750891
 20
243.7335555246299
 30
0.0
 11
29.28145273750891
 21
244.8597072520541
 31
0.0
  0
LINE
  5
35EB
330
1F
100
AcDbEntity
  8
文字
100
AcDbLine
 10
28.22800765939808
 20
246.8135555246298
 30
0.0
 11
28.22800765939808
 21
250.8135555246298
 31
0.0
  0
LINE
  5
35EC
330
1F
100
AcDbEntity
  8
文字
100
AcDbLine
 10
29.28145273750891
 20
249.9397072520541
 30
0.0
 11
28.22800765939808
 21
250.8135555246298
 31
0.0
  0
LINE
  5
35ED
330
1F
100
AcDbEntity
  8
文字
100
AcDbLine
 10
29.28145273750891
 20
247.6874037972057
 30
0.0
 11
28.22800765939808
 21
246.8135555246298
 31
0.0
  0
LINE
  5
35EE
330
1F
100
AcDbEntity
  8
文字
100
AcDbLine
 10
29.28145273750891
 20
244.8597072520541
 30
0.0
 11
28.22800765939808
 21
245.7335555246299
 31
0.0
  0
LINE
  5
35EF
330
1F
100
AcDbEntity
  8
文字
100
AcDbLine
 10
32.78220973397758
 20
242.6074037972056
 30
0.0
 11
32.78220973397758
 21
243.7335555246299
 31
0.0
  0
LINE
  5
35F0
330
1F
100
AcDbEntity
  8
文字
100
AcDbLine
 10
30.39867311093887
 20
242.6074037972056
 30
0.0
 11
30.39867311093887
 21
244.8597072520541
 31
0.0
  0
LINE
  5
35F1
330
1F
100
AcDbEntity
  8
文字
100
AcDbLine
 10
29.69363392498724
 20
244.8597072520541
 30
0.0
 11
29.69363392498724
 21
242.6074037972056
 31
0.0
  0
LINE
  5
35F2
330
1F
100
AcDbEntity
  8
文字
100
AcDbLine
 10
35.22800765939809
 20
245.7335555246299
 30
0.0
 11
35.22800765939809
 21
241.7335555246299
 31
0.0
  0
LINE
  5
35F3
330
1F
100
AcDbEntity
  8
文字
100
AcDbLine
 10
32.78220973397754
 20
237.5274037972057
 30
0.0
 11
35.22800765939803
 21
236.6535555246298
 31
0.0
  0
LINE
  5
35F4
330
1F
100
AcDbEntity
  8
文字
100
AcDbLine
 10
32.78220973397758
 20
242.6074037972056
 30
0.0
 11
35.22800765939809
 21
241.7335555246299
 31
0.0
  0
LINE
  5
35F5
330
1F
100
AcDbEntity
  8
文字
100
AcDbLine
 10
35.22800765939809
 20
240.6535555246299
 30
0.0
 11
32.78220973397758
 21
239.7797072520541
 31
0.0
  0
LINE
  5
35F6
330
1F
100
AcDbEntity
  8
文字
100
AcDbLine
 10
32.78220973397754
 20
237.5274037972057
 30
0.0
 11
32.78220973397754
 21
238.6535555246299
 31
0.0
  0
LINE
  5
35F7
330
1F
100
AcDbEntity
  8
文字
100
AcDbLine
 10
30.39867311093883
 20
237.5274037972057
 30
0.0
 11
30.39867311093887
 21
239.7797072520541
 31
0.0
  0
LINE
  5
35F8
330
1F
100
AcDbEntity
  8
文字
100
AcDbLine
 10
29.69363392498724
 20
239.7797072520541
 30
0.0
 11
29.69363392498717
 21
237.5274037972057
 31
0.0
  0
LINE
  5
35F9
330
1F
100
AcDbEntity
  8
文字
100
AcDbLine
 10
32.78220973397758
 20
239.7797072520541
 30
0.0
 11
32.78220973397754
 21
238.6535555246299
 31
0.0
  0
LINE
  5
35FA
330
1F
100
AcDbEntity
  8
文字
100
AcDbLine
 10
35.22800765939809
 20
240.6535555246299
 30
0.0
 11
35.22800765939803
 21
236.6535555246298
 31
0.0
  0
LINE
  5
35FB
330
1F
100
AcDbEntity
  8
文字
100
AcDbLine
 10
32.78220973397758
 20
247.6874037972057
 30
0.0
 11
35.22800765939809
 21
246.8135555246298
 31
0.0
  0
LINE
  5
35FC
330
1F
100
AcDbEntity
  8
文字
100
AcDbLine
 10
35.22800765939809
 20
245.7335555246299
 30
0.0
 11
32.78220973397758
 21
244.8597072520541
 31
0.0
  0
LINE
  5
35FD
330
1F
100
AcDbEntity
  8
文字
100
AcDbLine
 10
35.22800765939809
 20
250.8135555246298
 30
0.0
 11
32.78220973397758
 21
249.9397072520541
 31
0.0
  0
LINE
  5
35FE
330
1F
100
AcDbEntity
  8
文字
100
AcDbLine
 10
32.78220973397758
 20
249.9397072520541
 30
0.0
 11
32.78220973397758
 21
248.8135555246298
 31
0.0
  0
LINE
  5
35FF
330
1F
100
AcDbEntity
  8
文字
100
AcDbLine
 10
30.39867311093887
 20
247.6874037972057
 30
0.0
 11
30.39867311093887
 21
249.9397072520541
 31
0.0
  0
LINE
  5
3600
330
1F
100
AcDbEntity
  8
文字
100
AcDbLine
 10
29.69363392498724
 20
249.9397072520541
 30
0.0
 11
29.69363392498724
 21
247.6874037972057
 31
0.0
  0
LINE
  5
3601
330
1F
100
AcDbEntity
  8
文字
100
AcDbLine
 10
32.78220973397758
 20
247.6874037972057
 30
0.0
 11
32.78220973397758
 21
248.8135555246298
 31
0.0
  0
LINE
  5
3602
330
1F
100
AcDbEntity
  8
文字
100
AcDbLine
 10
32.78220973397758
 20
244.8597072520541
 30
0.0
 11
32.78220973397758
 21
243.7335555246299
 31
0.0
  0
LINE
  5
3603
330
1F
100
AcDbEntity
  8
文字
100
AcDbLine
 10
35.22800765939809
 20
250.8135555246298
 30
0.0
 11
35.22800765939809
 21
246.8135555246298
 31
0.0
  0
LINE
  5
3604
330
1F
100
AcDbEntity
  8
文字
100
AcDbLine
 10
32.78220973397758
 20
283.2474037972057
 30
0.0
 11
35.22800765939809
 21
282.3735555246298
 31
0.0
  0
LINE
  5
3605
330
1F
100
AcDbEntity
  8
文字
100
AcDbLine
 10
35.22800765939809
 20
286.3735555246298
 30
0.0
 11
35.22800765939809
 21
282.3735555246298
 31
0.0
  0
LINE
  5
3606
330
1F
100
AcDbEntity
  8
文字
100
AcDbLine
 10
28.22800765939808
 20
282.3735555246298
 30
0.0
 11
28.22800765939808
 21
286.3735555246298
 31
0.0
  0
LINE
  5
3607
330
1F
100
AcDbEntity
  8
文字
100
AcDbLine
 10
29.28145273750891
 20
283.2474037972057
 30
0.0
 11
28.22800765939808
 21
282.3735555246298
 31
0.0
  0
LINE
  5
3608
330
1F
100
AcDbEntity
  8
文字
100
AcDbLine
 10
35.22800765939809
 20
271.1335555246299
 30
0.0
 11
35.22800765939809
 21
267.1335555246299
 31
0.0
  0
LINE
  5
3609
330
1F
100
AcDbEntity
  8
文字
100
AcDbLine
 10
32.78220973397758
 20
268.0074037972057
 30
0.0
 11
35.22800765939809
 21
267.1335555246299
 31
0.0
  0
LINE
  5
360A
330
1F
100
AcDbEntity
  8
文字
100
AcDbLine
 10
28.22800765939808
 20
267.1335555246299
 30
0.0
 11
28.22800765939808
 21
271.1335555246299
 31
0.0
  0
LINE
  5
360B
330
1F
100
AcDbEntity
  8
文字
100
AcDbLine
 10
29.28145273750891
 20
268.0074037972057
 30
0.0
 11
28.22800765939808
 21
267.1335555246299
 31
0.0
  0
LINE
  5
360C
330
1F
100
AcDbEntity
  8
文字
100
AcDbLine
 10
29.28145273750891
 20
252.7674037972057
 30
0.0
 11
32.78220973397758
 21
252.7674037972057
 31
0.0
  0
LINE
  5
360D
330
1F
100
AcDbEntity
  8
文字
100
AcDbLine
 10
29.28145273750891
 20
255.0197072520541
 30
0.0
 11
32.78220973397758
 21
255.0197072520541
 31
0.0
  0
LINE
  5
360E
330
1F
100
AcDbEntity
  8
文字
100
AcDbLine
 10
29.28145273750891
 20
260.0997072520542
 30
0.0
 11
32.78220973397758
 21
260.0997072520542
 31
0.0
  0
LINE
  5
360F
330
1F
100
AcDbEntity
  8
文字
100
AcDbLine
 10
29.28145273750891
 20
257.8474037972055
 30
0.0
 11
32.78220973397758
 21
257.8474037972055
 31
0.0
  0
LINE
  5
3610
330
1F
100
AcDbEntity
  8
文字
100
AcDbLine
 10
29.28145273750891
 20
265.1797072520541
 30
0.0
 11
32.78220973397758
 21
265.1797072520541
 31
0.0
  0
LINE
  5
3611
330
1F
100
AcDbEntity
  8
文字
100
AcDbLine
 10
29.28145273750891
 20
262.9274037972056
 30
0.0
 11
32.78220973397758
 21
262.9274037972056
 31
0.0
  0
LINE
  5
3612
330
1F
100
AcDbEntity
  8
文字
100
AcDbLine
 10
35.22800765939809
 20
267.1335555246299
 30
0.0
 11
28.22800765939808
 21
267.1335555246299
 31
0.0
  0
LINE
  5
3613
330
1F
100
AcDbEntity
  8
文字
100
AcDbLine
 10
28.22800765939808
 20
266.0535555246298
 30
0.0
 11
35.22800765939809
 21
266.0535555246298
 31
0.0
  0
LINE
  5
3614
330
1F
100
AcDbEntity
  8
文字
100
AcDbLine
 10
35.22800765939809
 20
262.0535555246298
 30
0.0
 11
28.22800765939808
 21
262.0535555246298
 31
0.0
  0
LINE
  5
3615
330
1F
100
AcDbEntity
  8
文字
100
AcDbLine
 10
28.22800765939808
 20
260.9735555246298
 30
0.0
 11
35.22800765939809
 21
260.9735555246298
 31
0.0
  0
LINE
  5
3616
330
1F
100
AcDbEntity
  8
文字
100
AcDbLine
 10
35.22800765939809
 20
256.9735555246298
 30
0.0
 11
28.22800765939808
 21
256.9735555246298
 31
0.0
  0
LINE
  5
3617
330
1F
100
AcDbEntity
  8
文字
100
AcDbLine
 10
28.22800765939808
 20
255.8935555246299
 30
0.0
 11
35.22800765939809
 21
255.8935555246299
 31
0.0
  0
LINE
  5
3618
330
1F
100
AcDbEntity
  8
文字
100
AcDbLine
 10
35.22800765939809
 20
251.8935555246299
 30
0.0
 11
28.22800765939808
 21
251.8935555246299
 31
0.0
  0
LINE
  5
3619
330
1F
100
AcDbEntity
  8
文字
100
AcDbLine
 10
29.28145273750891
 20
258.9735555246298
 30
0.0
 11
29.28145273750891
 21
260.0997072520542
 31
0.0
  0
LINE
  5
361A
330
1F
100
AcDbEntity
  8
文字
100
AcDbLine
 10
28.22800765939808
 20
256.9735555246298
 30
0.0
 11
28.22800765939808
 21
260.9735555246298
 31
0.0
  0
LINE
  5
361B
330
1F
100
AcDbEntity
  8
文字
100
AcDbLine
 10
29.28145273750891
 20
253.8935555246299
 30
0.0
 11
29.28145273750891
 21
255.0197072520541
 31
0.0
  0
LINE
  5
361C
330
1F
100
AcDbEntity
  8
文字
100
AcDbLine
 10
29.28145273750891
 20
258.9735555246298
 30
0.0
 11
29.28145273750891
 21
257.8474037972055
 31
0.0
  0
LINE
  5
361D
330
1F
100
AcDbEntity
  8
文字
100
AcDbLine
 10
29.28145273750891
 20
253.8935555246299
 30
0.0
 11
29.28145273750891
 21
252.7674037972057
 31
0.0
  0
LINE
  5
361E
330
1F
100
AcDbEntity
  8
文字
100
AcDbLine
 10
28.22800765939808
 20
251.8935555246299
 30
0.0
 11
28.22800765939808
 21
255.8935555246299
 31
0.0
  0
LINE
  5
361F
330
1F
100
AcDbEntity
  8
文字
100
AcDbLine
 10
29.28145273750891
 20
257.8474037972055
 30
0.0
 11
28.22800765939808
 21
256.9735555246298
 31
0.0
  0
LINE
  5
3620
330
1F
100
AcDbEntity
  8
文字
100
AcDbLine
 10
29.28145273750891
 20
255.0197072520541
 30
0.0
 11
28.22800765939808
 21
255.8935555246299
 31
0.0
  0
LINE
  5
3621
330
1F
100
AcDbEntity
  8
文字
100
AcDbLine
 10
29.28145273750891
 20
252.7674037972057
 30
0.0
 11
28.22800765939808
 21
251.8935555246299
 31
0.0
  0
LINE
  5
3622
330
1F
100
AcDbEntity
  8
文字
100
AcDbLine
 10
29.28145273750891
 20
264.0535555246298
 30
0.0
 11
29.28145273750891
 21
265.1797072520541
 31
0.0
  0
LINE
  5
3623
330
1F
100
AcDbEntity
  8
文字
100
AcDbLine
 10
29.28145273750891
 20
264.0535555246298
 30
0.0
 11
29.28145273750891
 21
262.9274037972056
 31
0.0
  0
LINE
  5
3624
330
1F
100
AcDbEntity
  8
文字
100
AcDbLine
 10
28.22800765939808
 20
262.0535555246298
 30
0.0
 11
28.22800765939808
 21
266.0535555246298
 31
0.0
  0
LINE
  5
3625
330
1F
100
AcDbEntity
  8
文字
100
AcDbLine
 10
29.28145273750891
 20
265.1797072520541
 30
0.0
 11
28.22800765939808
 21
266.0535555246298
 31
0.0
  0
LINE
  5
3626
330
1F
100
AcDbEntity
  8
文字
100
AcDbLine
 10
29.28145273750891
 20
262.9274037972056
 30
0.0
 11
28.22800765939808
 21
262.0535555246298
 31
0.0
  0
LINE
  5
3627
330
1F
100
AcDbEntity
  8
文字
100
AcDbLine
 10
29.28145273750891
 20
260.0997072520542
 30
0.0
 11
28.22800765939808
 21
260.9735555246298
 31
0.0
  0
LINE
  5
3628
330
1F
100
AcDbEntity
  8
文字
100
AcDbLine
 10
30.39867311093887
 20
257.8474037972055
 30
0.0
 11
30.39867311093887
 21
260.0997072520542
 31
0.0
  0
LINE
  5
3629
330
1F
100
AcDbEntity
  8
文字
100
AcDbLine
 10
29.69363392498724
 20
260.0997072520542
 30
0.0
 11
29.69363392498724
 21
257.8474037972055
 31
0.0
  0
LINE
  5
362A
330
1F
100
AcDbEntity
  8
文字
100
AcDbLine
 10
32.78220973397758
 20
260.0997072520542
 30
0.0
 11
32.78220973397758
 21
258.9735555246298
 31
0.0
  0
LINE
  5
362B
330
1F
100
AcDbEntity
  8
文字
100
AcDbLine
 10
35.22800765939809
 20
260.9735555246298
 30
0.0
 11
35.22800765939809
 21
256.9735555246298
 31
0.0
  0
LINE
  5
362C
330
1F
100
AcDbEntity
  8
文字
100
AcDbLine
 10
32.78220973397758
 20
252.7674037972057
 30
0.0
 11
35.22800765939809
 21
251.8935555246299
 31
0.0
  0
LINE
  5
362D
330
1F
100
AcDbEntity
  8
文字
100
AcDbLine
 10
35.22800765939809
 20
255.8935555246299
 30
0.0
 11
32.78220973397758
 21
255.0197072520541
 31
0.0
  0
LINE
  5
362E
330
1F
100
AcDbEntity
  8
文字
100
AcDbLine
 10
32.78220973397758
 20
257.8474037972055
 30
0.0
 11
35.22800765939809
 21
256.9735555246298
 31
0.0
  0
LINE
  5
362F
330
1F
100
AcDbEntity
  8
文字
100
AcDbLine
 10
32.78220973397758
 20
255.0197072520541
 30
0.0
 11
32.78220973397758
 21
253.8935555246299
 31
0.0
  0
LINE
  5
3630
330
1F
100
AcDbEntity
  8
文字
100
AcDbLine
 10
32.78220973397758
 20
257.8474037972055
 30
0.0
 11
32.78220973397758
 21
258.9735555246298
 31
0.0
  0
LINE
  5
3631
330
1F
100
AcDbEntity
  8
文字
100
AcDbLine
 10
30.39867311093887
 20
252.7674037972057
 30
0.0
 11
30.39867311093887
 21
255.0197072520541
 31
0.0
  0
LINE
  5
3632
330
1F
100
AcDbEntity
  8
文字
100
AcDbLine
 10
29.69363392498724
 20
255.0197072520541
 30
0.0
 11
29.69363392498724
 21
252.7674037972057
 31
0.0
  0
LINE
  5
3633
330
1F
100
AcDbEntity
  8
文字
100
AcDbLine
 10
32.78220973397758
 20
252.7674037972057
 30
0.0
 11
32.78220973397758
 21
253.8935555246299
 31
0.0
  0
LINE
  5
3634
330
1F
100
AcDbEntity
  8
文字
100
AcDbLine
 10
35.22800765939809
 20
255.8935555246299
 30
0.0
 11
35.22800765939809
 21
251.8935555246299
 31
0.0
  0
LINE
  5
3635
330
1F
100
AcDbEntity
  8
文字
100
AcDbLine
 10
35.22800765939809
 20
260.9735555246298
 30
0.0
 11
32.78220973397758
 21
260.0997072520542
 31
0.0
  0
LINE
  5
3636
330
1F
100
AcDbEntity
  8
文字
100
AcDbLine
 10
35.22800765939809
 20
266.0535555246298
 30
0.0
 11
32.78220973397758
 21
265.1797072520541
 31
0.0
  0
LINE
  5
3637
330
1F
100
AcDbEntity
  8
文字
100
AcDbLine
 10
32.78220973397758
 20
262.9274037972056
 30
0.0
 11
35.22800765939809
 21
262.0535555246298
 31
0.0
  0
LINE
  5
3638
330
1F
100
AcDbEntity
  8
文字
100
AcDbLine
 10
30.39867311093887
 20
262.9274037972056
 30
0.0
 11
30.39867311093887
 21
265.1797072520541
 31
0.0
  0
LINE
  5
3639
330
1F
100
AcDbEntity
  8
文字
100
AcDbLine
 10
29.69363392498724
 20
265.1797072520541
 30
0.0
 11
29.69363392498724
 21
262.9274037972056
 31
0.0
  0
LINE
  5
363A
330
1F
100
AcDbEntity
  8
文字
100
AcDbLine
 10
32.78220973397758
 20
265.1797072520541
 30
0.0
 11
32.78220973397758
 21
264.0535555246298
 31
0.0
  0
LINE
  5
363B
330
1F
100
AcDbEntity
  8
文字
100
AcDbLine
 10
32.78220973397758
 20
262.9274037972056
 30
0.0
 11
32.78220973397758
 21
264.0535555246298
 31
0.0
  0
LINE
  5
363C
330
1F
100
AcDbEntity
  8
文字
100
AcDbLine
 10
35.22800765939809
 20
266.0535555246298
 30
0.0
 11
35.22800765939809
 21
262.0535555246298
 31
0.0
  0
LINE
  5
363D
330
1F
100
AcDbEntity
  8
文字
100
AcDbLine
 10
29.28145273750891
 20
270.2597072520541
 30
0.0
 11
32.78220973397758
 21
270.2597072520541
 31
0.0
  0
LINE
  5
363E
330
1F
100
AcDbEntity
  8
文字
100
AcDbLine
 10
29.28145273750891
 20
268.0074037972057
 30
0.0
 11
32.78220973397758
 21
268.0074037972057
 31
0.0
  0
LINE
  5
363F
330
1F
100
AcDbEntity
  8
文字
100
AcDbLine
 10
29.28145273750891
 20
275.3397072520541
 30
0.0
 11
32.78220973397758
 21
275.3397072520541
 31
0.0
  0
LINE
  5
3640
330
1F
100
AcDbEntity
  8
文字
100
AcDbLine
 10
29.28145273750891
 20
273.0874037972057
 30
0.0
 11
32.78220973397758
 21
273.0874037972057
 31
0.0
  0
LINE
  5
3641
330
1F
100
AcDbEntity
  8
文字
100
AcDbLine
 10
29.28145273750891
 20
278.1674037972056
 30
0.0
 11
32.78220973397758
 21
278.1674037972056
 31
0.0
  0
LINE
  5
3642
330
1F
100
AcDbEntity
  8
文字
100
AcDbLine
 10
35.22800765939809
 20
277.2935555246298
 30
0.0
 11
28.22800765939808
 21
277.2935555246298
 31
0.0
  0
LINE
  5
3643
330
1F
100
AcDbEntity
  8
文字
100
AcDbLine
 10
28.22800765939808
 20
276.2135555246298
 30
0.0
 11
35.22800765939809
 21
276.2135555246298
 31
0.0
  0
LINE
  5
3644
330
1F
100
AcDbEntity
  8
文字
100
AcDbLine
 10
35.22800765939809
 20
272.2135555246298
 30
0.0
 11
28.22800765939808
 21
272.2135555246298
 31
0.0
  0
LINE
  5
3645
330
1F
100
AcDbEntity
  8
文字
100
AcDbLine
 10
28.22800765939808
 20
271.1335555246299
 30
0.0
 11
35.22800765939809
 21
271.1335555246299
 31
0.0
  0
LINE
  5
3646
330
1F
100
AcDbEntity
  8
文字
100
AcDbLine
 10
29.28145273750891
 20
280.4197072520541
 30
0.0
 11
32.78220973397758
 21
280.4197072520541
 31
0.0
  0
LINE
  5
3647
330
1F
100
AcDbEntity
  8
文字
100
AcDbLine
 10
35.22800765939809
 20
282.3735555246298
 30
0.0
 11
28.22800765939808
 21
282.3735555246298
 31
0.0
  0
LINE
  5
3648
330
1F
100
AcDbEntity
  8
文字
100
AcDbLine
 10
28.22800765939808
 20
281.29355552463
 30
0.0
 11
35.22800765939809
 21
281.29355552463
 31
0.0
  0
LINE
  5
3649
330
1F
100
AcDbEntity
  8
文字
100
AcDbLine
 10
29.28145273750891
 20
274.2135555246298
 30
0.0
 11
29.28145273750891
 21
275.3397072520541
 31
0.0
  0
LINE
  5
364A
330
1F
100
AcDbEntity
  8
文字
100
AcDbLine
 10
28.22800765939808
 20
272.2135555246298
 30
0.0
 11
28.22800765939808
 21
276.2135555246298
 31
0.0
  0
LINE
  5
364B
330
1F
100
AcDbEntity
  8
文字
100
AcDbLine
 10
29.28145273750891
 20
269.1335555246299
 30
0.0
 11
29.28145273750891
 21
270.2597072520541
 31
0.0
  0
LINE
  5
364C
330
1F
100
AcDbEntity
  8
文字
100
AcDbLine
 10
29.28145273750891
 20
269.1335555246299
 30
0.0
 11
29.28145273750891
 21
268.0074037972057
 31
0.0
  0
LINE
  5
364D
330
1F
100
AcDbEntity
  8
文字
100
AcDbLine
 10
29.28145273750891
 20
274.2135555246298
 30
0.0
 11
29.28145273750891
 21
273.0874037972057
 31
0.0
  0
LINE
  5
364E
330
1F
100
AcDbEntity
  8
文字
100
AcDbLine
 10
29.28145273750891
 20
273.0874037972057
 30
0.0
 11
28.22800765939808
 21
272.2135555246298
 31
0.0
  0
LINE
  5
364F
330
1F
100
AcDbEntity
  8
文字
100
AcDbLine
 10
29.28145273750891
 20
270.2597072520541
 30
0.0
 11
28.22800765939808
 21
271.1335555246299
 31
0.0
  0
LINE
  5
3650
330
1F
100
AcDbEntity
  8
文字
100
AcDbLine
 10
29.28145273750891
 20
279.2935555246298
 30
0.0
 11
29.28145273750891
 21
278.1674037972056
 31
0.0
  0
LINE
  5
3651
330
1F
100
AcDbEntity
  8
文字
100
AcDbLine
 10
29.28145273750891
 20
278.1674037972056
 30
0.0
 11
28.22800765939808
 21
277.2935555246298
 31
0.0
  0
LINE
  5
3652
330
1F
100
AcDbEntity
  8
文字
100
AcDbLine
 10
29.28145273750891
 20
275.3397072520541
 30
0.0
 11
28.22800765939808
 21
276.2135555246298
 31
0.0
  0
LINE
  5
3653
330
1F
100
AcDbEntity
  8
文字
100
AcDbLine
 10
29.28145273750891
 20
280.4197072520541
 30
0.0
 11
28.22800765939808
 21
281.29355552463
 31
0.0
  0
LINE
  5
3654
330
1F
100
AcDbEntity
  8
文字
100
AcDbLine
 10
28.22800765939808
 20
277.2935555246298
 30
0.0
 11
28.22800765939808
 21
281.29355552463
 31
0.0
  0
LINE
  5
3655
330
1F
100
AcDbEntity
  8
文字
100
AcDbLine
 10
29.28145273750891
 20
279.2935555246298
 30
0.0
 11
29.28145273750891
 21
280.4197072520541
 31
0.0
  0
LINE
  5
3656
330
1F
100
AcDbEntity
  8
文字
100
AcDbLine
 10
30.39867311093887
 20
273.0874037972057
 30
0.0
 11
30.39867311093887
 21
275.3397072520541
 31
0.0
  0
LINE
  5
3657
330
1F
100
AcDbEntity
  8
文字
100
AcDbLine
 10
29.69363392498724
 20
275.3397072520541
 30
0.0
 11
29.69363392498724
 21
273.0874037972057
 31
0.0
  0
LINE
  5
3658
330
1F
100
AcDbEntity
  8
文字
100
AcDbLine
 10
32.78220973397758
 20
275.3397072520541
 30
0.0
 11
32.78220973397758
 21
274.2135555246298
 31
0.0
  0
LINE
  5
3659
330
1F
100
AcDbEntity
  8
文字
100
AcDbLine
 10
35.22800765939809
 20
276.2135555246298
 30
0.0
 11
35.22800765939809
 21
272.2135555246298
 31
0.0
  0
LINE
  5
365A
330
1F
100
AcDbEntity
  8
文字
100
AcDbLine
 10
35.22800765939809
 20
271.1335555246299
 30
0.0
 11
32.78220973397758
 21
270.2597072520541
 31
0.0
  0
LINE
  5
365B
330
1F
100
AcDbEntity
  8
文字
100
AcDbLine
 10
32.78220973397758
 20
273.0874037972057
 30
0.0
 11
35.22800765939809
 21
272.2135555246298
 31
0.0
  0
LINE
  5
365C
330
1F
100
AcDbEntity
  8
文字
100
AcDbLine
 10
30.39867311093887
 20
268.0074037972057
 30
0.0
 11
30.39867311093887
 21
270.2597072520541
 31
0.0
  0
LINE
  5
365D
330
1F
100
AcDbEntity
  8
文字
100
AcDbLine
 10
29.69363392498724
 20
270.2597072520541
 30
0.0
 11
29.69363392498724
 21
268.0074037972057
 31
0.0
  0
LINE
  5
365E
330
1F
100
AcDbEntity
  8
文字
100
AcDbLine
 10
32.78220973397758
 20
270.2597072520541
 30
0.0
 11
32.78220973397758
 21
269.1335555246299
 31
0.0
  0
LINE
  5
365F
330
1F
100
AcDbEntity
  8
文字
100
AcDbLine
 10
32.78220973397758
 20
268.0074037972057
 30
0.0
 11
32.78220973397758
 21
269.1335555246299
 31
0.0
  0
LINE
  5
3660
330
1F
100
AcDbEntity
  8
文字
100
AcDbLine
 10
32.78220973397758
 20
273.0874037972057
 30
0.0
 11
32.78220973397758
 21
274.2135555246298
 31
0.0
  0
LINE
  5
3661
330
1F
100
AcDbEntity
  8
文字
100
AcDbLine
 10
32.78220973397758
 20
278.1674037972056
 30
0.0
 11
35.22800765939809
 21
277.2935555246298
 31
0.0
  0
LINE
  5
3662
330
1F
100
AcDbEntity
  8
文字
100
AcDbLine
 10
35.22800765939809
 20
276.2135555246298
 30
0.0
 11
32.78220973397758
 21
275.3397072520541
 31
0.0
  0
LINE
  5
3663
330
1F
100
AcDbEntity
  8
文字
100
AcDbLine
 10
35.22800765939809
 20
281.29355552463
 30
0.0
 11
32.78220973397758
 21
280.4197072520541
 31
0.0
  0
LINE
  5
3664
330
1F
100
AcDbEntity
  8
文字
100
AcDbLine
 10
32.78220973397758
 20
278.1674037972056
 30
0.0
 11
32.78220973397758
 21
279.2935555246298
 31
0.0
  0
LINE
  5
3665
330
1F
100
AcDbEntity
  8
文字
100
AcDbLine
 10
30.39867311093887
 20
278.1674037972056
 30
0.0
 11
30.39867311093887
 21
280.4197072520541
 31
0.0
  0
LINE
  5
3666
330
1F
100
AcDbEntity
  8
文字
100
AcDbLine
 10
29.69363392498724
 20
280.4197072520541
 30
0.0
 11
29.69363392498724
 21
278.1674037972056
 31
0.0
  0
LINE
  5
3667
330
1F
100
AcDbEntity
  8
文字
100
AcDbLine
 10
32.78220973397758
 20
280.4197072520541
 30
0.0
 11
32.78220973397758
 21
279.2935555246298
 31
0.0
  0
LINE
  5
3668
330
1F
100
AcDbEntity
  8
文字
100
AcDbLine
 10
35.22800765939809
 20
281.29355552463
 30
0.0
 11
35.22800765939809
 21
277.2935555246298
 31
0.0
  0
LINE
  5
3669
330
1F
100
AcDbEntity
  8
文字
100
AcDbLine
 10
25.30476050713531
 20
286.9135555246298
 30
0.0
 11
40.5047605071353
 21
286.9135555246298
 31
0.0
  0
LINE
  5
366A
330
1F
100
AcDbEntity
  8
文字
100
AcDbLine
 10
29.28145273750891
 20
283.2474037972057
 30
0.0
 11
32.78220973397758
 21
283.2474037972057
 31
0.0
  0
LINE
  5
366B
330
1F
100
AcDbEntity
  8
文字
100
AcDbLine
 10
29.28145273750891
 20
285.4997072520541
 30
0.0
 11
32.78220973397758
 21
285.4997072520541
 31
0.0
  0
LINE
  5
366C
330
1F
100
AcDbEntity
  8
文字
100
AcDbLine
 10
28.22800765939808
 20
286.3735555246298
 30
0.0
 11
35.22800765939809
 21
286.3735555246298
 31
0.0
  0
LINE
  5
366D
330
1F
100
AcDbEntity
  8
文字
100
AcDbLine
 10
29.28145273750891
 20
284.3735555246298
 30
0.0
 11
29.28145273750891
 21
283.2474037972057
 31
0.0
  0
LINE
  5
366E
330
1F
100
AcDbEntity
  8
文字
100
AcDbLine
 10
29.28145273750891
 20
284.3735555246298
 30
0.0
 11
29.28145273750891
 21
285.4997072520541
 31
0.0
  0
LINE
  5
366F
330
1F
100
AcDbEntity
  8
文字
100
AcDbLine
 10
29.28145273750891
 20
285.4997072520541
 30
0.0
 11
28.22800765939808
 21
286.3735555246298
 31
0.0
  0
LINE
  5
3670
330
1F
100
AcDbEntity
  8
文字
100
AcDbLine
 10
35.22800765939809
 20
286.3735555246298
 30
0.0
 11
32.78220973397758
 21
285.4997072520541
 31
0.0
  0
LINE
  5
3671
330
1F
100
AcDbEntity
  8
文字
100
AcDbLine
 10
32.78220973397758
 20
283.2474037972057
 30
0.0
 11
32.78220973397758
 21
284.3735555246298
 31
0.0
  0
LINE
  5
3672
330
1F
100
AcDbEntity
  8
文字
100
AcDbLine
 10
32.78220973397758
 20
285.4997072520541
 30
0.0
 11
32.78220973397758
 21
284.3735555246298
 31
0.0
  0
LINE
  5
3673
330
1F
100
AcDbEntity
  8
文字
100
AcDbLine
 10
29.69363392498724
 20
285.4997072520541
 30
0.0
 11
29.69363392498724
 21
283.2474037972057
 31
0.0
  0
LINE
  5
3674
330
1F
100
AcDbEntity
  8
文字
100
AcDbLine
 10
30.39867311093887
 20
283.2474037972057
 30
0.0
 11
30.39867311093887
 21
285.4997072520541
 31
0.0
  0
LINE
  5
3675
330
1F
100
AcDbEntity
  8
文字
100
AcDbLine
 10
34.30476050713528
 20
288.2135555246299
 30
0.0
 11
34.30476050713528
 21
286.9135555246298
 31
0.0
  0
LINE
  5
3676
330
1F
100
AcDbEntity
  8
文字
100
AcDbLine
 10
34.30476050713528
 20
234.8135555246298
 30
0.0
 11
34.30476050713528
 21
236.1135555246299
 31
0.0
  0
DIMENSION
  5
3677
102
{ACAD_XDICTIONARY
360
3678
102
}
102
{ACAD_REACTORS
330
3679
102
}
330
1F
100
AcDbEntity
  8
文字
100
AcDbDimension
  2
*D12
 10
82.87628687379607
 20
308.9679127472036
 30
0.0
 11
130.376286873796
 21
310.8429127472037
 31
0.0
 70
    32
 71
     5
 42
95.0
  3
ISO-25
100
AcDbAlignedDimension
 13
177.876286873796
 23
298.5135555246298
 33
0.0
 14
82.87628687379607
 24
298.5135555246298
 34
0.0
100
AcDbRotatedDimension
  0
DIMENSION
  5
367A
102
{ACAD_XDICTIONARY
360
367B
102
}
102
{ACAD_REACTORS
330
367C
102
}
330
1F
100
AcDbEntity
  8
文字
100
AcDbDimension
  2
*D13
 10
188.7323292362087
 20
224.5135555246299
 30
0.0
 11
186.8573292362087
 21
261.5135555246299
 31
0.0
 70
    32
 71
     5
 42
73.99999999999997
  3
ISO-25
100
AcDbAlignedDimension
 13
177.876286873796
 23
298.5135555246298
 33
0.0
 14
177.876286873796
 24
224.5135555246299
 34
0.0
 50
90.0
100
AcDbRotatedDimension
  0
DIMENSION
  5
367D
102
{ACAD_XDICTIONARY
360
367E
102
}
102
{ACAD_REACTORS
330
367F
102
}
330
1F
100
AcDbEntity
  8
文字
100
AcDbDimension
  2
*D14
 10
43.30476050713524
 20
315.5545199027908
 30
0.0
 11
29.80476050713525
 21
317.4295199027908
 31
0.0
 70
    32
 71
     5
 42
27.0
  3
ISO-25
100
AcDbAlignedDimension
 13
16.30476050713524
 23
298.5135555246298
 33
0.0
 14
43.30476050713524
 24
298.5135555246298
 34
0.0
100
AcDbRotatedDimension
  0
DIMENSION
  5
3680
102
{ACAD_XDICTIONARY
360
3681
102
}
102
{ACAD_REACTORS
330
3682
102
}
330
1F
100
AcDbEntity
  8
文字
100
AcDbDimension
  2
*D15
 10
40.5047605071353
 20
308.8644670873665
 30
0.0
 11
32.90476050713529
 21
310.7394670873665
 31
0.0
 70
    32
 71
     5
 42
15.20000000000001
  3
ISO-25
100
AcDbAlignedDimension
 13
25.30476050713528
 23
288.2135555246299
 33
0.0
 14
40.5047605071353
 24
286.9135555246298
 34
0.0
100
AcDbRotatedDimension
  0
DIMENSION
  5
3683
330
1F
100
AcDbEntity
  8
文字
100
AcDbDimension
  2
*D9
 10
16.30476050713524
 20
308.8644670873665
 30
0.0
 11
20.80476050713527
 21
310.7394670873665
 31
0.0
 70
    32
 71
     5
 42
9.000000000000026
  3
ISO-25
100
AcDbAlignedDimension
 13
25.30476050713528
 23
288.2135555246299
 33
0.0
 14
16.30476050713524
 24
299.1385555246298
 34
0.0
100
AcDbRotatedDimension
  0
LINE
  5
3684
330
1F
100
AcDbEntity
  8
文字
100
AcDbLine
 10
24.90476050713529
 20
288.6639317222083
 30
0.0
 11
24.90476050713526
 21
234.3631793270515
 31
0.0
  0
LINE
  5
3685
330
1F
100
AcDbEntity
  8
文字
100
AcDbLine
 10
24.90476050713529
 20
288.6639317222083
 30
0.0
 11
34.7013095289933
 21
288.6639317222083
 31
0.0
  0
LINE
  5
3686
330
1F
100
AcDbEntity
  8
文字
100
AcDbLine
 10
34.7013095289933
 20
288.6639317222083
 30
0.0
 11
34.7013095289933
 21
286.9135555246298
 31
0.0
  0
LINE
  5
3687
330
1F
100
AcDbEntity
  8
文字
100
AcDbLine
 10
24.90476050713529
 20
234.3631793270515
 30
0.0
 11
34.7013095289933
 21
234.3631793270515
 31
0.0
  0
LINE
  5
3688
330
1F
100
AcDbEntity
  8
文字
100
AcDbLine
 10
34.7013095289933
 20
234.3631793270515
 30
0.0
 11
34.7013095289933
 21
236.11355552463
 31
0.0
  0
LINE
  5
3689
330
1F
100
AcDbEntity
  8
文字
100
AcDbLine
 10
201.8762868737959
 20
296.5135555246298
 30
0.0
 11
202.876286873796
 21
297.51355552463
 31
0.0
  0
LINE
  5
368A
330
1F
100
AcDbEntity
  8
文字
100
AcDbLine
 10
202.876286873796
 20
225.5135555246299
 30
0.0
 11
201.8762868737959
 21
226.5135555246299
 31
0.0
  0
LINE
  5
368B
330
1F
100
AcDbEntity
  8
外形２
370
     9
100
AcDbLine
 10
230.4762868737959
 20
287.4475625603086
 30
0.0
 11
230.4762868737959
 21
294.4475625603086
 31
0.0
  0
LINE
  5
368C
330
1F
100
AcDbEntity
  8
外形２
370
     9
100
AcDbLine
 10
228.676286873796
 20
290.9475625603085
 30
0.0
 11
228.676286873796
 21
286.4475625603084
 31
0.0
  0
LINE
  5
368D
330
1F
100
AcDbEntity
  8
外形２
370
     9
100
AcDbLine
 10
228.676286873796
 20
296.0475625603086
 30
0.0
 11
228.676286873796
 21
285.8475625603086
 31
0.0
  0
LINE
  5
368E
330
1F
100
AcDbEntity
  8
外形２
370
     9
100
AcDbLine
 10
229.476286873796
 20
295.4475625603086
 30
0.0
 11
228.676286873796
 21
295.4475625603086
 31
0.0
  0
ARC
  5
368F
102
{ACAD_REACTORS
330
36B1
102
}
330
1F
100
AcDbEntity
  8
外形２
370
     9
100
AcDbCircle
 10
229.476286873796
 20
294.4475625603086
 30
0.0
 40
1.0
100
AcDbArc
 50
0.0
 51
90.0
  0
LINE
  5
3690
330
1F
100
AcDbEntity
  8
外形２
370
     9
100
AcDbLine
 10
227.876286873796
 20
296.0475625603086
 30
0.0
 11
228.676286873796
 21
296.0475625603086
 31
0.0
  0
LINE
  5
3691
330
1F
100
AcDbEntity
  8
外形２
370
     9
100
AcDbLine
 10
228.676286873796
 20
286.4475625603084
 30
0.0
 11
229.476286873796
 21
286.4475625603084
 31
0.0
  0
ARC
  5
3692
330
1F
100
AcDbEntity
  8
外形２
370
     9
100
AcDbCircle
 10
229.476286873796
 20
287.4475625603086
 30
0.0
 40
1.0
100
AcDbArc
 50
270.0
 51
0.0
  0
LINE
  5
3693
330
1F
100
AcDbEntity
  8
外形２
370
     9
100
AcDbLine
 10
228.676286873796
 20
285.8475625603086
 30
0.0
 11
227.876286873796
 21
285.8475625603086
 31
0.0
  0
ARC
  5
3694
330
1F
100
AcDbEntity
  8
外形２
370
     9
100
AcDbCircle
 10
229.4762868737961
 20
228.5795484889516
 30
0.0
 40
1.0
100
AcDbArc
 50
270.0
 51
0.0
  0
LINE
  5
3695
330
1F
100
AcDbEntity
  8
外形２
370
     9
100
AcDbLine
 10
228.676286873796
 20
226.9795484889516
 30
0.0
 11
228.676286873796
 21
237.1795484889517
 31
0.0
  0
LINE
  5
3696
330
1F
100
AcDbEntity
  8
外形２
370
     9
100
AcDbLine
 10
230.4762868737959
 20
235.5795484889516
 30
0.0
 11
230.4762868737959
 21
228.5795484889516
 31
0.0
  0
LINE
  5
3697
330
1F
100
AcDbEntity
  8
外形２
370
     9
100
AcDbLine
 10
228.676286873796
 20
232.0795484889516
 30
0.0
 11
228.676286873796
 21
236.5795484889516
 31
0.0
  0
ARC
  5
3698
330
1F
100
AcDbEntity
  8
外形２
370
     9
100
AcDbCircle
 10
229.4762868737961
 20
235.5795484889516
 30
0.0
 40
1.0
100
AcDbArc
 50
0.0
 51
90.0
  0
LINE
  5
3699
330
1F
100
AcDbEntity
  8
外形２
370
     9
100
AcDbLine
 10
228.676286873796
 20
236.5795484889516
 30
0.0
 11
229.4762868737961
 21
236.5795484889516
 31
0.0
  0
LINE
  5
369A
330
1F
100
AcDbEntity
  8
外形２
370
     9
100
AcDbLine
 10
228.676286873796
 20
237.1795484889517
 30
0.0
 11
227.8762868737961
 21
237.1795484889517
 31
0.0
  0
LINE
  5
369B
330
1F
100
AcDbEntity
  8
外形２
370
     9
100
AcDbLine
 10
229.4762868737961
 20
227.5795484889516
 30
0.0
 11
228.676286873796
 21
227.5795484889516
 31
0.0
  0
LINE
  5
369C
330
1F
100
AcDbEntity
  8
外形２
370
     9
100
AcDbLine
 10
227.8762868737961
 20
226.9795484889516
 30
0.0
 11
228.676286873796
 21
226.9795484889516
 31
0.0
  0
ARC
  5
369D
330
1F
100
AcDbEntity
  8
外形２
370
     9
100
AcDbCircle
 10
14.70476050713529
 20
294.4475625603086
 30
0.0
 40
1.0
100
AcDbArc
 50
90.0
 51
180.0
  0
LINE
  5
369E
330
1F
100
AcDbEntity
  8
外形２
370
     9
100
AcDbLine
 10
15.5047605071353
 20
296.0475625603086
 30
0.0
 11
15.5047605071353
 21
285.8475625603086
 31
0.0
  0
LINE
  5
369F
330
1F
100
AcDbEntity
  8
外形２
370
     9
100
AcDbLine
 10
13.70476050713528
 20
287.4475625603086
 30
0.0
 11
13.70476050713528
 21
294.4475625603086
 31
0.0
  0
LINE
  5
36A0
330
1F
100
AcDbEntity
  8
外形２
370
     9
100
AcDbLine
 10
15.5047605071353
 20
290.9475625603085
 30
0.0
 11
15.5047605071353
 21
286.4475625603084
 31
0.0
  0
ARC
  5
36A1
330
1F
100
AcDbEntity
  8
外形２
370
     9
100
AcDbCircle
 10
14.70476050713529
 20
287.4475625603086
 30
0.0
 40
1.0
100
AcDbArc
 50
180.0
 51
270.0
  0
LINE
  5
36A2
330
1F
100
AcDbEntity
  8
外形２
370
     9
100
AcDbLine
 10
15.5047605071353
 20
286.4475625603084
 30
0.0
 11
14.70476050713529
 21
286.4475625603084
 31
0.0
  0
LINE
  5
36A3
330
1F
100
AcDbEntity
  8
外形２
370
     9
100
AcDbLine
 10
15.5047605071353
 20
285.8475625603086
 30
0.0
 11
16.30476050713524
 21
285.8475625603086
 31
0.0
  0
LINE
  5
36A4
330
1F
100
AcDbEntity
  8
外形２
370
     9
100
AcDbLine
 10
14.70476050713529
 20
295.4475625603086
 30
0.0
 11
15.5047605071353
 21
295.4475625603086
 31
0.0
  0
LINE
  5
36A5
330
1F
100
AcDbEntity
  8
外形２
370
     9
100
AcDbLine
 10
16.30476050713524
 20
296.0475625603086
 30
0.0
 11
15.5047605071353
 21
296.0475625603086
 31
0.0
  0
LINE
  5
36A6
330
1F
100
AcDbEntity
  8
外形２
370
     9
100
AcDbLine
 10
15.50476050713524
 20
232.0795484889516
 30
0.0
 11
15.50476050713524
 21
236.5795484889516
 31
0.0
  0
LINE
  5
36A7
330
1F
100
AcDbEntity
  8
外形２
370
     9
100
AcDbLine
 10
13.70476050713523
 20
235.5795484889516
 30
0.0
 11
13.70476050713523
 21
228.5795484889516
 31
0.0
  0
LINE
  5
36A8
330
1F
100
AcDbEntity
  8
外形２
370
     9
100
AcDbLine
 10
15.50476050713524
 20
226.9795484889516
 30
0.0
 11
15.50476050713524
 21
237.1795484889517
 31
0.0
  0
LINE
  5
36A9
330
1F
100
AcDbEntity
  8
外形２
370
     9
100
AcDbLine
 10
16.3047605071352
 20
226.9795484889516
 30
0.0
 11
15.50476050713524
 21
226.9795484889516
 31
0.0
  0
LINE
  5
36AA
330
1F
100
AcDbEntity
  8
外形２
370
     9
100
AcDbLine
 10
14.70476050713523
 20
227.5795484889516
 30
0.0
 11
15.50476050713524
 21
227.5795484889516
 31
0.0
  0
ARC
  5
36AB
330
1F
100
AcDbEntity
  8
外形２
370
     9
100
AcDbCircle
 10
14.70476050713523
 20
228.5795484889516
 30
0.0
 40
1.0
100
AcDbArc
 50
180.0
 51
270.0
  0
LINE
  5
36AC
330
1F
100
AcDbEntity
  8
外形２
370
     9
100
AcDbLine
 10
15.50476050713524
 20
237.1795484889517
 30
0.0
 11
16.3047605071352
 21
237.1795484889517
 31
0.0
  0
LINE
  5
36AD
330
1F
100
AcDbEntity
  8
外形２
370
     9
100
AcDbLine
 10
15.50476050713524
 20
236.5795484889516
 30
0.0
 11
14.70476050713523
 21
236.5795484889516
 31
0.0
  0
ARC
  5
36AE
330
1F
100
AcDbEntity
  8
外形２
370
     9
100
AcDbCircle
 10
14.70476050713523
 20
235.5795484889516
 30
0.0
 40
1.0
100
AcDbArc
 50
90.0
 51
180.0
  0
DIMENSION
  5
36AF
102
{ACAD_XDICTIONARY
360
36B0
102
}
102
{ACAD_REACTORS
330
36B1
102
}
330
1F
100
AcDbEntity
  8
文字
100
AcDbDimension
  2
*D16
 10
230.4762868737959
 20
308.8795464228681
 30
0.0
 11
214.5250963976055
 21
308.8795464228681
 31
0.0
 70
   160
  1
2.6(ｺﾞﾑ足)
 71
     5
 42
2.599999999999965
  3
ISO-25
100
AcDbAlignedDimension
 13
227.876286873796
 23
298.5135555246298
 33
0.0
 14
230.4762868737959
 24
294.4475625603086
 34
0.0
100
AcDbRotatedDimension
1001
ACAD
1000
DSTYLE
1002
{
1070
   340
1005
6D
1002
}
  0
OLE2FRAME
  5
3D0D
330
1F
100
AcDbEntity
  8
外形２
100
AcDbOle2Frame
 70
     2
  3
ピクチャ (拡張メタファイル)
 10
86.4541186896422
 20
295.9248266667764
 30
0.0
 11
176.0660006472373
 21
227.0577472096788
 31
0.0
 71
     3
 72
     0
 73
     1
 90
    25728
310
80550021D647109D554060040C17CC7E72400000000000000000C8AC63AD1C02
310
664060040C17CC7E72400000000000000000C8AC63AD1C0266403020AD10D961
310
6C4000000000000000000021D647109D55403020AD10D9616C40000000000000
310
0000832B62210100000000010000090000000000000000000100000000640000
310
D0CF11E0A1B11AE1000000000000000000000000000000003E000300FEFF0900
310
0600000000000000000000000100000001000000000000000010000002000000
310
01000000FEFFFFFF0000000000000000FFFFFFFFFFFFFFFFFFFFFFFFFFFFFFFF
310
FFFFFFFFFFFFFFFFFFFFFFFFFFFFFFFFFFFFFFFFFFFFFFFFFFFFFFFFFFFFFFFF
310
FFFFFFFFFFFFFFFFFFFFFFFFFFFFFFFFFFFFFFFFFFFFFFFFFFFFFFFFFFFFFFFF
310
FFFFFFFFFFFFFFFFFFFFFFFFFFFFFFFFFFFFFFFFFFFFFFFFFFFFFFFFFFFFFFFF
310
FFFFFFFFFFFFFFFFFFFFFFFFFFFFFFFFFFFFFFFFFFFFFFFFFFFFFFFFFFFFFFFF
310
FFFFFFFFFFFFFFFFFFFFFFFFFFFFFFFFFFFFFFFFFFFFFFFFFFFFFFFFFFFFFFFF
310
FFFFFFFFFFFFFFFFFFFFFFFFFFFFFFFFFFFFFFFFFFFFFFFFFFFFFFFFFFFFFFFF
310
FFFFFFFFFFFFFFFFFFFFFFFFFFFFFFFFFFFFFFFFFFFFFFFFFFFFFFFFFFFFFFFF
310
FFFFFFFFFFFFFFFFFFFFFFFFFFFFFFFFFFFFFFFFFFFFFFFFFFFFFFFFFFFFFFFF
310
FFFFFFFFFFFFFFFFFFFFFFFFFFFFFFFFFFFFFFFFFFFFFFFFFFFFFFFFFFFFFFFF
310
FFFFFFFFFFFFFFFFFFFFFFFFFFFFFFFFFFFFFFFFFFFFFFFFFFFFFFFFFFFFFFFF
310
FFFFFFFFFFFFFFFFFFFFFFFFFFFFFFFFFFFFFFFFFFFFFFFFFFFFFFFFFFFFFFFF
310
FFFFFFFFFFFFFFFFFFFFFFFFFFFFFFFFFFFFFFFFFFFFFFFFFFFFFFFFFFFFFFFF
310
FFFFFFFFFFFFFFFFFFFFFFFFFFFFFFFFFFFFFFFFFFFFFFFFFFFFFFFFFFFFFFFF
310
FDFFFFFF30000000FEFFFFFFFEFFFFFF05000000060000000700000008000000
310
090000000A0000000B0000000C0000000D0000000E0000000F00000010000000
310
1100000012000000130000001400000015000000160000001700000018000000
310
190000001A0000001B0000001C0000001D0000001E0000001F00000020000000
310
2100000022000000230000002400000025000000260000002700000028000000
310
290000002A0000002B0000002C0000002D0000002E0000002F000000FEFFFFFF
310
FEFFFFFFFFFFFFFFFFFFFFFFFFFFFFFFFFFFFFFFFFFFFFFFFFFFFFFFFFFFFFFF
310
FFFFFFFFFFFFFFFFFFFFFFFFFFFFFFFFFFFFFFFFFFFFFFFFFFFFFFFFFFFFFFFF
310
FFFFFFFFFFFFFFFFFFFFFFFFFFFFFFFFFFFFFFFFFFFFFFFFFFFFFFFFFFFFFFFF
310
FFFFFFFFFFFFFFFFFFFFFFFFFFFFFFFFFFFFFFFFFFFFFFFFFFFFFFFFFFFFFFFF
310
FFFFFFFFFFFFFFFFFFFFFFFFFFFFFFFFFFFFFFFFFFFFFFFFFFFFFFFFFFFFFFFF
310
FFFFFFFFFFFFFFFFFFFFFFFFFFFFFFFFFFFFFFFFFFFFFFFFFFFFFFFFFFFFFFFF
310
FFFFFFFFFFFFFFFFFFFFFFFFFFFFFFFFFFFFFFFFFFFFFFFFFFFFFFFFFFFFFFFF
310
FFFFFFFFFFFFFFFFFFFFFFFFFFFFFFFFFFFFFFFFFFFFFFFFFFFFFFFFFFFFFFFF
310
FFFFFFFFFFFFFFFFFFFFFFFFFFFFFFFFFFFFFFFFFFFFFFFFFFFFFFFFFFFFFFFF
310
FFFFFFFFFFFFFFFFFFFFFFFFFFFFFFFFFFFFFFFFFFFFFFFFFFFFFFFFFFFFFFFF
310
52006F006F007400200045006E00740072007900000000000000000000000000
310
0000000000000000000000000000000000000000000000000000000000000000
310
16000500FFFFFFFFFFFFFFFF020000001903000000000000C000000000000046
310
0000000000000000000000009068F59955EDC901030000008001000000000000
310
01004F006C006500000000000000000000000000000000000000000000000000
310
0000000000000000000000000000000000000000000000000000000000000000
310
0A000201FFFFFFFFFFFFFFFFFFFFFFFF00000000000000000000000000000000
310
0000000000000000000000000000000000000000000000001400000000000000
310
010043006F006D0070004F0062006A0000000000000000000000000000000000
310
0000000000000000000000000000000000000000000000000000000000000000
310
120002010100000003000000FFFFFFFF00000000000000000000000000000000
310
0000000000000000000000000000000000000000010000006F00000000000000
310
43004F004E00540045004E005400530000000000000000000000000000000000
310
0000000000000000000000000000000000000000000000000000000000000000
310
12000201FFFFFFFF04000000FFFFFFFF00000000000000000000000000000000
310
0000000000000000000000000000000000000000040000004457000000000000
310
FEFFFFFF02000000FEFFFFFF0400000005000000FEFFFFFFFFFFFFFFFFFFFFFF
310
FFFFFFFFFFFFFFFFFFFFFFFFFFFFFFFFFFFFFFFFFFFFFFFFFFFFFFFFFFFFFFFF
310
FFFFFFFFFFFFFFFFFFFFFFFFFFFFFFFFFFFFFFFFFFFFFFFFFFFFFFFFFFFFFFFF
310
FFFFFFFFFFFFFFFFFFFFFFFFFFFFFFFFFFFFFFFFFFFFFFFFFFFFFFFFFFFFFFFF
310
FFFFFFFFFFFFFFFFFFFFFFFFFFFFFFFFFFFFFFFFFFFFFFFFFFFFFFFFFFFFFFFF
310
FFFFFFFFFFFFFFFFFFFFFFFFFFFFFFFFFFFFFFFFFFFFFFFFFFFFFFFFFFFFFFFF
310
FFFFFFFFFFFFFFFFFFFFFFFFFFFFFFFFFFFFFFFFFFFFFFFFFFFFFFFFFFFFFFFF
310
FFFFFFFFFFFFFFFFFFFFFFFFFFFFFFFFFFFFFFFFFFFFFFFFFFFFFFFFFFFFFFFF
310
FFFFFFFFFFFFFFFFFFFFFFFFFFFFFFFFFFFFFFFFFFFFFFFFFFFFFFFFFFFFFFFF
310
FFFFFFFFFFFFFFFFFFFFFFFFFFFFFFFFFFFFFFFFFFFFFFFFFFFFFFFFFFFFFFFF
310
FFFFFFFFFFFFFFFFFFFFFFFFFFFFFFFFFFFFFFFFFFFFFFFFFFFFFFFFFFFFFFFF
310
FFFFFFFFFFFFFFFFFFFFFFFFFFFFFFFFFFFFFFFFFFFFFFFFFFFFFFFFFFFFFFFF
310
FFFFFFFFFFFFFFFFFFFFFFFFFFFFFFFFFFFFFFFFFFFFFFFFFFFFFFFFFFFFFFFF
310
FFFFFFFFFFFFFFFFFFFFFFFFFFFFFFFFFFFFFFFFFFFFFFFFFFFFFFFFFFFFFFFF
310
FFFFFFFFFFFFFFFFFFFFFFFFFFFFFFFFFFFFFFFFFFFFFFFFFFFFFFFFFFFFFFFF
310
FFFFFFFFFFFFFFFFFFFFFFFFFFFFFFFFFFFFFFFFFFFFFFFFFFFFFFFFFFFFFFFF
310
0100000200000000000000000000000000000000B84B19000000000000000000
310
00000000FCFFFFFF000000000000000000000000FEFFFFFF0000000000000000
310
0100FEFF030A0000FFFFFFFF1903000000000000C0000000000000461C000000
310
8373834E8360838320288A6792A38381835E837483408343838B2900FFFFFFFF
310
0E00000017000000537461746963456E68616E6365644D65746166696C6500F4
310
39B27100000000000000000000000000FFFFFFFFFEFFFFFF00000000FFFFFFFF
310
FFFFFFFF030000000400000004000000FFFFFFFF0700000000000000D10B0000
310
130900002C000000010009000003160000000000050000000000050000000B02
310
00000000050000000C021309D10B030000000000000000000000000000000000
310
0000000000004E414E4901000000FFFFFFFF0E0000000000000001000000FFFF
310
FFFF40000000D2029649D20296490E0000000000000000000000000000000000
310
0000000000000000010000000000000000000000000000000000000000000000
310
00000000000000000000000000000000000000000000000000100C00FF0F0000
310
4860A976000000002601360100000000289E1A00A0B718000000000000000000
310
0000000000000000000000000000000000000000000000000000000000000000
310
0000000000000000000000000000000000000000000000000000000000000000
310
74000000010000006C000000F20000005B000000430200005E0100008B1D0000
310
1C0B0000AE460000BA2A000020454D4600000100CC560000B602000004000000
310
0D0000005800000000000000000400000003000040010000F000000041006400
310
6F00620065002000530079007300740092000E01A0BC17000100000074000000
310
F20000005B000000430200005E0100008B1D00001C0B0000AE460000BA2A0000
310
20454D4600000100CC560000B6020000040000000D0000005800000000000000
310
000400000003000040010000F0000000410064006F0062006500200053007900
310
7300740065006D0073000000110000000C00000008000000120000000C000000
310
010000000A0000001000000000000000000000000C0000001000000000000000
310
000000000900000010000000DF0B0000150900000B00000010000000F5030000
310
0703000027000000180000000100000001000000000000000000000025000000
310
0C000000010000005F00000034000000020000002C000000000000002C000000
310
0000000000220100000000000000000000000000000000000000000025000000
310
0C000000020000003A0000000C000000040000003B000000080000001B000000
310
10000000EE020000140100005800000070000000F20000005B00000043020000
310
5E01000015000000E1021401D7021E01D7022A01D7020004D7020004D7020004
310
D7020C04E1021704EE021704B1061704B1061704B1061704BE061704C8060C04
310
C8060004C8062A01C8062A01C8062A01C8061E01BE061401B10614013D000000
310
080000003C0000000800000040000000180000009F8601009F8601006179FEFF
310
6179FEFF5F00000034000000030000002C000000000000002C00000000000000
310
002201000400000000000000000000000000000000000000250000000C000000
310
03000000280000000C000000020000003A0000000C000000040000003B000000
310
080000001B000000100000001D05000065020000580000004C000000AC010000
310
C8000000B6010000D10000000C0000001D056B0219057002130570020D057002
310
09056B0209056502090560020D055B0213055B0219055B021D0560021D056502
310
3D000000080000003C0000000800000040000000180000009F8601009F860100
310
6179FEFF6179FEFF3A0000000C000000040000003B000000080000001B000000
310
100000000006000065020000580000004C000000F8010000C800000001020000
310
D10000000C00000000066B02FB057002F6057002F0057002EB056B02EB056502
310
EB056002F0055B02F6055B02FB055B0200066002000665023D00000008000000
310
3C0000000800000040000000180000009F8601009F8601006179FEFF6179FEFF
310
3A0000000C000000040000003B000000080000001B00000010000000E5040000
310
65020000580000004C00000099010000C8000000A3010000D10000000C000000
310
E5046B02E0047002DA047002D5047002D0046B02D0046502D0046002D5045B02
310
DA045B02E0045B02E5046002E50465023D000000080000003C00000008000000
310
40000000180000009F8601009F8601006179FEFF6179FEFF3A0000000C000000
310
040000003B000000080000001B00000010000000AC0400006502000058000000
310
4C00000087010000C800000090010000D10000000C000000AC046B02A7047002
310
A20470029C04700298046B0298046502980460029C045B02A2045B02A7045B02
310
AC046002AC0465023D000000080000003C000000080000004000000018000000
310
9F8601009F8601006179FEFF6179FEFF3A0000000C000000040000003B000000
310
080000001B00000010000000E5040000C5020000580000004C00000099010000
310
E8000000A3010000F10000000C000000E504CB02E004D002DA04D002D504D002
310
D004CB02D004C502D004C002D504BB02DA04BB02E004BB02E504C002E504C502
310
3D000000080000003C0000000800000040000000180000009F8601009F860100
310
6179FEFF6179FEFF3A0000000C000000040000003B000000080000001B000000
310
10000000AC040000C5020000580000004C00000087010000E800000090010000
310
F10000000C000000AC04CB02A704D002A204D0029C04D0029804CB029804C502
310
9804C0029C04BB02A204BB02A704BB02AC04C002AC04C5023D00000008000000
310
3C0000000800000040000000180000009F8601009F8601006179FEFF6179FEFF
310
5F00000034000000020000002C000000000000002C0000000000000000220100
310
1000000000000000000000000000000000000000250000000C00000002000000
310
280000000C000000030000003A0000000C000000040000005A0000002C000000
310
06010000F00000000D010000140100000100000002000000020000001D03D902
310
1D0333033A0000000C000000040000005A0000002C0000000601000016010000
310
0D0100003B0100000100000002000000020000001D034C031D03A60313000000
310
0C00000002000000270000001800000003000000000000000000000000000000
310
250000000C00000003000000280000000C000000010000005F00000034000000
310
010000002C000000000000002C00000000000000050000000000000000000000
310
000000000000000000000000250000000C00000001000000280000000C000000
310
020000003B000000080000001B0000001000000038030000A501000058000000
310
4C000000110100008C00000016010000930000000C0000003D03A5014103A501
310
4103AE014103B6013E03B6013A03B6013603B6013603B6013603B6013603A501
310
3603A5013603A5013D000000080000001B0000001000000031030000A1010000
310
5800000064000000100100008A0000001801000094000000120000003103BA01
310
3103BA013103BA013B03BA013B03BA013B03BA013C03BA014103BA014303B801
310
4603B4014603AF014603AE014603A9014503A6014403A5014203A1013D03A101
310
3A03A1013D000000080000003C000000080000003E000000180000009F860100
310
9F8601006179FEFF6179FEFF130000000C000000020000003B00000008000000
310
1B000000100000004F030000AE01000058000000580000001A0100008C000000
310
20010000930000000F0000004F03AA015003A5015603A5015D03A5015D03AB01
310
5D03AD015D03B5015903B6015603B6015303B6015103B5015003B3015003B201
310
4F03B0014F03AE013D000000080000001B000000100000004A030000AE010000
310
580000004C000000180100008A00000022010000940000000C0000004A03B401
310
4D03BB015603BB015F03BB016303B4016303AE016303A6015F03A0015603A001
310
4E03A0014A03A5014A03AE013D000000080000003C000000080000003E000000
310
180000009F8601009F8601006179FEFF6179FEFF130000000C00000002000000
310
3B000000080000001B000000100000006D030000BA0100005800000064000000
310
220100008A0000002701000094000000120000006D03A8016D03A8016D03A801
310
6C03A9016A03AB016703AC016703A7016703A7016703A7016803A7016D03A501
310
6E03A1017203A1017203A1017203A1017203BA017203BA017203BA013D000000
310
080000003C000000080000003E000000180000009F8601009F8601006179FEFF
310
6179FEFF130000000C000000020000003B000000080000001B00000010000000
310
3803000019020000580000004C00000011010000B200000016010000B9000000
310
0C0000003D031902410319024103220241032A023E032A023A032A0236032A02
310
36032A0236032A023603190236031902360319023D000000080000001B000000
310
100000003103000015020000580000006400000010010000B100000018010000
310
BB0000001200000031032E0231032E0231032E023B032E023B032E023B032E02
310
3C032E0241032E0243032C0246032802460323024603220246031D0245031A02
310
44031902420315023D0315023A0315023D000000080000003C00000008000000
310
3E000000180000009F8601009F8601006179FEFF6179FEFF130000000C000000
310
020000003B000000080000001B000000100000004F0300002202000058000000
310
580000001A010000B200000020010000B90000000F0000004F031E0250031902
310
560319025D0319025D031F025D0321025D03290259032A0256032A0253032A02
310
5103290250032702500326024F0324024F0322023D000000080000001B000000
310
100000004A03000022020000580000004C00000018010000B100000022010000
310
BB0000000C0000004A0328024D032F0256032F025F032F026303280263032202
310
63031A025F031402560314024E0314024A0319024A0322023D00000008000000
310
3C000000080000003E000000180000009F8601009F8601006179FEFF6179FEFF
310
130000000C000000020000003B000000080000001B0000001000000076030000
310
2E02000058000000AC00000021010000B100000028010000BB00000024000000
310
65032E0265032E0265032E0266032B02670328026C0323027003200272031F02
310
72031C02720319026F0319026E0319026C0319026B031A026B031D0266031C02
310
66031C0266031C0266031B0266031802680316026A0315026D0315026E031502
310
740315027603190276031C027603200273032302710326026E0328026D032902
310
6D032A0276032A0276032A0276032A023D000000080000003C00000008000000
310
3E000000180000009F8601009F8601006179FEFF6179FEFF130000000C000000
310
020000003B000000080000001B00000010000000380300008D02000058000000
310
4C00000011010000D900000016010000E00000000C0000003D038D0241038D02
310
4103960241039E023E039E023A039E0236039E0236039E0236039E0236038D02
310
36038D0236038D023D000000080000001B000000100000003103000089020000
310
580000006400000010010000D800000018010000E1000000120000003103A202
310
3103A2023103A2023B03A2023B03A2023B03A2023C03A2024103A2024303A002
310
46039C0246039702460396024603910245038E0244038D02420389023D038902
310
3A0389023D000000080000003C000000080000003E000000180000009F860100
310
9F8601006179FEFF6179FEFF130000000C000000020000003B00000008000000
310
1B000000100000004F0300009602000058000000580000001A010000D9000000
310
20010000E00000000F0000004F03920250038D0256038D025D038D025D039302
310
5D0395025D039D0259039E0256039E0253039E0251039D0250039B0250039A02
310
4F0398024F0396023D000000080000001B000000100000004A03000096020000
310
580000004C00000018010000D700000022010000E20000000C0000004A039C02
310
4D03A3025603A3025F03A30263039C026303960263038E025F03880256038802
310
4E0388024A038D024A0396023D000000080000003C000000080000003E000000
310
180000009F8601009F8601006179FEFF6179FEFF130000000C00000002000000
310
3B000000080000001B000000100000006A0300009B02000058000000DC000000
310
21010000D800000028010000E2000000300000006B039D026C039F026E039F02
310
71039F0272039C0272039A0272039802700396026E0396026D0396026C039702
310
6C0397026D0393026D0393026D0393026E0393027103920271038F0271038E02
310
6F038D026E038D026C038D026B038D026B03900266038F0266038F0266038F02
310
66038E02670389026E0389027303890276038C0276038F027603930273039402
310
72039502720395027203950272039502750395027703980277039B0277039F02
310
7303A3026E03A3026903A30266039F0266039C023D000000080000003C000000
310
080000003E000000180000009F8601009F8601006179FEFF6179FEFF13000000
310
0C000000020000003B000000080000001B000000100000003F03000001030000
310
580000004C000000130100000001000018010000070100000C00000044030103
310
4703010347030A034703120344031203400312033C0312033C0312033C031203
310
3C0301033C0301033C0301033D000000080000001B0000001000000037030000
310
FD020000580000006400000012010000FE0000001A0100000801000012000000
310
3703160337031603370316034103160341031603410316034203160347031603
310
490314034D0310034D030B034D030A034D0305034B0302034A0301034803FD02
310
4303FD024103FD023D000000080000003C000000080000003E00000018000000
310
9F8601009F8601006179FEFF6179FEFF130000000C000000020000005B000000
310
380000001B010000FE0000001E01000008010000010000000500000005000000
310
5403FD025903FD0259031603540316035403FD02130000000C00000002000000
310
3B000000080000001B0000001000000067030000160300005800000064000000
310
20010000FE000000250100000801000012000000670304036703040367030403
310
6603050364030703610308036103030361030303610303036103030367030103
310
6803FD026C03FD026C03FD026C03FD026C0316036C0316036C0316033D000000
310
080000003C000000080000003E000000180000009F8601009F8601006179FEFF
310
6179FEFF130000000C000000020000003B000000080000001B00000010000000
310
3F03000075030000580000004C0000001301000026010000180100002D010000
310
0C000000440375034703750347037E034703860344038603400386033C038603
310
3C0386033C0386033C0375033C0375033C0375033D000000080000001B000000
310
100000003703000071030000580000006400000012010000250100001A010000
310
2F0100001200000037038A0337038A0337038A0341038A0341038A0341038A03
310
42038A0347038A03490388034D0384034D037F034D037E034D0379034B037603
310
4A0375034803710343037103410371033D000000080000003C00000008000000
310
3E000000180000009F8601009F8601006179FEFF6179FEFF130000000C000000
310
020000005B000000380000001B010000250100001E0100002F01000001000000
310
0500000005000000540371035903710359038A0354038A035403710313000000
310
0C000000020000003B000000080000001B00000010000000700300008A030000
310
58000000AC0000001F01000025010000260100002F010000240000005F038A03
310
5F038A035F038A035F0387036103840366037F036A037C036B037B036B037803
310
6B03750369037503680375036603750365037603650379036003780360037803
310
600378036003770360037403620373036403710366037103680371036E037103
310
700375037003780370037C036D037F036B038203680384036703850367038603
310
7003860370038603700386033D000000080000003C000000080000003E000000
310
180000009F8601009F8601006179FEFF6179FEFF130000000C00000002000000
310
3B000000080000001B00000010000000E6030000B601000058000000C4000000
310
43010000810000004E010000970000002A000000DC03B601DC03B601DC03B601
310
D903B601D703B601D503B301D403B101D403AE01D403A901D4038601D4038601
310
D4038601D4038501D3038501D3038501CA038501CA038501CA038501CA038501
310
CA038501CA038601CA03A901CA03A901CA03A901CA03B101CA03B601CD03BB01
310
D103C101D603C201DB03C201E603C201E603C201E603C201E603C201E703C101
310
E703C101E703B701E703B701E703B701E703B701E603B601E603B6013D000000
310
080000003C000000080000003E000000180000009F8601009F8601006179FEFF
310
6179FEFF130000000C000000020000003B000000080000001B00000010000000
310
F803000085010000580000007C0000004F010000810000005401000097000000
310
18000000EF038501EF038501EF038501EF038501EF038501EF038601EF03C101
310
EF03C101EF03C101EF03C101EF03C201EF03C201F803C201F803C201F803C201
310
F903C201F903C101F903C101F9038601F9038601F9038601F9038501F9038501
310
F80385013D000000080000003C000000080000003E000000180000009F860100
310
9F8601006179FEFF6179FEFF130000000C000000020000003B00000008000000
310
1B000000100000002504000085010000580000000C0100005501000081000000
310
63010000970000003C0000001D0485011D0485011D0485011C0485011C048501
310
1C0485011C0485011C0486011C0486011C0486011C04A5011C04AC011904A501
310
0D0485010D0485010D0485010D0485010C048501020485010204850102048501
310
0104850101048501010486010104C1010104C1010104C1010104C1010104C201
310
0204C2010A04C2010A04C2010A04C2010B04C2010B04C2010B04C2010B04C101
310
0B04C1010B04C1010B04C1010B04A0010B0499010E04A0011B04C1011B04C101
310
1B04C2011B04C2011B04C2012504C2012504C2012504C2012604C2012604C101
310
2604C1012604860126048601260486012604850126048501250485013D000000
310
080000003C000000080000003E000000180000009F8601009F8601006179FEFF
310
6179FEFF130000000C000000020000003B000000080000001B00000010000000
310
4E04000082010000580000000C01000063010000800000007001000097000000
310
3C000000400482014004820140048201320482012C048D012C04A3012C04AF01
310
2E04B7013204BC013704C1013B04C2013F04C2014E04C2014E04C2014E04C201
310
4E04C2014F04C1014F04C1014F04B6014F04B6014F04B6014F04B6014E04B501
310
4E04B5014004B5014004B5014004B5013B04B5013704B3013704A8013904A801
310
4E04A8014E04A8014E04A8014F04A8014F04A7014F049C014F049C014F049C01
310
4F049C014E049B014E049B014E049B0139049B0137049B01380490013C048F01
310
40048F014E048F014E048F014E048F014E048F014F048E014F048E014F048301
310
4F0483014F0483014F0483014E0482014E0482013D000000080000003C000000
310
080000003E000000180000009F8601009F8601006179FEFF6179FEFF13000000
310
0C000000020000003B000000080000001B000000100000007C04000085010000
310
580000000C010000730100008100000080010000970000003C0000006E048501
310
6E0485016E048501610485015A048F015A04A4015A04B0015C04B7016104BC01
310
6504C1016904C2016E04C2017C04C2017C04C2017C04C2017D04C2017D04C101
310
7D04C1017D04B7017D04B7017D04B7017D04B6017D04B6017C04B6016E04B601
310
6E04B6016E04B6016904B6016604B4016504A9016704A9017C04A9017C04A901
310
7D04A9017D04A9017D04A8017D049E017D049E017D049E017D049D017D049D01
310
7C049D017C049D0167049D0166049D01660492016B0491016E0491017C049101
310
7C0491017C0491017D0491017D0491017D0490017D0486017D0486017D048601
310
7D0485017D0485017C0485013D000000080000003C000000080000003E000000
310
180000009F8601009F8601006179FEFF6179FEFF130000000C00000002000000
310
3B000000080000001B00000010000000AE0400007E0100005800000000010000
310
7F0100007F000000900100009700000039000000A4047E01A4047E01A4047E01
310
A4047E01A4047E01A4047F01A4047F0198049501960498019504950189047F01
310
89047F0189047E0189047E0188047E017F047E017F047E017F047E017F047E01
310
7E047E017E047F017E047F017E047F017E047F017E047F017E047F017E047F01
310
7E047F019104A4019104A4019104A5019104C1019104C1019104C1019204C201
310
9204C2019B04C2019B04C2019B04C2019B04C2019C04C1019C04C1019C04C101
310
9C04A5019C04A4019C04A401AF047F01AF047F01AF047F01AF047F01AF047F01
310
AF047F01AF047F01AF047F01AF047E01AE047E01AE047E013D00000008000000
310
3C000000080000003E000000180000009F8601009F8601006179FEFF6179FEFF
310
130000000C000000020000003B000000080000001B00000010000000BE040000
310
91010000580000000C0100008D010000810000009A010000970000003C000000
310
CC049101CC049101CC049101CC049101CC049101CC049001CC048601CC048601
310
CC048601CC048501CC048501CC048501BE048501BE048501BE048501B0048501
310
AA048F01AA04A401AA04B001AC04B701B004BC01B404C101B904C201BD04C201
310
CC04C201CC04C201CC04C201CC04C201CC04C101CC04C101CC04B701CC04B701
310
CC04B701CC04B601CC04B601CC04B601BE04B601BE04B601BE04B601B904B601
310
B504B401B504A901B704A901CC04A901CC04A901CC04A901CC04A901CC04A801
310
CC049E01CC049E01CC049E01CC049D01CC049D01CC049D01CC049D01B7049D01
310
B5049D01B6049201BA049101BE0491013D000000080000003C00000008000000
310
3E000000180000009F8601009F8601006179FEFF6179FEFF130000000C000000
310
020000003B000000080000001B000000100000009D0400007E01000058000000
310
88000000840100007F0000008B010000850000001B0000009D047E019D047E01
310
9D047E0190047E0190047E0190047E018F047E018F047E018F047E018F047E01
310
8F047F018F047F01910482019404890196048D0196048D0196048D0196048D01
310
96048D0197048D0197048D01980489019C0482019D047F019E047F019D047E01
310
9D047E013D000000080000003C000000080000003E000000180000009F860100
310
9F8601006179FEFF6179FEFF130000000C000000020000003B00000008000000
310
1B00000010000000DB0500003B0200005800000058000000F2010000BE000000
310
F6010000C10000000F000000DD053B02DE053B02DF053C02E0053C02E0053D02
310
E0053E02E0054102DD054102DB054102D9054102D9054102D9054102D9053B02
310
D9053B02D9053B023D000000080000001B00000010000000D50500004C020000
310
580000007C000000F1010000BD000000F7010000C500000018000000D9054C02
310
D9054C02D9054C02D9054402D9054402D9054402DC054402DC054402DC054402
310
DE054402E0054402E1054302E2054302E4054102E4053E02E4053A02E3053902
310
E1053802E0053802DF053802DC053802D5053802D5053802D50538023D000000
310
080000003C000000080000003E000000180000009F8601009F8601006179FEFF
310
6179FEFF130000000C000000020000005B00000068000000F7010000BD000000
310
01020000C5000000010000001100000011000000E6053802EA053802ED054502
310
ED054502F1053802F5053802F9054602F9054602FC05380200063802FB054C02
310
F7054C02F3053D02F3053D02EF054C02EA054C02E6053802130000000C000000
310
020000003B000000080000001B00000010000000020600003802000058000000
310
C400000000020000BD00000007020000C50000002A0000000B0638020B063802
310
0B0638020E0638020F0638020F0638021206390213063B0213063D0213064002
310
110641020F0642020F0643020E0643020D0643020D0643020D0643020D064302
310
0F064402100645021206480214064C0214064C0214064C020F064C020F064C02
310
0F064C020C0647020C0647020C0647020A0644020A0643020706430206064302
310
060643020606430206064C0206064C0206064C0202064C0202064C0202064C02
310
3D000000080000001B0000001000000006060000400200005800000064000000
310
01020000BE00000005020000C100000012000000090640020906400209064002
310
0A0640020C0640020D0640020E063F020E063E020E063E020E063D020E063C02
310
0D063C020D063B020C063B0209063B0206063B0206063B0206063B023D000000
310
080000003C000000080000003E000000180000009F8601009F8601006179FEFF
310
6179FEFF130000000C000000020000005B00000040000000330200008C000000
310
3B020000920000000100000007000000070000009C06B5019C06B101AC06B101
310
AC06A701B006A701B006B5019C06B501130000000C000000020000005B000000
310
5C00000033020000840000003B0200008C000000020000000D00000004000000
310
09000000A8069C01A0069901A8069601A8069C01B0068F019C0697019C069B01
310
B006A301B0069F01AB069D01AB069501B0069301B0068F01130000000C000000
310
020000005B00000058000000330200007E0000003B0200008400000001000000
310
0D0000000D0000009C068B019C068701A9067E01A9067E019C067E019C067B01
310
B0067B01B0067F01A3068701A3068701B0068701B0068B019C068B0113000000
310
0C000000020000005B0000003800000033020000C90000003B020000CB000000
310
0100000005000000050000009C0660029C065C02B0065C02B00660029C066002
310
130000000C000000020000003B000000080000001B000000100000009F060000
310
4E020000580000004C00000034020000C20000003A020000C60000000C000000
310
9F064A029F064702A6064702AC064702AC064A02AC064D02AC065002AC065002
310
AC0650029F0650029F0650029F0650023D000000080000001B00000010000000
310
9C06000054020000580000006400000033020000C00000003B020000C7000000
310
12000000B0065402B0065402B0065402B0064C02B0064C02B0064C02B0064B02
310
B0064802AD064602AB064302A7064302A6064302A2064302A00644029F064502
310
9C0647029C064A029C064D023D000000080000003C000000080000003E000000
310
180000009F8601009F8601006179FEFF6179FEFF130000000C00000002000000
310
3B000000080000001B000000100000009F060000010300005800000064000000
310
34020000FD0000003702000001010000120000009F06FE029F06FE029F06FE02
310
9F06FB029F06FB029F06FA02A006F902A106F902A106F902A206F902A306F902
310
A406FA02A406FB02A406FD02A406FE02A4060103A4060103A40601033D000000
310
080000001B00000010000000B00600000503000058000000C400000033020000
310
FB0000003B020000020100002A000000B0060103B0060103B0060103A7060103
310
A7060103A7060103A7060003A7060003A7060003A706FE02A806FD02AB06FB02
310
B006F802B006F802B006F802B006F302B006F302B006F302AC06F602AC06F602
310
AC06F602A806F802A806F802A706FA02A706FA02A706FA02A706FA02A706F902
310
A606F902A606F802A506F602A306F502A106F5029F06F5029D06F6029C06F802
310
9C06F9029C06FA029C06FD029C0605039C0605039C0605033D00000008000000
310
3C000000080000003E000000180000009F8601009F8601006179FEFF6179FEFF
310
130000000C000000020000003B000000080000001B00000010000000A9060000
310
EE02000058000000C400000033020000F50000003B020000FC0000002A000000
310
AA06EE02AD06ED02AD06EA02AD06E702AB06E602AA06E602A806E602A806E702
310
A706EB02A606ED02A506F102A106F1029F06F1029B06F0029B06EA029B06E602
310
9D06E202A106E202A106E602A106E602A106E602A006E6029F06E7029F06EA02
310
9F06EB029F06ED02A106ED02A206ED02A206EC02A306E902A406E602A506E202
310
AA06E202AC06E202AE06E302AF06E502B006E702B006E902B006EA02B006EC02
310
B006F102A906F2023D000000080000003C000000080000003E00000018000000
310
9F8601009F8601006179FEFF6179FEFF130000000C000000020000005B000000
310
4800000033020000EF0000003B020000F6000000010000000900000009000000
310
9F06DA029F06E0029C06E0029C06D0029F06D0029F06D602B006D602B006DA02
310
9F06DA02130000000C000000020000003B000000080000001B00000010000000
310
B60600003D03000058000000AC00000035020000140100003D02000019010000
310
24000000B6064A03B6064A03B6064A03B3064A03B1064903AE064503AB064203
310
AA064103A8064103A6064103A5064303A5064303A5064503A7064603A9064603
310
A8064A03A8064A03A8064A03A7064A03A5064A03A4064803A3064703A2064503
310
A2064303A2063F03A5063D03A8063D03AB063D03AE063F03B0064103B1064303
310
B2064403B3064503B3063D03B3063D03B3063D033D000000080000003C000000
310
080000003E000000180000009F8601009F8601006179FEFF6179FEFF13000000
310
0C000000020000003B000000080000001B000000100000007E060000A4030000
310
580000004C00000029020000340100002F020000380100000C0000007E06A003
310
7E069D0385069D038B069D038C06A0038C06A3038C06A6038C06A6038C06A603
310
7E06A6037E06A6037E06A6033D000000080000001B000000100000007B060000
310
AA03000058000000640000002802000032010000300200003901000012000000
310
8F06AA038F06AA038F06AA038F06A2038F06A2038F06A2038F06A1038F069D03
310
8D069B038A0699038606990385069903810699037F069A037E069B037B069D03
310
7B06A0037B06A2033D000000080000003C000000080000003E00000018000000
310
9F8601009F8601006179FEFF6179FEFF130000000C000000020000003B000000
310
080000001B00000010000000890600008503000058000000A000000028020000
310
2C0100003002000033010000210000008A0685038F0687038F068D038F069303
310
8B06960385069603800696037B0693037B068D037B068C037B0689037D068703
310
7E0686037F068503800685038106890381068903810689037F0689037E068B03
310
7E068D037E069203840692038506920387069203890692038A0691038B069003
310
8C068F038C068D038C068A038A068903880689033D000000080000003C000000
310
080000003E000000180000009F8601009F8601006179FEFF6179FEFF13000000
310
0C000000020000005B000000380000002C020000280100002F0200002C010000
310
0100000005000000050000008606820386067B038A067B038A06820386068203
310
130000000C000000020000005B00000038000000280200002601000030020000
310
290100000100000005000000050000007B0678037B0674038F0674038F067803
310
7B067803130000000C000000020000005B00000058000000280200001F010000
310
3002000026010000010000000D0000000D0000007B0670037B066C0388066403
310
880664037B0664037B0660038F0660038F06640382066C0382066C038F066C03
310
8F0670037B067003130000000C000000020000003B000000080000001B000000
310
10000000B6060000C4030000580000006400000035020000400100003D020000
310
4401000012000000A806C403A806C403A806C403A906C503AA06C703AB06C903
310
A706C903A706C903A706C903A706C903A606C503A206C403A206C103A206C103
310
A206C103B606C103B606C103B606C1033D000000080000003C00000008000000
310
3E000000180000009F8601009F8601006179FEFF6179FEFF130000000C000000
310
020000003B000000080000001B00000010000000F80200009B01000058000000
310
64000000FB00000081000000FF0000008A00000012000000F8028A01F8028A01
310
F8028A01F7028B01F5028D01F2028E01F2028A01F2028A01F2028A01F3028901
310
F7028801F9028401FC028401FC028401FC028401FC029B01FC029B01FC029B01
310
3D000000080000003C000000080000003E000000180000009F8601009F860100
310
6179FEFF6179FEFF130000000C000000020000003B000000080000001B000000
310
1000000000030000D401000058000000AC000000FA0000009400000001010000
310
9D00000024000000F102D401F102D401F102D401F102D101F302CF01F702CA01
310
FA02C801FC02C601FC02C401FC02C101F902C101F902C101F702C101F602C201
310
F502C501F102C401F102C401F102C401F102C301F202C101F302BF01F502BE01
310
F702BD01F902BD01FE02BD010003C1010003C4010003C801FD02CA01FB02CC01
310
F902CF01F802CF01F702D0010003D0010003D0010003D0013D00000008000000
310
3C000000080000003E000000180000009F8601009F8601006179FEFF6179FEFF
310
130000000C000000020000003B000000080000001B00000010000000F5020000
310
0702000058000000DC000000FA000000A700000001010000B000000030000000
310
F5020902F6020B02F8020B02FB020B02FC020902FC020702FC020502FB020302
310
F9020302F8020302F7020302F7020402F7020002F7020002F7020002F9020002
310
FB02FF01FB02FD01FB02FC01FA02FB01F802FB01F702FB01F602FB01F502FE01
310
F102FD01F102FD01F102FD01F202FB01F302F701F802F701FD02F701FF02FA01
310
FF02FD01FF020002FD020102FC020202FC020202FC020202FC020202FF020202
310
000304020003070200030B02FD020E02F9020E02F4020E02F1020B02F1020802
310
3D000000080000003C000000080000003E000000180000009F8601009F860100
310
6179FEFF6179FEFF130000000C000000020000005B0000006C000000FA000000
310
BA00000001010000C30000000200000011000000050000000C000000F4023F02
310
FA023702FA023702FA023F02F4023F02FA024802FE024802FE02430201034302
310
01033F02FE023F02FE023102FA023102F0023F02F0024302FA024302FA024802
310
130000000C000000020000003B000000080000001B00000010000000F6020000
310
7B02000058000000C4000000FA000000CE00000001010000D70000002A000000
310
F6027D02F7027E02F9027E02FA027E02FC027D02FC027902FC027702FB027502
310
F9027502F8027502F7027602F5027702F2027602F2027602F2027602F4026B02
310
F4026B02F4026B0200036B0200036B0200036B0200036F0200036F0200036F02
310
F7026F02F7026F02F7026F02F7027302F7027302F7027302F7027202F8027202
310
FA027202FD027202010375020103790201037D02FE028202F9028202F5028202
310
F2027F02F1027B023D000000080000003C000000080000003E00000018000000
310
9F8601009F8601006179FEFF6179FEFF130000000C000000020000003B000000
310
080000001B00000010000000F6020000B3020000580000004C000000FC000000
310
E4000000FF000000E80000000C000000F602AF02F902AF02F902AF02FC02AF02
310
FC02B302FC02B302FC02B402FC02B702F902B702F702B702F602B502F602B302
310
3D000000080000001B0000001000000000030000A902000058000000A0000000
310
FA000000E100000001010000EA000000210000000003A9020003A702FF02A602
310
FE02A402FC02A402F902A402F102A402F102AD02F102B002F102B202F102B402
310
F202B602F402BA02F702BB02F902BB02FD02BB020003B8020003B3020003AF02
310
FD02AC02FA02AC02F902AC02F702AC02F602AE02F602AE02F602AE02F602AE02
310
F602AB02F602A702F902A702FB02A702FC02A902FC02AA023D00000008000000
310
3C000000080000003E000000180000009F8601009F8601006179FEFF6179FEFF
310
130000000C000000020000003B000000080000001B00000010000000F1020000
310
DE0200005800000064000000FA000000F400000001010000FD00000012000000
310
0003DE020003DE020003DE020003E1020003E1020003E102FC02E502F802ED02
310
F802F402F402F402F402F402F402F402F402ED02F802E602FB02E202F102E202
310
F102E202F102E2023D000000080000003C000000080000003E00000018000000
310
9F8601009F8601006179FEFF6179FEFF130000000C000000020000003B000000
310
080000001B00000010000000F502000027030000580000004C000000FC000000
310
0B010000FF0000000F0100000C000000F5022603F6022303F9022303FB022303
310
FC022503FC022703FC022A03FA022B03F9022B03F7022B03F5022A03F5022703
310
3D000000080000001B00000010000000F502000022030000580000007C000000
310
FA00000007010000010100001001000018000000F2022303F1022503F1022703
310
F1022C03F5022E03F9022E03FD022E0300032C030003270300032503FF022303
310
FC022203FE022103FF021F03FF021D03FF021A03FD021703F9021703F4021703
310
F2021A03F2021D03F2022003F3022103F50222033D000000080000001B000000
310
10000000F60200001D030000580000004C000000FC00000008010000FF000000
310
0B0100000C000000F6021C03F7021A03F9021A03FA021A03FB021B03FB021D03
310
FB022003F9022003F9022003F8022003F6022003F6021D033D00000008000000
310
3C000000080000003E000000180000009F8601009F8601006179FEFF6179FEFF
310
130000000C000000020000003B000000080000001B00000010000000FB020000
310
59030000580000004C000000FC0000001B010000FF000000200100000C000000
310
FB025C03F9025D03F8025D03F5025D03F5025903F5025803F5025803F5025403
310
F8025403FA025403FB025603FB0259033D000000080000001B00000010000000
310
F10200006203000058000000A0000000FA0000001A0100000101000023010000
310
21000000F1026303F2026403F2026503F4026703F6026803F802680300036803
310
00035E0300035C0300035A0300035803FF025603FE025103FA025103F8025103
310
F4025103F1025403F1025803F1025D03F4026003F7026003F8026003FA026003
310
FB025E03FC025E03FC025E03FC025E03FB026003FB026403F8026403F6026403
310
F5026203F50262033D000000080000003C000000080000003E00000018000000
310
9F8601009F8601006179FEFF6179FEFF130000000C000000020000003B000000
310
080000001B00000010000000F1020000A10300005800000064000000F8000000
310
2D010000FD0000003601000012000000F1029103F1029103F1029103F0029103
310
EE029303EB029403EB029003EB029003EB029003EB029003F0028E03F1028A03
310
F5028A03F5028A03F5028A03F502A103F502A103F502A1033D00000008000000
310
3C000000080000003E000000180000009F8601009F8601006179FEFF6179FEFF
310
130000000C000000020000003B000000080000001B0000001000000000030000
310
8E030000580000004C000000FE0000002F01000002010000350100000C000000
310
02038E03030390030303960303039C0302039E0300039E03FE029E03FD029C03
310
FD029603FD029003FE028E0300038E033D000000080000001B00000010000000
310
000300008A030000580000007C000000FD0000002D0100000301000037010000
310
18000000FC028A03FA028C03F9028F03F8029103F8029403F8029603F8029703
310
F8029A03F9029D03FA029F03FC02A2030003A2030403A20305039F0306039D03
310
07039A030703970307039603070394030703910306038F0305038C0304038A03
310
00038A033D000000080000003C000000080000003E000000180000009F860100
310
9F8601006179FEFF6179FEFF130000000C000000020000005B00000040000000
310
A001000019010000A701000022010000010000000700000007000000E3044D03
310
E8044D03E8046003F3046003F3046403E3046403E3044D03130000000C000000
310
020000005B0000005C000000A701000019010000B00100002201000002000000
310
0D00000009000000040000000805640306055F03FD045F03FB046403F6046403
310
FF044D0304054D030D0564030805640305055B0302055303FE045B0305055B03
310
130000000C000000020000005B00000058000000B001000019010000B7010000
310
22010000010000000D0000000D00000011054D0315054D031E055C031E055C03
310
1E054D0323054D03230564031E05640315055503150555031505640311056403
310
11054D03130000000C000000020000005B00000038000000BA01000019010000
310
BD0100002201000001000000050000000500000031054D0335054D0335056403
310
3105640331054D03130000000C000000020000005B00000038000000BD010000
310
19010000C1010000220100000100000005000000050000003F054D0342054D03
310
3C056503390565033F054D03130000000C000000020000003B00000008000000
310
1B0000001000000048050000590300005800000058000000C20100001A010000
310
C8010000210100000F00000048055503490551034F0551035405510355055603
310
5505590355055F03510561034F0561034C0561034A055F034A055E0349055D03
310
48055B03480559033D000000080000001B000000100000004405000059030000
310
580000004C000000C101000019010000C9010000220100000C00000044055E03
310
460564034F056403570564035A055F035A0559035A05520356054D034F054D03
310
48054D0344055103440559033D000000080000003C000000080000003E000000
310
180000009F8601009F8601006179FEFF6179FEFF130000000C00000002000000
310
3B000000080000001B00000010000000770500005D03000058000000A0000000
310
CB01000019010000D3010000220100002100000077055F03750564036E056403
310
6805640364056003640559036405520367054D036E054D036F054D0373054D03
310
75054F0376055103770552037705540373055503730555037305550372055203
310
700551036E05510368055103680557036805590368055B0369055D036A055E03
310
6A0560036C0561036E0561037105610372055E0373055C033D00000008000000
310
3C000000080000003E000000180000009F8601009F8601006179FEFF6179FEFF
310
130000000C000000020000003B000000080000001B000000100000007E050000
310
5C030000580000004C000000D40100001C010000D8010000210100000C000000
310
7E0558038005570382055703840557038605580386055C0386055F0384056103
310
82056103800561037E055F037E055C033D000000080000001B00000010000000
310
790500005C030000580000004C000000D20100001B010000D901000022010000
310
0C000000790563037F05640382056403870564038A0560038A055C038A055803
310
87055303820553037C0553037905580379055C033D000000080000003C000000
310
080000003E000000180000009F8601009F8601006179FEFF6179FEFF13000000
310
0C000000020000003B000000080000001B00000010000000980500005C030000
310
58000000C4000000D90100001B010000DF010000220100002A00000098055903
310
98055703950557039405570393055703920558039205590392055B0392055D03
310
9205640392056403920564038D0564038D0564038D0564038D0554038D055403
310
8D05540391055403910554039105540391055603910556039105560391055603
310
910556039105560393055403950553039705530398055303990553039B055403
310
9C0556039C0558039C055A039C0564039C0564039C0564039805640398056403
310
980564033D000000080000003C000000080000003E000000180000009F860100
310
9F8601006179FEFF6179FEFF130000000C000000020000003B00000008000000
310
1B00000010000000A80500005703000058000000E8000000DF01000019010000
310
E30100002201000033000000A5055703A5055703A5055703A5055E03A5055E03
310
A5055E03A5056003A5056103A6056103A7056103A7056103A8056003A8056003
310
A8056003A8056003A8056403A8056403A8056403A7056403A5056403A5056403
310
A4056403A2056403A1056303A1056203A1056103A1055E03A1055703A1055703
310
A10557039F0557039F0557039F0557039F0554039F0554039F055403A1055403
310
A1055403A1055403A1055003A1055003A1055003A5054E03A5054E03A5054E03
310
A5055403A5055403A5055403A8055403A8055403A80554033D00000008000000
310
3C000000080000003E000000180000009F8601009F8601006179FEFF6179FEFF
310
130000000C000000020000003B000000080000001B00000010000000AC050000
310
640300005800000094000000E30100001B010000E8010000220100001E000000
310
AC055403AC055403AC055403B0055403B0055403B0055403B0055603B0055603
310
B0055603B0055603B0055603B0055603B1055403B2055303B4055303B5055303
310
B6055303B6055403B5055803B5055803B5055803B5055803B4055703B3055703
310
B0055703B0055A03B0055F03B0056403B0056403B00564033D00000008000000
310
3C000000080000003E000000180000009F8601009F8601006179FEFF6179FEFF
310
130000000C000000020000003B000000080000001B00000010000000BB050000
310
5C030000580000004C000000E80100001C010000EC010000210100000C000000
310
BB055803BD055703BF055703C1055703C3055803C3055C03C3055F03C1056103
310
BF056103BD056103BB055F03BB055C033D000000080000001B00000010000000
310
B60500005C030000580000004C000000E70100001B010000EE01000022010000
310
0C000000B6056303BC056403BF056403C4056403C7056003C7055C03C7055803
310
C4055303BF055303B9055303B6055803B6055C033D000000080000003C000000
310
080000003E000000180000009F8601009F8601006179FEFF6179FEFF13000000
310
0C000000020000005B00000038000000ED01000019010000F001000022010000
310
010000000500000005000000CA054D03CF054D03CF056403CA056403CA054D03
310
130000000C000000020000003B000000080000001B00000010000000DF050000
310
4D03000058000000A0000000F301000019010000FA0100002201000021000000
310
DF055A03DF055A03DF055A03DF055C03DF055D03DF055F03E0056003E2056103
310
E3056103E8056103E8055E03E8055A03E8054D03E8054D03E8054D03EC054D03
310
EC054D03EC054D03EC055903EC055903EC055903EC055D03EC056003EB056103
310
E9056403E6056403E3056403DA056403DA055F03DA055903DA054D03DA054D03
310
DA054D033D000000080000003C000000080000003E000000180000009F860100
310
9F8601006179FEFF6179FEFF130000000C000000020000003B00000008000000
310
1B00000010000000FA0500005C03000058000000C4000000FA0100001B010000
310
00020000220100002A000000FA055903FA055703F8055703F6055703F5055703
310
F5055803F4055903F4055B03F4055D03F4056403F4056403F4056403F0056403
310
F0056403F0056403F0055403F0055403F0055403F4055403F4055403F4055403
310
F4055603F4055603F4055603F4055603F4055603F4055603F5055403F8055303
310
F9055303FA055303FC055303FD055403FF055603FF055803FF055A03FF056403
310
FF056403FF056403FA056403FA056403FA0564033D000000080000003C000000
310
080000003E000000180000009F8601009F8601006179FEFF6179FEFF13000000
310
0C000000020000005B0000005000000000020000190100000302000022010000
310
020000000A0000000500000005000000030651030706510307064D0303064D03
310
030651030306640307066403070654030306540303066403130000000C000000
310
020000003B000000080000001B00000010000000130600005703000058000000
310
E800000002020000190100000702000022010000330000001006570310065703
310
1006570310065E0310065E0310065E0310066003100661031106610312066103
310
1206610313066003130660031306600313066003130664031306640313066403
310
1206640310066403100664030E0664030D0664030C0663030C0662030B066103
310
0B065E030B0657030B0657030B06570309065703090657030906570309065403
310
09065403090654030B0654030B0654030B0654030B0650030B0650030B065003
310
10064E0310064E0310064E031006540310065403100654031306540313065403
310
130654033D000000080000003C000000080000003E000000180000009F860100
310
9F8601006179FEFF6179FEFF130000000C000000020000003B00000008000000
310
1B00000010000000600400005C020000580000004C00000074010000C9000000
310
79010000CF0000000C00000065045C0268045C026804640268046B0265046C02
310
62046C025E046C025E046C025E046C025E045C025E045C025E045C023D000000
310
080000001B000000100000005A04000059020000580000006400000073010000
310
C80000007A010000D0000000120000005A046F025A046F025A046F0262046F02
310
62046F0262046F0264046F0268046F026A046D026D046A026D0466026D046402
310
6D0460026C045E026B045C026804590265045902620459023D00000008000000
310
3C000000080000003E000000180000009F8601009F8601006179FEFF6179FEFF
310
130000000C000000020000003B000000080000001B0000001000000074040000
310
6402000058000000580000007B010000C900000081010000CF0000000F000000
310
7404610276045C027B045C0280045C02810461028104640281046B027D046C02
310
7B046C0278046C0276046A02760469027504680274046702740464023D000000
310
080000001B000000100000007004000064020000580000004C0000007A010000
310
C700000083010000D10000000C00000070046902720470027B04700283047002
310
86046A028604640286045D02820458027B0458027404580270045D0270046402
310
3D000000080000003C000000080000003E000000180000009F8601009F860100
310
6179FEFF6179FEFF130000000C000000020000003B000000080000001B000000
310
10000000A00400004E020000580000006400000088010000BC0000008D010000
310
C500000012000000A0043E02A0043E02A0043E029F043F029D0440029B044102
310
9B043D029B043D029B043D029B043D02A0043B02A1043702A5043702A5043702
310
A5043702A5044E02A5044E02A5044E023D000000080000003C00000008000000
310
3E000000180000009F8601009F8601006179FEFF6179FEFF130000000C000000
310
020000003B000000080000001B00000010000000E40400004E02000058000000
310
AC0000009B010000BC000000A2010000C500000024000000D4044E02D4044E02
310
D4044E02D5044B02D6044902DB044402DE044202DF044002DF043E02DF043B02
310
DD043B02DC043B02DA043B02D9043C02D9043F02D5043E02D5043E02D5043E02
310
D5043D02D5043B02D7043902D9043802DB043702DC043702E2043702E4043B02
310
E4043E02E4044202E1044402DF044602DC044902DC044902DB044A02E4044A02
310
E4044A02E4044A023D000000080000003C000000080000003E00000018000000
310
9F8601009F8601006179FEFF6179FEFF130000000C000000020000003B000000
310
080000001B00000010000000140500004802000058000000DC000000AF010000
310
BC000000B6010000C6000000300000001505490216054B0218054B021A054B02
310
1B0549021B0547021B0545021A05440218054402170544021605440216054402
310
160540021605400216054002180540021A0540021A053D021A053C0219053B02
310
17053B0216053B0215053C0215053E0211053D0211053D0211053D0211053C02
310
12053702180537021C0537021E053A021E053D021E0540021C0542021B054202
310
1B0542021B0542021B0542021E0543021F0545021F0547021F054C021C054F02
310
18054F0213054F0211054C02100548023D000000080000003C00000008000000
310
3E000000180000009F8601009F8601006179FEFF6179FEFF130000000C000000
310
020000003B000000080000001B000000100000000C050000BC02000058000000
310
880000006D010000E8000000B0010000F70000001B0000000C05BC02F604DE02
310
F604E002F404E0024B04E0024B04E0024A04E0024A04E0024A04E1024A04E102
310
4A04E2024B04E202F704E202F704E202F704E202F704E202F804E102F804E102
310
0E05BC020E05BC020E05BC020E05BB020E05BB020D05BB020D05BB020C05BB02
310
0C05BC023D000000080000003C000000080000003E000000180000009F860100
310
9F8601006179FEFF6179FEFF130000000C000000020000003B00000008000000
310
1B000000100000000B050000BC02000058000000AC0000006D010000E8000000
310
B1010000F7000000240000000B05BB020B05BB020B05BB02FB04D402F604DC02
310
F504DF02F304DF024B04DF024B04DF024904DF024804E0024804E1024804E202
310
4904E3024B04E302F704E302F704E302F704E302F804E302F904E202F904E102
310
F904E202F904E202F904E2021005BC021005BC021005BC021005BC021005BC02
310
1005BC021005BA020F05B9020D05B9020C05B9020B05BA020B05BC023D000000
310
080000003C000000080000003E000000180000009F8601009F8601006179FEFF
310
6179FEFF130000000C000000020000003B000000080000001B00000010000000
310
A0040000AF020000580000006400000088010000DD0000008D010000E6000000
310
12000000A0049E02A0049E02A0049E029F049F029D04A1029B04A2029B049E02
310
9B049E029B049E029B049E02A0049C02A1049802A5049802A5049802A5049802
310
A504AF02A504AF02A504AF023D000000080000003C000000080000003E000000
310
180000009F8601009F8601006179FEFF6179FEFF130000000C00000002000000
310
3B000000080000001B00000010000000E4040000AF02000058000000AC000000
310
9B010000DD000000A2010000E600000024000000D404AF02D404AF02D404AF02
310
D504AC02D604A902DB04A502DE04A202DF04A102DF049F02DF049C02DD049C02
310
DC049C02DA049C02D9049D02D9049F02D5049F02D5049F02D5049F02D5049E02
310
D5049B02D7049A02D9049802DB049802DC049802E2049802E4049C02E4049E02
310
E404A202E104A502DF04A702DC04A902DC04AA02DB04AB02E404AB02E404AB02
310
E404AB023D000000080000003C000000080000003E000000180000009F860100
310
9F8601006179FEFF6179FEFF130000000C000000020000003B00000008000000
310
1B0000001000000060040000BE020000580000004C00000074010000E9000000
310
79010000F00000000C0000006504BE026804BE026804C6026804CD026504CD02
310
6204CD025E04CD025E04CD025E04CD025E04BE025E04BE025E04BE023D000000
310
080000001B000000100000005A040000BA020000580000006400000073010000
310
E80000007A010000F1000000120000005A04D1025A04D1025A04D1026204D102
310
6204D1026204D1026404D1026804D1026A04CF026D04CB026D04C7026D04C602
310
6D04C1026C04BF026B04BE026804BA026504BA026204BA023D00000008000000
310
3C000000080000003E000000180000009F8601009F8601006179FEFF6179FEFF
310
130000000C000000020000005B000000380000007C010000E80000007F010000
310
F10000000100000005000000050000007704BA027B04BA027B04D1027704D102
310
7704BA0227000000180000000200000001000000000000000000000025000000
310
0C00000002000000280000000C000000030000005F0000003C00000003000000
310
3400000000000000340000000000000007220100040000000000000000000000
310
00000000020000000C00000008000000250000000C0000000300000028000000
310
0C000000010000003A0000000C000000040000005A0000002C00000032020000
310
1301000035020000450100000100000002000000020000009B063D039B06CB03
310
130000000C000000020000002700000018000000010000000000000000000000
310
00000000250000000C00000001000000280000000C000000020000005F000000
310
34000000020000002C000000000000002C000000000000000500000000000000
310
00000000000000000000000000000000250000000C0000000200000028000000
310
0C000000030000005B00000038000000BD0100002B010000C201000032010000
310
0100000005000000050000004205830339059303440593034205830342058303
310
130000000C000000020000003B000000080000001B00000010000000E2050000
310
820300005800000064000000F30100002A010000F90100003001000012000000
310
DC058203DC058203DC058203DA058D03DA058D03DA058D03DC058D03DC058D03
310
DC058D03E0058D03E3058D03E6058C03E9058A03EA058703EA058603EA058103
310
E6058203E20582033D000000080000003C000000080000003E00000018000000
310
9F8601009F8601006179FEFF6179FEFF130000000C000000020000003B000000
310
080000001B000000100000009D050000820300005800000064000000DB010000
310
2B010000E20100002F0100001200000094058203940582039405820392058C03
310
92058C0392058C0396058C0396058C0396058C039B058C039E058C03A0058B03
310
A3058903A4058703A4058503A4058203A00582039D0582033D00000008000000
310
3C000000080000003E000000180000009F8601009F8601006179FEFF6179FEFF
310
130000000C000000020000003B000000080000001B00000010000000E1040000
310
6E0300005800000040000000A001000024010000080200003C01000009000000
310
E104B203E104B203E104B2031606B2031606B2031606B20316066E0316066E03
310
16066E033D000000080000001B0000001000000025050000A303000058000000
310
58000000AD01000028010000B8010000370100000F0000000905A3030905A303
310
0905A30311057B0311057B0311057B0319057B0319057B0319057B0312059C03
310
12059C0312059C0327059C0327059C0327059C033D000000080000001B000000
310
1000000046050000A30300005800000070000000B701000028010000C5010000
310
370100001500000045059A0345059A0345059A0335059A0335059A0335059A03
310
3005A3033005A3033005A3032805A3032805A3032805A3033F057B033F057B03
310
3F057B0348057B0348057B0348057B034E05A3034E05A3034E05A3033D000000
310
080000001B0000001000000062050000980300005800000040000000C6010000
310
30010000CD010000330100000900000053059803530598035305980355059103
310
55059103550591036405910364059103640591033D000000080000001B000000
310
10000000810500009603000058000000DC000000CC01000028010000D7010000
310
370100003000000081059C037C05A4037305A4036D05A4036805A10366059803
310
6E0598036E0598036E0598036E059B0370059D0373059D0377059D0379059A03
310
7905970379059303770591037405910373059103730592037305920374058B03
310
74058B0374058B0379058C037B0589037B0585037B0582037905810377058103
310
7405810373058303720586036B0585036B0585036B0585036C0583036E057B03
310
78057B0380057B03830580038305850383058A0380058D037C058E037F059003
310
81059303810596033D000000080000001B00000010000000A9050000A2030000
310
58000000B8000000D601000028010000E50100003701000027000000A905A203
310
A905A303A905A303A005A303A005A303A005A303A005A3039C0598039A059503
310
9805920397059203940592039105920391059203910592038D05A3038D05A303
310
8D05A3038505A3038505A3038505A3038E057B038E057B038E057B039F057B03
310
9F057B039F057B03A3057B03AC057B03AC058503AC058B03A9058E03A7059003
310
A4059103A1059203A0059203A3059503A6059C03A905A2033D00000008000000
310
1B00000010000000C80500009C03000058000000AC000000E401000028010000
310
EF0100003701000024000000C705A303C705A303C705A303AF05A303AF05A303
310
AF05A303AF059C03B4059803B9059303BA059203BC059003BD058F03C0058C03
310
C4058903C4058503C4058303C2058103BF058103BC058103BB058403BA058703
310
B2058603B2058603B2058603B4057F03B8057B03BF057B03C8057B03CB058103
310
CB058503CB058A03C9058E03C4059303BD059903BC059903BB059C033D000000
310
080000001B00000010000000EB05000091030000580000007C000000EE010000
310
28010000FC0100003701000018000000E8059403E2059403DD059403D8059403
310
D8059403D8059403D505A303D505A303D505A303CD05A303CD05A303CD05A303
310
D5057B03D5057B03D5057B03E5057B03E5057B03E5057B03E8057B03F2057B03
310
F2058503F2058803F0058E03EB0591033D000000080000003C00000008000000
310
3E000000180000009F8601009F8601006179FEFF6179FEFF2700000018000000
310
03000000010000000000000000000000250000000C0000000300000028000000
310
0C000000010000005F00000034000000010000002C000000000000002C000000
310
0000000000220100100000000000000000000000000000000000000025000000
310
0C00000001000000280000000C000000020000003A0000000C00000004000000
310
5A0000002C000000060100007D0000000D010000A10000000100000002000000
310
020000001D03DA011D0381013A0000000C000000040000005A0000002C000000
310
06010000A30000000D010000C80000000100000002000000020000001D03F301
310
1D034D023A0000000C000000040000005A0000002C00000006010000C9000000
310
0D010000EE0000000100000002000000020000001D0366021D03C00213000000
310
0C00000002000000270000001800000002000000000000000000000000000000
310
250000000C00000002000000280000000C000000030000005F00000034000000
310
030000002C000000000000002C00000000000000050000000000000000000000
310
000000000000000000000000250000000C00000003000000280000000C000000
310
010000003B000000080000001B000000100000004B0400008202000058000000
310
940000006D010000C7000000C3010000D70000001E0000002D0582022D058202
310
2D0582022E0582022F0581022F05800246055A0246055A0246055A0246055A02
310
46055A0246055A02460559024505580244055802430558024205580242055902
310
310573022D057A022C057D022A057D024B047D024B047D0249047D0248047E02
310
48047F0248048102490482024B0482023D000000080000003C00000008000000
310
3E000000180000009F8601009F8601006179FEFF6179FEFF280000000C000000
310
02000000280000000C000000030000000E000000140000000000000010000000
310
1400000000000000000000000000000000000000000000000000000000000000
310
0000000000000000000000000000000000000000000000000000000000000000
310
0000000000000000000000000000000000000000000000000000000000000000
310
0000000000000000000000000000000000000000000000000000000000000000
310
0000000000000000000000000000000000000000000000000000000000000000
310
0000000000000000000000000000000000000000000000000000000000000000
310
02004F006C006500500072006500730030003000300000000000000000000000
310
0000000000000000000000000000000000000000000000000000000000000000
310
18000200FFFFFFFFFFFFFFFFFFFFFFFF00000000000000000000000000000000
310
0000000000000000000000000000000000000000030000009A00000000000000
310
02004F006C006500500072006500730030003000300000000000000000000000
310
0000000000000000000000000000000000000000000000000000000000000000
310
18000000FFFFFFFFFFFFFFFFFFFFFFFF00000000000000000000000000000000
310
0000000000000000000000000000000000000000FEFFFFFF0000000000000000
310
0000000000000000000000000000000000000000000000000000000000000000
310
0000000000000000000000000000000000000000000000000000000000000000
310
00000000FFFFFFFFFFFFFFFFFFFFFFFF00000000000000000000000000000000
310
0000000000000000000000000000000000000000000000000000000000000000
310
0000000000000000000000000000000000000000000000000000000000000000
310
0000000000000000000000000000000000000000000000000000000000000000
310
00000000FFFFFFFFFFFFFFFFFFFFFFFF00000000000000000000000000000000
310
0000000000000000000000000000000000000000000000000000000000000000
  1
OLE
  0
VIEWPORT
  5
3E33
330
3E2C
100
AcDbEntity
 67
     1
  8
0
100
AcDbViewport
 10
141.3990707569633
 20
101.7342093725442
 30
0.0
 40
384.2910859078002
 41
251.5127705110852
 68
     1
 69
     1
 12
141.3990707569633
 22
101.7342093725442
 13
0.0
 23
0.0
 14
10.0
 24
10.0
 15
10.0
 25
10.0
 16
0.0
 26
0.0
 36
1.0
 17
0.0
 27
0.0
 37
0.0
 42
50.0
 43
0.0
 44
0.0
 45
251.5127705110852
 50
0.0
 51
0.0
 72
   100
 90
    32800
  1

281
     0
 71
     1
 74
     0
110
0.0
120
0.0
130
0.0
111
1.0
121
0.0
131
0.0
112
0.0
122
1.0
132
0.0
 79
     0
146
0.0
  0
VIEWPORT
  5
3E35
330
3E2C
100
AcDbEntity
 67
     1
  8
外形２
100
AcDbViewport
 10
145.2467609941039
 20
107.230184800258
 30
0.0
 40
267.4120112612111
 41
160.627596939065
 68
     2
 69
     2
 12
119.707781859263
 22
281.7218715767431
 13
0.0
 23
0.0
 14
10.0
 24
10.0
 15
10.0
 25
10.0
 16
0.0
 26
0.0
 36
1.0
 17
0.0
 27
0.0
 37
0.0
 42
50.0
 43
0.0
 44
0.0
 45
148.7619499509808
 50
0.0
 51
0.0
 72
   100
 90
    32864
  1

281
     0
 71
     1
 74
     0
110
0.0
120
0.0
130
0.0
111
1.0
121
0.0
131
0.0
112
0.0
122
1.0
132
0.0
 79
     0
146
0.0
  0
LINE
  5
3E40
330
3E2C
100
AcDbEntity
 67
     1
  8
GAIKEI
100
AcDbLine
 10
11.54075536349843
 20
187.5439832697906
 30
0.0
 11
278.9527666247095
 21
187.5439832697906
 31
0.0
  0
LINE
  5
3E41
330
3E2C
100
AcDbEntity
 67
     1
  8
GAIKEI
100
AcDbLine
 10
11.54075536349843
 20
187.5439832697906
 30
0.0
 11
11.54075536349843
 21
26.91638633072562
 31
0.0
  0
LINE
  5
3E43
330
3E2C
100
AcDbEntity
 67
     1
  8
GAIKEI
100
AcDbLine
 10
278.9527666247095
 20
187.5439832697906
 30
0.0
 11
278.9527666247095
 21
26.91638633072562
 31
0.0
  0
LINE
  5
3E45
330
3E2C
100
AcDbEntity
 67
     1
  8
GAIKEI
100
AcDbLine
 10
278.9527666247095
 20
26.91638633072562
 30
0.0
 11
11.54075536349843
 21
26.91638633072562
 31
0.0
  0
ENDSEC
  0
SECTION
  2
OBJECTS
  0
DICTIONARY
  5
C
330
0
100
AcDbDictionary
281
     1
  3
ACAD_GROUP
350
D
  3
ACAD_LAYOUT
350
1A
  3
ACAD_MLINESTYLE
350
17
  3
ACAD_PLOTSETTINGS
350
19
  3
ACAD_PLOTSTYLENAME
350
E
  3
AcDbVariableDictionary
350
193
  0
DICTIONARY
  5
F87
330
1F
100
AcDbDictionary
280
     1
281
     1
  3
ACAD_SORTENTS
360
F88
  0
DICTIONARY
  5
35C5
330
35C4
100
AcDbDictionary
280
     1
281
     1
  3
ACAD_DIMASSOC
360
35C6
  0
DICTIONARY
  5
35CC
330
35CB
100
AcDbDictionary
280
     1
281
     1
  3
ACAD_DIMASSOC
360
35CD
  0
DICTIONARY
  5
3678
330
3677
100
AcDbDictionary
280
     1
281
     1
  3
ACAD_DIMASSOC
360
3679
  0
DICTIONARY
  5
367B
330
367A
100
AcDbDictionary
280
     1
281
     1
  3
ACAD_DIMASSOC
360
367C
  0
DICTIONARY
  5
367E
330
367D
100
AcDbDictionary
280
     1
281
     1
  3
ACAD_DIMASSOC
360
367F
  0
DICTIONARY
  5
3681
330
3680
100
AcDbDictionary
280
     1
281
     1
  3
ACAD_DIMASSOC
360
3682
  0
DICTIONARY
  5
36B0
330
36AF
100
AcDbDictionary
280
     1
281
     1
  3
ACAD_DIMASSOC
360
36B1
  0
DICTIONARY
  5
D
102
{ACAD_REACTORS
330
C
102
}
330
C
100
AcDbDictionary
281
     1
  3
*A1
350
37E
  3
*A2
350
37F
  3
*A3
350
380
  3
*A4
350
381
  3
*A5
350
3DAD
  0
DICTIONARY
  5
1A
102
{ACAD_REACTORS
330
C
102
}
330
C
100
AcDbDictionary
281
     1
  3
lanio_2
350
3E2D
  3
Model
350
22
  0
DICTIONARY
  5
17
102
{ACAD_REACTORS
330
C
102
}
330
C
100
AcDbDictionary
281
     1
  3
Standard
350
18
  0
DICTIONARY
  5
19
102
{ACAD_REACTORS
330
C
102
}
330
C
100
AcDbDictionary
281
     1
  0
ACDBDICTIONARYWDFLT
  5
E
102
{ACAD_REACTORS
330
C
102
}
330
C
100
AcDbDictionary
281
     1
  3
Normal
350
F
100
AcDbDictionaryWithDefault
340
F
  0
DICTIONARY
  5
193
102
{ACAD_REACTORS
330
C
102
}
330
C
100
AcDbDictionary
281
     1
  3
DIMASSOC
350
195
  3
HIDETEXT
350
194
  3
SORTENTS
350
FE8
  0
SORTENTSTABLE
  5
F88
102
{ACAD_REACTORS
330
F87
102
}
330
F87
100
AcDbSortentsTable
330
1F
  0
DIMASSOC
  5
35C6
102
{ACAD_REACTORS
330
35C5
102
}
330
35C5
100
AcDbDimAssoc
330
35C4
 90
        2
 70
     0
 71
     0
  1
AcDbOsnapPointRef
 72
    13
331
34C2
 73
     2
 91
        0
 40
0.0
 10
71.87246888190802
 20
286.91355552463
 30
0.0
 75
     0
  0
DIMASSOC
  5
35CD
102
{ACAD_REACTORS
330
35CC
102
}
330
35CC
100
AcDbDimAssoc
330
35CB
 90
        3
 70
     0
 71
     0
  1
AcDbOsnapPointRef
 72
    13
331
34C2
 73
     2
 91
        0
 40
0.0
 10
71.87246888190802
 20
286.91355552463
 30
0.0
 75
     0
  1
AcDbOsnapPointRef
 72
     1
331
34C2
 73
     2
 91
        0
 40
1.0
 10
71.87246888190795
 20
236.1135555246299
 30
0.0
 75
     0
  0
DIMASSOC
  5
3679
102
{ACAD_REACTORS
330
3678
102
}
330
3678
100
AcDbDimAssoc
330
3677
 90
        1
 70
     0
 71
     0
  1
AcDbOsnapPointRef
 72
     1
331
33AF
 73
     2
 91
        0
 40
1.0
 10
177.876286873796
 20
298.5135555246298
 30
0.0
 75
     0
  0
DIMASSOC
  5
367C
102
{ACAD_REACTORS
330
367B
102
}
330
367B
100
AcDbDimAssoc
330
367A
 90
        3
 70
     0
 71
     0
  1
AcDbOsnapPointRef
 72
     1
331
33AF
 73
     2
 91
        0
 40
1.0
 10
177.876286873796
 20
298.5135555246298
 30
0.0
 75
     0
  1
AcDbOsnapPointRef
 72
     1
331
33B0
 73
     2
 91
        0
 40
1.0
 10
177.876286873796
 20
224.5135555246299
 30
0.0
 75
     0
  0
DIMASSOC
  5
367F
102
{ACAD_REACTORS
330
367E
102
}
330
367E
100
AcDbDimAssoc
330
367D
 90
        3
 70
     0
 71
     0
  1
AcDbOsnapPointRef
 72
     1
331
33B4
 73
     2
 91
        0
 40
1.0
 10
16.30476050713524
 20
298.5135555246298
 30
0.0
 75
     0
  1
AcDbOsnapPointRef
 72
    13
331
33B3
 73
     2
 91
        0
 40
0.0
 10
43.30476050713524
 20
298.5135555246298
 30
0.0
 75
     0
  0
DIMASSOC
  5
3682
102
{ACAD_REACTORS
330
3681
102
}
330
3681
100
AcDbDimAssoc
330
3680
 90
        3
 70
     0
 71
     0
  1
AcDbOsnapPointRef
 72
     1
331
35CE
 73
     2
 91
        0
 40
0.9999999999999998
 10
25.30476050713528
 20
288.2135555246299
 30
0.0
 75
     0
  1
AcDbOsnapPointRef
 72
    13
331
35D0
 73
     2
 91
        0
 40
0.0
 10
40.5047605071353
 20
286.9135555246298
 30
0.0
 75
     0
  0
DIMASSOC
  5
36B1
102
{ACAD_REACTORS
330
36B0
102
}
330
36B0
100
AcDbDimAssoc
330
36AF
 90
        3
 70
     0
 71
     0
  1
AcDbOsnapPointRef
 72
    13
331
33BF
 73
     2
 91
        0
 40
0.0
 10
227.876286873796
 20
298.5135555246298
 30
0.0
 75
     0
  1
AcDbOsnapPointRef
 72
    13
331
368F
 73
     2
 91
        0
 40
0.0
 10
230.4762868737959
 20
294.4475625603086
 30
0.0
 75
     0
  0
GROUP
  5
37E
102
{ACAD_REACTORS
330
D
102
}
330
D
100
AcDbGroup
300

 70
     1
 71
     1
  0
GROUP
  5
37F
102
{ACAD_REACTORS
330
D
102
}
330
D
100
AcDbGroup
300

 70
     1
 71
     1
  0
GROUP
  5
380
102
{ACAD_REACTORS
330
D
102
}
330
D
100
AcDbGroup
300

 70
     1
 71
     1
  0
GROUP
  5
381
102
{ACAD_REACTORS
330
D
102
}
330
D
100
AcDbGroup
300

 70
     1
 71
     1
  0
GROUP
  5
3DAD
102
{ACAD_REACTORS
330
D
102
}
330
D
100
AcDbGroup
300

 70
     1
 71
     1
  0
LAYOUT
  5
3E2D
102
{ACAD_REACTORS
330
1A
102
}
330
1A
100
AcDbPlotSettings
  1

  2
Adobe PDF.pc3
  4
A4
  6

 40
3.174999952316283
 41
3.174999952316283
 42
3.17498779296875
 43
3.175003051757812
 44
297.0318298339843
 45
209.9733276367186
 46
0.0
 47
0.0
 48
0.0
 49
0.0
140
0.0
141
0.0
142
1.0
143
1.0
 70
   688
 72
     1
 73
     0
 74
     5
  7
monochrome.ctb
 75
    16
147
1.0
148
0.0
149
0.0
100
AcDbLayout
  1
lanio_2
 70
     1
 71
     1
 10
-3.174999952316283
 20
-3.174999952316283
 11
293.856829881668
 21
206.7983276844024
 12
0.0
 22
0.0
 32
0.0
 14
11.54075536349836
 24
4.391491168708682
 34
0.0
 15
278.9527666247095
 25
200.5225356522986
 35
0.0
146
0.0
 13
0.0
 23
0.0
 33
0.0
 16
1.0
 26
0.0
 36
0.0
 17
0.0
 27
1.0
 37
0.0
 76
     0
330
3E2C
331
3E33
  0
LAYOUT
  5
22
102
{ACAD_REACTORS
330
1A
102
}
330
1A
100
AcDbPlotSettings
  1

  2
Acrobat PDFWriter.pc3
  4
A3
  6

 40
3.174999952316282
 41
3.174999952316282
 42
3.17498779296875
 43
3.17498779296875
 44
297.1000061035156
 45
420.0
 46
0.0
 47
0.0
 48
0.0
 49
0.0
140
0.0
141
0.0
142
1.0
143
1.0
 70
 28336
 72
     1
 73
     0
 74
     0
  7

 75
    16
147
1.0
148
-83.94897049929046
149
-42.345516763997
100
AcDbLayout
  1
Model
 70
     1
 71
     0
 10
0.0
 20
0.0
 11
12.0
 21
9.0
 12
0.0
 22
0.0
 32
0.0
 14
0.0
 24
0.0
 34
0.0
 15
0.0
 25
0.0
 35
0.0
146
0.0
 13
0.0
 23
0.0
 33
0.0
 16
1.0
 26
0.0
 36
0.0
 17
0.0
 27
1.0
 37
0.0
 76
     0
330
1F
  0
MLINESTYLE
  5
18
102
{ACAD_REACTORS
330
17
102
}
330
17
100
AcDbMlineStyle
  2
STANDARD
 70
     0
  3

 62
   256
 51
90.0
 52
90.0
 71
     2
 49
0.5
 62
   256
  6
BYLAYER
 49
-0.5
 62
   256
  6
BYLAYER
  0
ACDBPLACEHOLDER
  5
F
102
{ACAD_REACTORS
330
E
102
}
330
E
  0
DICTIONARYVAR
  5
195
102
{ACAD_REACTORS
330
193
102
}
330
193
100
DictionaryVariables
280
     0
  1
2
  0
DICTIONARYVAR
  5
194
102
{ACAD_REACTORS
330
193
102
}
330
193
100
DictionaryVariables
280
     0
  1
1
  0
DICTIONARYVAR
  5
FE8
102
{ACAD_REACTORS
330
193
102
}
330
193
100
DictionaryVariables
280
     0
  1
112
  0
ENDSEC
  0
EOF
