  0
SECTION
  2
HEADER
  9
$ACADVER
  1
AC1027
  9
$ACADMAINTVER
 70
    20
  9
$DWGCODEPAGE
  3
ANSI_932
  9
$LASTSAVEDBY
  1
lineeyeKH1
  9
$REQUIREDVERSIONS
160
                 0
  9
$INSBASE
 10
0.0
 20
0.0
 30
0.0
  9
$EXTMIN
 10
61.95248975981805
 20
39.72727780381511
 30
0.0
  9
$EXTMAX
 10
227.0934097170631
 20
183.2949190292453
 30
0.0
  9
$LIMMIN
 10
0.0
 20
0.0
  9
$LIMMAX
 10
420.0
 20
297.0
  9
$ORTHOMODE
 70
     1
  9
$REGENMODE
 70
     1
  9
$FILLMODE
 70
     1
  9
$QTEXTMODE
 70
     0
  9
$MIRRTEXT
 70
     1
  9
$LTSCALE
 40
1.0
  9
$ATTMODE
 70
     1
  9
$TEXTSIZE
 40
2.5
  9
$TRACEWID
 40
1.0
  9
$TEXTSTYLE
  7
Standard
  9
$CLAYER
  8
中心線
  9
$CELTYPE
  6
ByLayer
  9
$CECOLOR
 62
   256
  9
$CELTSCALE
 40
1.0
  9
$DISPSILH
 70
     0
  9
$DIMSCALE
 40
1.0
  9
$DIMASZ
 40
2.0
  9
$DIMEXO
 40
1.0
  9
$DIMDLI
 40
7.0
  9
$DIMRND
 40
0.0
  9
$DIMDLE
 40
0.0
  9
$DIMEXE
 40
1.0
  9
$DIMTP
 40
0.0
  9
$DIMTM
 40
0.0
  9
$DIMTXT
 40
2.5
  9
$DIMCEN
 40
0.0
  9
$DIMTSZ
 40
0.0
  9
$DIMTOL
 70
     0
  9
$DIMLIM
 70
     0
  9
$DIMTIH
 70
     0
  9
$DIMTOH
 70
     0
  9
$DIMSE1
 70
     0
  9
$DIMSE2
 70
     0
  9
$DIMTAD
 70
     1
  9
$DIMZIN
 70
     8
  9
$DIMBLK
  1

  9
$DIMASO
 70
     1
  9
$DIMSHO
 70
     1
  9
$DIMPOST
  1

  9
$DIMAPOST
  1

  9
$DIMALT
 70
     0
  9
$DIMALTD
 70
     2
  9
$DIMALTF
 40
0.0394
  9
$DIMLFAC
 40
1.0
  9
$DIMTOFL
 70
     1
  9
$DIMTVP
 40
0.0
  9
$DIMTIX
 70
     0
  9
$DIMSOXD
 70
     0
  9
$DIMSAH
 70
     0
  9
$DIMBLK1
  1

  9
$DIMBLK2
  1

  9
$DIMSTYLE
  2
LINEEYE
  9
$DIMCLRD
 70
   256
  9
$DIMCLRE
 70
   256
  9
$DIMCLRT
 70
   256
  9
$DIMTFAC
 40
1.0
  9
$DIMGAP
 40
1.0
  9
$DIMJUST
 70
     0
  9
$DIMSD1
 70
     0
  9
$DIMSD2
 70
     0
  9
$DIMTOLJ
 70
     1
  9
$DIMTZIN
 70
     0
  9
$DIMALTZ
 70
     0
  9
$DIMALTTZ
 70
     0
  9
$DIMUPT
 70
     0
  9
$DIMDEC
 70
     1
  9
$DIMTDEC
 70
     1
  9
$DIMALTU
 70
     2
  9
$DIMALTTD
 70
     2
  9
$DIMTXSTY
  7
Standard
  9
$DIMAUNIT
 70
     0
  9
$DIMADEC
 70
     0
  9
$DIMALTRND
 40
0.0
  9
$DIMAZIN
 70
     0
  9
$DIMDSEP
 70
    46
  9
$DIMATFIT
 70
     3
  9
$DIMFRAC
 70
     0
  9
$DIMLDRBLK
  1

  9
$DIMLUNIT
 70
     2
  9
$DIMLWD
 70
    -1
  9
$DIMLWE
 70
    -1
  9
$DIMTMOVE
 70
     0
  9
$DIMFXL
 40
1.0
  9
$DIMFXLON
 70
     0
  9
$DIMJOGANG
 40
0.7853981633974483
  9
$DIMTFILL
 70
     0
  9
$DIMTFILLCLR
 70
     0
  9
$DIMARCSYM
 70
     0
  9
$DIMLTYPE
  6

  9
$DIMLTEX1
  6

  9
$DIMLTEX2
  6

  9
$DIMTXTDIRECTION
 70
     0
  9
$LUNITS
 70
     2
  9
$LUPREC
 70
     4
  9
$SKETCHINC
 40
1.0
  9
$FILLETRAD
 40
1.0
  9
$AUNITS
 70
     0
  9
$AUPREC
 70
     0
  9
$MENU
  1
.
  9
$ELEVATION
 40
0.0
  9
$PELEVATION
 40
0.0
  9
$THICKNESS
 40
0.0
  9
$LIMCHECK
 70
     0
  9
$CHAMFERA
 40
1.0
  9
$CHAMFERB
 40
1.0
  9
$CHAMFERC
 40
20.0
  9
$CHAMFERD
 40
0.0
  9
$SKPOLY
 70
     0
  9
$TDCREATE
 40
2452964.722255845
  9
$TDUCREATE
 40
2452964.347255846
  9
$TDUPDATE
 40
2458164.575840429
  9
$TDUUPDATE
 40
2458164.200840428
  9
$TDINDWG
 40
0.8202307986
  9
$TDUSRTIMER
 40
2457052.266327778
  9
$USRTIMER
 70
     1
  9
$ANGBASE
 50
0.0
  9
$ANGDIR
 70
     0
  9
$PDMODE
 70
     0
  9
$PDSIZE
 40
0.0
  9
$PLINEWID
 40
0.0
  9
$SPLFRAME
 70
     0
  9
$SPLINETYPE
 70
     6
  9
$SPLINESEGS
 70
     8
  9
$HANDSEED
  5
4929
  9
$SURFTAB1
 70
     6
  9
$SURFTAB2
 70
     6
  9
$SURFTYPE
 70
     6
  9
$SURFU
 70
     6
  9
$SURFV
 70
     6
  9
$UCSBASE
  2

  9
$UCSNAME
  2

  9
$UCSORG
 10
0.0
 20
0.0
 30
0.0
  9
$UCSXDIR
 10
1.0
 20
0.0
 30
0.0
  9
$UCSYDIR
 10
0.0
 20
1.0
 30
0.0
  9
$UCSORTHOREF
  2

  9
$UCSORTHOVIEW
 70
     0
  9
$UCSORGTOP
 10
0.0
 20
0.0
 30
0.0
  9
$UCSORGBOTTOM
 10
0.0
 20
0.0
 30
0.0
  9
$UCSORGLEFT
 10
0.0
 20
0.0
 30
0.0
  9
$UCSORGRIGHT
 10
0.0
 20
0.0
 30
0.0
  9
$UCSORGFRONT
 10
0.0
 20
0.0
 30
0.0
  9
$UCSORGBACK
 10
0.0
 20
0.0
 30
0.0
  9
$PUCSBASE
  2

  9
$PUCSNAME
  2

  9
$PUCSORG
 10
0.0
 20
0.0
 30
0.0
  9
$PUCSXDIR
 10
1.0
 20
0.0
 30
0.0
  9
$PUCSYDIR
 10
0.0
 20
1.0
 30
0.0
  9
$PUCSORTHOREF
  2

  9
$PUCSORTHOVIEW
 70
     0
  9
$PUCSORGTOP
 10
0.0
 20
0.0
 30
0.0
  9
$PUCSORGBOTTOM
 10
0.0
 20
0.0
 30
0.0
  9
$PUCSORGLEFT
 10
0.0
 20
0.0
 30
0.0
  9
$PUCSORGRIGHT
 10
0.0
 20
0.0
 30
0.0
  9
$PUCSORGFRONT
 10
0.0
 20
0.0
 30
0.0
  9
$PUCSORGBACK
 10
0.0
 20
0.0
 30
0.0
  9
$USERI1
 70
     0
  9
$USERI2
 70
     0
  9
$USERI3
 70
     0
  9
$USERI4
 70
     0
  9
$USERI5
 70
     0
  9
$USERR1
 40
0.0
  9
$USERR2
 40
0.0
  9
$USERR3
 40
0.0
  9
$USERR4
 40
0.0
  9
$USERR5
 40
0.0
  9
$WORLDVIEW
 70
     1
  9
$SHADEDGE
 70
     3
  9
$SHADEDIF
 70
    70
  9
$TILEMODE
 70
     0
  9
$MAXACTVP
 70
    64
  9
$PINSBASE
 10
0.0
 20
0.0
 30
0.0
  9
$PLIMCHECK
 70
     0
  9
$PEXTMIN
 10
-0.6161281959830376
 20
-0.9914953453488806
 30
0.0
  9
$PEXTMAX
 10
296.8919077172943
 20
209.0085046546511
 30
0.0
  9
$PLIMMIN
 10
-0.7937499880790711
 20
-0.7937499880790711
  9
$PLIMMAX
 10
296.2062500119209
 20
209.2062500119209
  9
$UNITMODE
 70
     0
  9
$VISRETAIN
 70
     1
  9
$PLINEGEN
 70
     0
  9
$PSLTSCALE
 70
     1
  9
$TREEDEPTH
 70
  3020
  9
$CMLSTYLE
  2
Standard
  9
$CMLJUST
 70
     0
  9
$CMLSCALE
 40
20.0
  9
$PROXYGRAPHICS
 70
     1
  9
$MEASUREMENT
 70
     1
  9
$CELWEIGHT
370
    -1
  9
$ENDCAPS
280
     0
  9
$JOINSTYLE
280
     0
  9
$LWDISPLAY
290
     0
  9
$INSUNITS
 70
     4
  9
$HYPERLINKBASE
  1

  9
$STYLESHEET
  1
GRAYSCALE.CTB
  9
$XEDIT
290
     1
  9
$CEPSNTYPE
380
     0
  9
$PSTYLEMODE
290
     1
  9
$FINGERPRINTGUID
  2
{8D857D7B-D612-449F-BAF4-CB0812802B13}
  9
$VERSIONGUID
  2
{51164A75-0A7D-46E1-8E51-D11298EF73F5}
  9
$EXTNAMES
290
     1
  9
$PSVPSCALE
 40
0.0
  9
$OLESTARTUP
290
     0
  9
$SORTENTS
280
   112
  9
$INDEXCTL
280
     0
  9
$HIDETEXT
280
     1
  9
$XCLIPFRAME
280
     2
  9
$HALOGAP
280
     0
  9
$OBSCOLOR
 70
   257
  9
$OBSLTYPE
280
     0
  9
$INTERSECTIONDISPLAY
280
     0
  9
$INTERSECTIONCOLOR
 70
   257
  9
$DIMASSOC
280
     2
  9
$PROJECTNAME
  1

  9
$CAMERADISPLAY
290
     0
  9
$LENSLENGTH
 40
50.0
  9
$CAMERAHEIGHT
 40
0.0
  9
$STEPSPERSEC
 40
2.0
  9
$STEPSIZE
 40
6.0
  9
$3DDWFPREC
 40
2.0
  9
$PSOLWIDTH
 40
0.25
  9
$PSOLHEIGHT
 40
4.0
  9
$LOFTANG1
 40
1.570796326794897
  9
$LOFTANG2
 40
1.570796326794897
  9
$LOFTMAG1
 40
0.0
  9
$LOFTMAG2
 40
0.0
  9
$LOFTPARAM
 70
     7
  9
$LOFTNORMALS
280
     1
  9
$LATITUDE
 40
37.795
  9
$LONGITUDE
 40
-122.394
  9
$NORTHDIRECTION
 40
0.0
  9
$TIMEZONE
 70
 -8000
  9
$LIGHTGLYPHDISPLAY
280
     1
  9
$TILEMODELIGHTSYNCH
280
     1
  9
$CMATERIAL
347
36F4
  9
$SOLIDHIST
280
     0
  9
$SHOWHIST
280
     1
  9
$DWFFRAME
280
     2
  9
$DGNFRAME
280
     2
  9
$REALWORLDSCALE
290
     1
  9
$INTERFERECOLOR
 62
   256
  9
$INTERFEREOBJVS
345
36E3
  9
$INTERFEREVPVS
346
36E0
  9
$CSHADOW
280
     0
  9
$SHADOWPLANELOCATION
 40
0.0
  0
ENDSEC
  0
SECTION
  2
CLASSES
  0
CLASS
  1
ACDBDICTIONARYWDFLT
  2
AcDbDictionaryWithDefault
  3
ObjectDBX Classes
 90
        0
 91
        1
280
     0
281
     0
  0
CLASS
  1
DIMASSOC
  2
AcDbDimAssoc
  3
"AcDbDimAssoc|Product Desc:     AcDim ARX App For Dimension|Company:          Autodesk, Inc.|WEB Address:      www.autodesk.com"
 90
        0
 91
       42
280
     0
281
     0
  0
CLASS
  1
DICTIONARYVAR
  2
AcDbDictionaryVar
  3
ObjectDBX Classes
 90
        0
 91
       10
280
     0
281
     0
  0
CLASS
  1
SORTENTSTABLE
  2
AcDbSortentsTable
  3
ObjectDBX Classes
 90
        0
 91
        2
280
     0
281
     0
  0
CLASS
  1
SCALE
  2
AcDbScale
  3
ObjectDBX Classes
 90
     1153
 91
       33
280
     0
281
     0
  0
CLASS
  1
VISUALSTYLE
  2
AcDbVisualStyle
  3
ObjectDBX Classes
 90
     4095
 91
       24
280
     0
281
     0
  0
CLASS
  1
MATERIAL
  2
AcDbMaterial
  3
ObjectDBX Classes
 90
     1153
 91
        3
280
     0
281
     0
  0
CLASS
  1
TABLESTYLE
  2
AcDbTableStyle
  3
ObjectDBX Classes
 90
     4095
 91
        1
280
     0
281
     0
  0
CLASS
  1
MLEADERSTYLE
  2
AcDbMLeaderStyle
  3
ACDB_MLEADERSTYLE_CLASS
 90
     4095
 91
        1
280
     0
281
     0
  0
CLASS
  1
SUN
  2
AcDbSun
  3
SCENEOE
 90
     1153
 91
        2
280
     0
281
     0
  0
CLASS
  1
RASTERVARIABLES
  2
AcDbRasterVariables
  3
ISM
 90
        0
 91
        1
280
     0
281
     0
  0
CLASS
  1
MULTILEADER
  2
AcDbMLeader
  3
ACDB_MLEADER_CLASS
 90
     1025
 91
        1
280
     0
281
     1
  0
CLASS
  1
CELLSTYLEMAP
  2
AcDbCellStyleMap
  3
ObjectDBX Classes
 90
     1152
 91
        1
280
     0
281
     0
  0
CLASS
  1
ACDBSECTIONVIEWSTYLE
  2
AcDbSectionViewStyle
  3
ObjectDBX Classes
 90
     1025
 91
        1
280
     0
281
     0
  0
CLASS
  1
ACDBDETAILVIEWSTYLE
  2
AcDbDetailViewStyle
  3
ObjectDBX Classes
 90
     1025
 91
        1
280
     0
281
     0
  0
ENDSEC
  0
SECTION
  2
TABLES
  0
TABLE
  2
VPORT
  5
8
330
0
100
AcDbSymbolTable
 70
     1
  0
VPORT
  5
36B7
330
8
100
AcDbSymbolTableRecord
100
AcDbViewportTableRecord
  2
*Active
 70
     0
 10
0.0
 20
0.0
 11
1.0
 21
1.0
 12
132.4766530330097
 22
109.2570793726842
 13
0.0
 23
0.0
 14
10.0
 24
10.0
 15
10.0
 25
10.0
 16
0.0
 26
0.0
 36
1.0
 17
0.0
 27
0.0
 37
0.0
 40
176.9338470272845
 41
1.5
 42
50.0
 43
0.0
 44
0.0
 50
0.0
 51
0.0
 71
    16
 72
   100
 73
     1
 74
     3
 75
     0
 76
     0
 77
     0
 78
     0
281
     0
 65
     1
110
0.0
120
0.0
130
0.0
111
1.0
121
0.0
131
0.0
112
0.0
122
1.0
132
0.0
 79
     0
146
0.0
348
36DF
 60
     3
 61
     5
292
     1
282
     1
141
0.0
142
0.0
361
36FC
  0
ENDTAB
  0
TABLE
  2
LTYPE
  5
5
330
0
100
AcDbSymbolTable
 70
     7
  0
LTYPE
  5
14
330
5
100
AcDbSymbolTableRecord
100
AcDbLinetypeTableRecord
  2
ByBlock
 70
     0
  3

 72
    65
 73
     0
 40
0.0
  0
LTYPE
  5
15
330
5
100
AcDbSymbolTableRecord
100
AcDbLinetypeTableRecord
  2
ByLayer
 70
     0
  3

 72
    65
 73
     0
 40
0.0
  0
LTYPE
  5
16
330
5
100
AcDbSymbolTableRecord
100
AcDbLinetypeTableRecord
  2
Continuous
 70
     0
  3
Solid line
 72
    65
 73
     0
 40
0.0
  0
LTYPE
  5
ABF
330
5
100
AcDbSymbolTableRecord
100
AcDbLinetypeTableRecord
  2
CENTER2
 70
     0
  3
Center (.5x) ___ _ ___ _ ___ _ ___ _ ___ _ ___
 72
    65
 73
     4
 40
28.57499999999999
 49
19.05
 74
     0
 49
-3.174999999999998
 74
     0
 49
3.174999999999998
 74
     0
 49
-3.174999999999998
 74
     0
  0
LTYPE
  5
AC9
330
5
100
AcDbSymbolTableRecord
100
AcDbLinetypeTableRecord
  2
CENTERX2
 70
     0
  3
Center (2x) ________  __  ________  __  _____
 72
    65
 73
     4
 40
101.6
 49
63.5
 74
     0
 49
-12.7
 74
     0
 49
12.7
 74
     0
 49
-12.7
 74
     0
  0
LTYPE
  5
BF3
330
5
100
AcDbSymbolTableRecord
100
AcDbLinetypeTableRecord
  2
HIDDEN2
 70
     0
  3
Hidden (.5x) _ _ _ _ _ _ _ _ _ _ _ _ _ _ _ _ _
 72
    65
 73
     2
 40
4.762499999999998
 49
3.174999999999998
 74
     0
 49
-1.587499999999999
 74
     0
  0
LTYPE
  5
1977
330
5
100
AcDbSymbolTableRecord
100
AcDbLinetypeTableRecord
  2
DASHED2
 70
     0
  3
Dashed (.5x) _ _ _ _ _ _ _ _ _ _ _ _ _ _ _ _ _
 72
    65
 73
     2
 40
9.525
 49
6.349999999999998
 74
     0
 49
-3.174999999999998
 74
     0
  0
LTYPE
  5
24EE
330
5
100
AcDbSymbolTableRecord
100
AcDbLinetypeTableRecord
  2
CENTER
 70
     0
  3
____ _ ____ _ ____ _ ____ _ ____ _ ____ _ ____
 72
    65
 73
     4
 40
2.0
 49
1.25
 74
     0
 49
-0.25
 74
     0
 49
0.25
 74
     0
 49
-0.25
 74
     0
  0
LTYPE
  5
24EF
330
5
100
AcDbSymbolTableRecord
100
AcDbLinetypeTableRecord
  2
HIDDEN
 70
     0
  3
_ _ _ _ _ _ _ _ _ _ _ _ _ _ _ _ _ _ _ _ _ _ _
 72
    65
 73
     2
 40
0.375
 49
0.25
 74
     0
 49
-0.125
 74
     0
  0
ENDTAB
  0
TABLE
  2
LAYER
  5
2
102
{ACAD_XDICTIONARY
360
396B
102
}
330
0
100
AcDbSymbolTable
 70
    15
  0
LAYER
  5
10
330
2
100
AcDbSymbolTableRecord
100
AcDbLayerTableRecord
  2
0
 70
     0
 62
     7
  6
Continuous
370
    -3
390
F
347
36F6
348
0
  0
LAYER
  5
6A
330
2
100
AcDbSymbolTableRecord
100
AcDbLayerTableRecord
  2
外形１
 70
     0
 62
     5
  6
Continuous
370
    30
390
F
347
36F6
348
0
  0
LAYER
  5
6B
330
2
100
AcDbSymbolTableRecord
100
AcDbLayerTableRecord
  2
外形２
 70
     0
 62
     7
  6
Continuous
370
    -3
390
F
347
36F6
348
0
  0
LAYER
  5
960
330
2
100
AcDbSymbolTableRecord
100
AcDbLayerTableRecord
  2
寸法
 70
     0
 62
     6
  6
Continuous
370
    25
390
F
347
36F6
348
0
  0
LAYER
  5
961
330
2
100
AcDbSymbolTableRecord
100
AcDbLayerTableRecord
  2
Defpoints
 70
     0
 62
    -7
  6
Continuous
290
     0
370
    -3
390
F
347
36F6
348
0
  0
LAYER
  5
AC0
330
2
100
AcDbSymbolTableRecord
100
AcDbLayerTableRecord
  2
中心線
 70
     0
 62
     1
  6
CENTER2
370
    18
390
F
347
36F6
348
0
  0
LAYER
  5
AC7
330
2
100
AcDbSymbolTableRecord
100
AcDbLayerTableRecord
  2
隠れ線
 70
     0
 62
     3
  6
HIDDEN
370
    13
390
F
347
36F6
348
0
  0
LAYER
  5
1978
330
2
100
AcDbSymbolTableRecord
100
AcDbLayerTableRecord
  2
細線
 70
     0
 62
     7
  6
DASHED2
370
     5
390
F
347
36F6
348
0
  0
LAYER
  5
1979
330
2
100
AcDbSymbolTableRecord
100
AcDbLayerTableRecord
  2
文字
 70
     0
 62
     7
  6
Continuous
370
    25
390
F
347
36F6
348
0
  0
LAYER
  5
197A
330
2
100
AcDbSymbolTableRecord
100
AcDbLayerTableRecord
  2
GAIKEI
 70
     0
 62
     7
  6
Continuous
370
    -3
390
F
347
36F6
348
0
  0
LAYER
  5
24F0
330
2
100
AcDbSymbolTableRecord
100
AcDbLayerTableRecord
  2
CONTINUOUS
 70
     0
 62
     7
  6
Continuous
370
    40
390
F
347
36F6
348
0
  0
LAYER
  5
24F1
330
2
100
AcDbSymbolTableRecord
100
AcDbLayerTableRecord
  2
CENTER
 70
     0
 62
     1
  6
CENTER
370
    -3
390
F
347
36F6
348
0
  0
LAYER
  5
24F2
330
2
100
AcDbSymbolTableRecord
100
AcDbLayerTableRecord
  2
DOTTED
 70
     0
 62
     6
  6
HIDDEN
370
    -3
390
F
347
36F6
348
0
  0
LAYER
  5
2A6C
330
2
100
AcDbSymbolTableRecord
100
AcDbLayerTableRecord
  2
板金
 70
     0
 62
     1
  6
Continuous
370
    20
390
F
347
36F6
348
0
  0
LAYER
  5
370D
102
{ACAD_XDICTIONARY
360
370E
102
}
330
2
100
AcDbSymbolTableRecord
100
AcDbLayerTableRecord
  2
DIM
 70
     0
 62
     3
  6
Continuous
370
    -3
390
F
347
36F6
348
0
  0
ENDTAB
  0
TABLE
  2
STYLE
  5
3
330
0
100
AcDbSymbolTable
 70
     4
  0
STYLE
  5
11
330
3
100
AcDbSymbolTableRecord
100
AcDbTextStyleTableRecord
  2
Standard
 70
     0
 40
0.0
 41
1.0
 50
0.0
 71
     0
 42
2.5
  3
txt
  4

  0
STYLE
  5
6C
330
3
100
AcDbSymbolTableRecord
100
AcDbTextStyleTableRecord
  2
STD
 70
     0
 40
0.0
 41
1.0
 50
0.0
 71
     0
 42
0.0
  3
txt
  4

  0
STYLE
  5
6D
330
3
100
AcDbSymbolTableRecord
100
AcDbTextStyleTableRecord
  2
0615
 70
     0
 40
0.0
 41
1.0
 50
0.0
 71
     0
 42
2.5
  3
simplex.shx
  4
bigfont.shx
  0
STYLE
  5
ABE
330
3
100
AcDbSymbolTableRecord
100
AcDbTextStyleTableRecord
  2

 70
     1
 40
0.0
 41
1.0
 50
0.0
 71
     0
 42
2.5
  3
ltypeshp.shx
  4

  0
ENDTAB
  0
TABLE
  2
VIEW
  5
6
330
0
100
AcDbSymbolTable
 70
     0
  0
ENDTAB
  0
TABLE
  2
UCS
  5
7
330
0
100
AcDbSymbolTable
 70
     0
  0
ENDTAB
  0
TABLE
  2
APPID
  5
9
330
0
100
AcDbSymbolTable
 70
     9
  0
APPID
  5
12
330
9
100
AcDbSymbolTableRecord
100
AcDbRegAppTableRecord
  2
ACAD
 70
     0
  0
APPID
  5
3717
330
9
100
AcDbSymbolTableRecord
100
AcDbRegAppTableRecord
  2
ACAD_NAV_VCDISPLAY
 70
     0
  0
APPID
  5
3718
330
9
100
AcDbSymbolTableRecord
100
AcDbRegAppTableRecord
  2
ACAD_DSTYLE_DIMRADIAL_EXTENSION
 70
     0
  0
APPID
  5
3BF2
330
9
100
AcDbSymbolTableRecord
100
AcDbRegAppTableRecord
  2
ACAD_PSEXT
 70
     0
  0
APPID
  5
3C11
330
9
100
AcDbSymbolTableRecord
100
AcDbRegAppTableRecord
  2
ACAD_DSTYLE_DIMJAG
 70
     0
  0
APPID
  5
3C12
330
9
100
AcDbSymbolTableRecord
100
AcDbRegAppTableRecord
  2
ACAD_DSTYLE_DIMTALN
 70
     0
  0
APPID
  5
3C1F
330
9
100
AcDbSymbolTableRecord
100
AcDbRegAppTableRecord
  2
ACAD_EXEMPT_FROM_CAD_STANDARDS
 70
     0
  0
APPID
  5
3E17
330
9
100
AcDbSymbolTableRecord
100
AcDbRegAppTableRecord
  2
ACAD_DSTYLE_DIMBREAK
 70
     0
  0
APPID
  5
4394
330
9
100
AcDbSymbolTableRecord
100
AcDbRegAppTableRecord
  2
AcadAnnoMonitorAlertIconDisabled
 70
     0
  0
ENDTAB
  0
TABLE
  2
DIMSTYLE
  5
A
330
0
100
AcDbSymbolTable
 70
     4
100
AcDbDimStyleTable
 71
     2
340
6F
340
6E
  0
DIMSTYLE
105
27
102
{ACAD_REACTORS
330
2774
330
2777
330
277A
330
278B
330
2796
330
279A
330
27AC
330
27AF
330
27B2
330
27CE
330
27DC
330
27DF
330
27E4
102
}
330
A
100
AcDbSymbolTableRecord
100
AcDbDimStyleTableRecord
  2
ISO-25
 70
     0
 41
2.5
 42
0.625
 43
3.75
 44
1.25
 73
     0
 74
     0
 77
     1
 78
     8
140
2.5
141
2.5
143
0.03937007874016
147
0.625
171
     3
172
     1
271
     2
272
     2
274
     3
283
     0
284
     8
340
11
  0
DIMSTYLE
105
6E
330
A
100
AcDbSymbolTableRecord
100
AcDbDimStyleTableRecord
  2
Standard
 70
     0
340
11
  0
DIMSTYLE
105
6F
102
{ACAD_REACTORS
330
3C5C
330
3C6E
330
3C80
330
3CAA
330
40E3
330
42ED
330
4305
330
431D
330
426C
330
4254
330
437C
330
440C
330
4428
330
44FE
330
4524
330
454E
330
45F9
330
4611
330
4629
330
4641
330
4659
330
4699
330
46BF
330
46D1
330
46E3
330
4707
330
4743
330
475F
102
}
330
A
100
AcDbSymbolTableRecord
100
AcDbDimStyleTableRecord
  2
LINEEYE
 70
     0
 41
2.0
 42
1.0
 43
7.0
 44
1.0
 73
     0
 74
     0
 77
     1
 78
     8
140
2.5
141
0.0
143
0.0394
147
1.0
172
     1
176
   256
177
   256
178
   256
271
     1
272
     1
340
11
371
    -1
372
    -1
1001
ACAD_DSTYLE_DIMBREAK
1070
   391
1040
1.5
1001
ACAD_DSTYLE_DIMJAG
1070
   388
1040
1.5
1001
ACAD_DSTYLE_DIMTALN
1070
   392
1070
     0
  0
DIMSTYLE
105
2A6D
330
A
100
AcDbSymbolTableRecord
100
AcDbDimStyleTableRecord
  2
JIS
 70
     0
 41
2.5
 42
1.0
 43
7.0
 44
1.0
 73
     0
 74
     0
 77
     1
 78
     8
140
2.5
141
0.0
143
0.0394
147
0.0
172
     1
174
     1
175
     1
340
11
  0
ENDTAB
  0
TABLE
  2
BLOCK_RECORD
  5
1
330
0
100
AcDbSymbolTable
 70
    47
  0
BLOCK_RECORD
  5
1F
102
{ACAD_XDICTIONARY
360
F87
102
}
330
1
100
AcDbSymbolTableRecord
100
AcDbBlockTableRecord
  2
*Model_Space
340
22
 70
     0
280
     1
281
     0
  0
BLOCK_RECORD
  5
1B
102
{ACAD_XDICTIONARY
360
3C0A
102
}
330
1
100
AcDbSymbolTableRecord
100
AcDbBlockTableRecord
  2
*Paper_Space
340
1E
 70
     0
280
     1
281
     0
  0
BLOCK_RECORD
  5
2B
330
1
100
AcDbSymbolTableRecord
100
AcDbBlockTableRecord
  2
AI9-BLK1
340
0
 70
     0
280
     1
281
     0
  0
BLOCK_RECORD
  5
2F
330
1
100
AcDbSymbolTableRecord
100
AcDbBlockTableRecord
  2
AI9-BLK2
340
0
 70
     0
280
     1
281
     0
  0
BLOCK_RECORD
  5
34
330
1
100
AcDbSymbolTableRecord
100
AcDbBlockTableRecord
  2
AI9-BLK3
340
0
102
{BLKREFS
331
30
102
}
 70
     0
280
     1
281
     0
  0
BLOCK_RECORD
  5
3E
330
1
100
AcDbSymbolTableRecord
100
AcDbBlockTableRecord
  2
AI9-BLK4
340
0
102
{BLKREFS
331
3A
102
}
 70
     0
280
     1
281
     0
  0
BLOCK_RECORD
  5
42
330
1
100
AcDbSymbolTableRecord
100
AcDbBlockTableRecord
  2
AI9-BLK5
340
0
 70
     0
280
     1
281
     0
  0
BLOCK_RECORD
  5
26CF
330
1
100
AcDbSymbolTableRecord
100
AcDbBlockTableRecord
  2
*D5
340
0
 70
     0
280
     1
281
     0
  0
BLOCK_RECORD
  5
26DB
330
1
100
AcDbSymbolTableRecord
100
AcDbBlockTableRecord
  2
*D6
340
0
 70
     0
280
     1
281
     0
  0
BLOCK_RECORD
  5
26E7
330
1
100
AcDbSymbolTableRecord
100
AcDbBlockTableRecord
  2
*D7
340
0
 70
     0
280
     1
281
     0
  0
BLOCK_RECORD
  5
26F3
330
1
100
AcDbSymbolTableRecord
100
AcDbBlockTableRecord
  2
*D8
340
0
 70
     0
280
     1
281
     0
  0
BLOCK_RECORD
  5
26FF
330
1
100
AcDbSymbolTableRecord
100
AcDbBlockTableRecord
  2
*D9
340
0
 70
     0
280
     1
281
     0
  0
BLOCK_RECORD
  5
270D
330
1
100
AcDbSymbolTableRecord
100
AcDbBlockTableRecord
  2
*D10
340
0
 70
     0
280
     1
281
     0
  0
BLOCK_RECORD
  5
2719
330
1
100
AcDbSymbolTableRecord
100
AcDbBlockTableRecord
  2
*D11
340
0
 70
     0
280
     1
281
     0
  0
BLOCK_RECORD
  5
2725
330
1
100
AcDbSymbolTableRecord
100
AcDbBlockTableRecord
  2
*D12
340
0
 70
     0
280
     1
281
     0
  0
BLOCK_RECORD
  5
2733
330
1
100
AcDbSymbolTableRecord
100
AcDbBlockTableRecord
  2
*D13
340
0
 70
     0
280
     1
281
     0
  0
BLOCK_RECORD
  5
273F
330
1
100
AcDbSymbolTableRecord
100
AcDbBlockTableRecord
  2
*D14
340
0
 70
     0
280
     1
281
     0
  0
BLOCK_RECORD
  5
274B
330
1
100
AcDbSymbolTableRecord
100
AcDbBlockTableRecord
  2
*D15
340
0
 70
     0
280
     1
281
     0
  0
BLOCK_RECORD
  5
2759
330
1
100
AcDbSymbolTableRecord
100
AcDbBlockTableRecord
  2
*D16
340
0
 70
     0
280
     1
281
     0
  0
BLOCK_RECORD
  5
2764
330
1
100
AcDbSymbolTableRecord
100
AcDbBlockTableRecord
  2
*D17
340
0
 70
     0
280
     1
281
     0
  0
BLOCK_RECORD
  5
2772
330
1
100
AcDbSymbolTableRecord
100
AcDbBlockTableRecord
  2
A$C27BD67DC
340
0
 70
     0
280
     1
281
     0
  0
BLOCK_RECORD
  5
3C5D
330
1
100
AcDbSymbolTableRecord
100
AcDbBlockTableRecord
  2
*D19
340
0
 70
     0
280
     1
281
     0
  0
BLOCK_RECORD
  5
3C6F
330
1
100
AcDbSymbolTableRecord
100
AcDbBlockTableRecord
  2
*D20
340
0
 70
     0
280
     1
281
     0
  0
BLOCK_RECORD
  5
3C81
330
1
100
AcDbSymbolTableRecord
100
AcDbBlockTableRecord
  2
*D21
340
0
 70
     0
280
     1
281
     0
  0
BLOCK_RECORD
  5
3CAB
330
1
100
AcDbSymbolTableRecord
100
AcDbBlockTableRecord
  2
*D22
340
0
 70
     0
280
     1
281
     0
  0
BLOCK_RECORD
  5
40E4
330
1
100
AcDbSymbolTableRecord
100
AcDbBlockTableRecord
  2
*D23
340
0
 70
     0
280
     1
281
     0
  0
BLOCK_RECORD
  5
4255
330
1
100
AcDbSymbolTableRecord
100
AcDbBlockTableRecord
  2
*D24
340
0
 70
     0
280
     1
281
     0
  0
BLOCK_RECORD
  5
426D
330
1
100
AcDbSymbolTableRecord
100
AcDbBlockTableRecord
  2
*D25
340
0
 70
     0
280
     1
281
     0
  0
BLOCK_RECORD
  5
42EE
330
1
100
AcDbSymbolTableRecord
100
AcDbBlockTableRecord
  2
*D26
340
0
 70
     0
280
     1
281
     0
  0
BLOCK_RECORD
  5
4306
330
1
100
AcDbSymbolTableRecord
100
AcDbBlockTableRecord
  2
*D27
340
0
 70
     0
280
     1
281
     0
  0
BLOCK_RECORD
  5
431E
330
1
100
AcDbSymbolTableRecord
100
AcDbBlockTableRecord
  2
*D28
340
0
 70
     0
280
     1
281
     0
  0
BLOCK_RECORD
  5
437D
330
1
100
AcDbSymbolTableRecord
100
AcDbBlockTableRecord
  2
*D29
340
0
 70
     0
280
     1
281
     0
  0
BLOCK_RECORD
  5
440D
330
1
100
AcDbSymbolTableRecord
100
AcDbBlockTableRecord
  2
*D30
340
0
 70
     0
280
     1
281
     0
  0
BLOCK_RECORD
  5
4429
330
1
100
AcDbSymbolTableRecord
100
AcDbBlockTableRecord
  2
*D31
340
0
 70
     0
280
     1
281
     0
  0
BLOCK_RECORD
  5
44FF
330
1
100
AcDbSymbolTableRecord
100
AcDbBlockTableRecord
  2
*D32
340
0
 70
     0
280
     1
281
     0
  0
BLOCK_RECORD
  5
4525
330
1
100
AcDbSymbolTableRecord
100
AcDbBlockTableRecord
  2
*D33
340
0
 70
     0
280
     1
281
     0
  0
BLOCK_RECORD
  5
454F
330
1
100
AcDbSymbolTableRecord
100
AcDbBlockTableRecord
  2
*D34
340
0
 70
     0
280
     1
281
     0
  0
BLOCK_RECORD
  5
45FA
330
1
100
AcDbSymbolTableRecord
100
AcDbBlockTableRecord
  2
*D35
340
0
 70
     0
280
     1
281
     0
  0
BLOCK_RECORD
  5
4612
330
1
100
AcDbSymbolTableRecord
100
AcDbBlockTableRecord
  2
*D36
340
0
 70
     0
280
     1
281
     0
  0
BLOCK_RECORD
  5
462A
330
1
100
AcDbSymbolTableRecord
100
AcDbBlockTableRecord
  2
*D37
340
0
 70
     0
280
     1
281
     0
  0
BLOCK_RECORD
  5
4642
330
1
100
AcDbSymbolTableRecord
100
AcDbBlockTableRecord
  2
*D38
340
0
 70
     0
280
     1
281
     0
  0
BLOCK_RECORD
  5
465A
330
1
100
AcDbSymbolTableRecord
100
AcDbBlockTableRecord
  2
*D39
340
0
 70
     0
280
     1
281
     0
  0
BLOCK_RECORD
  5
469A
330
1
100
AcDbSymbolTableRecord
100
AcDbBlockTableRecord
  2
*D40
340
0
 70
     0
280
     1
281
     0
  0
BLOCK_RECORD
  5
46C0
330
1
100
AcDbSymbolTableRecord
100
AcDbBlockTableRecord
  2
*D41
340
0
 70
     0
280
     1
281
     0
  0
BLOCK_RECORD
  5
46D2
330
1
100
AcDbSymbolTableRecord
100
AcDbBlockTableRecord
  2
*D42
340
0
 70
     0
280
     1
281
     0
  0
BLOCK_RECORD
  5
46E4
330
1
100
AcDbSymbolTableRecord
100
AcDbBlockTableRecord
  2
*D43
340
0
 70
     0
280
     1
281
     0
  0
BLOCK_RECORD
  5
4708
330
1
100
AcDbSymbolTableRecord
100
AcDbBlockTableRecord
  2
*D44
340
0
 70
     0
280
     1
281
     0
  0
BLOCK_RECORD
  5
4744
330
1
100
AcDbSymbolTableRecord
100
AcDbBlockTableRecord
  2
*D45
340
0
 70
     0
280
     1
281
     0
  0
BLOCK_RECORD
  5
4760
330
1
100
AcDbSymbolTableRecord
100
AcDbBlockTableRecord
  2
*D46
340
0
 70
     0
280
     1
281
     0
  0
ENDTAB
  0
ENDSEC
  0
SECTION
  2
BLOCKS
  0
BLOCK
  5
20
330
1F
100
AcDbEntity
  8
0
100
AcDbBlockBegin
  2
*Model_Space
 70
     0
 10
0.0
 20
0.0
 30
0.0
  3
*Model_Space
  1
*Model_Space
  0
ENDBLK
  5
21
330
1F
100
AcDbEntity
  8
0
100
AcDbBlockEnd
  0
BLOCK
  5
1C
330
1B
100
AcDbEntity
 67
     1
  8
0
100
AcDbBlockBegin
  2
*Paper_Space
 70
     0
 10
0.0
 20
0.0
 30
0.0
  3
*Paper_Space
  1
*Paper_Space
  0
ENDBLK
  5
1D
330
1B
100
AcDbEntity
 67
     1
  8
0
100
AcDbBlockEnd
  0
BLOCK
  5
2D
330
2B
100
AcDbEntity
  8
外形１
 62
     7
100
AcDbBlockBegin
  2
AI9-BLK1
 70
     0
 10
0.0
 20
0.0
 30
0.0
  3
AI9-BLK1
  1
AI9-BLK1
  0
HATCH
  5
2C
330
2B
100
AcDbEntity
  8
外形１
 62
     7
100
AcDbHatch
 10
0.0
 20
0.0
 30
0.0
210
0.0
220
0.0
230
1.0
  2
SOLID
 70
     1
 71
     0
 91
        1
 92
        1
 93
        1
 72
     4
 94
        3
 73
     0
 74
     0
 95
       17
 96
       13
 40
0.0
 40
0.0
 40
0.0
 40
0.0
 40
1.0
 40
1.0
 40
1.0
 40
2.0
 40
2.0
 40
2.0
 40
3.0
 40
3.0
 40
3.0
 40
4.0
 40
4.0
 40
4.0
 40
4.0
 10
-0.4265028211805557
 20
-0.2425347222222222
 10
-0.4265028211805557
 20
-0.2425347222222222
 10
-0.4265028211805557
 20
0.2425347222222222
 10
-0.4265028211805557
 20
0.2425347222222222
 10
-0.4265028211805557
 20
0.2425347222222222
 10
0.4265028211805557
 20
0.2425347222222222
 10
0.4265028211805557
 20
0.2425347222222222
 10
0.4265028211805557
 20
0.2425347222222222
 10
0.4265028211805557
 20
-0.2425347222222222
 10
0.4265028211805557
 20
-0.2425347222222222
 10
0.4265028211805557
 20
-0.2425347222222222
 10
-0.4265028211805557
 20
-0.2425347222222222
 10
-0.4265028211805557
 20
-0.2425347222222222
 97
        0
 97
        0
 75
     0
 76
     1
 98
        1
 10
0.0
 20
0.0
450
        0
451
        0
460
0.0
461
0.0
452
        0
462
0.0
453
        0
470

  0
ENDBLK
  5
2E
330
2B
100
AcDbEntity
  8
外形１
100
AcDbBlockEnd
  0
BLOCK
  5
32
330
2F
100
AcDbEntity
  8
外形１
 62
     7
100
AcDbBlockBegin
  2
AI9-BLK2
 70
     0
 10
0.0
 20
0.0
 30
0.0
  3
AI9-BLK2
  1
AI9-BLK2
  0
INSERT
  5
30
330
2F
100
AcDbEntity
  8
外形１
 62
     7
100
AcDbBlockReference
  2
AI9-BLK3
 10
0.0
 20
0.0
 30
0.0
  0
HATCH
  5
31
330
2F
100
AcDbEntity
  8
外形１
 62
     7
100
AcDbHatch
 10
0.0
 20
0.0
 30
0.0
210
0.0
220
0.0
230
1.0
  2
SOLID
 70
     1
 71
     0
 91
        1
 92
        1
 93
        1
 72
     4
 94
        3
 73
     0
 74
     0
 95
       32
 96
       28
 40
0.0
 40
0.0
 40
0.0
 40
0.0
 40
1.0
 40
1.0
 40
1.0
 40
2.0
 40
2.0
 40
2.0
 40
3.0
 40
3.0
 40
3.0
 40
4.0
 40
4.0
 40
4.0
 40
5.0
 40
5.0
 40
5.0
 40
6.0
 40
6.0
 40
6.0
 40
7.0
 40
7.0
 40
7.0
 40
8.0
 40
8.0
 40
8.0
 40
9.0
 40
9.0
 40
9.0
 40
9.0
 10
5.68897230360243
 20
2.320444064670137
 10
5.684838189019097
 20
2.327678765190971
 10
5.677258978949653
 20
2.331468370225693
 10
5.669679768880207
 20
2.331468370225693
 10
5.669679768880207
 20
2.331468370225693
 10
4.733302815755208
 20
2.331468370225693
 10
4.733302815755208
 20
2.331468370225693
 10
4.72503458658854
 20
2.331468370225693
 10
4.717455376519096
 20
2.327678765190971
 10
4.713321261935762
 20
2.320444064670137
 10
4.708498128255206
 20
2.313553873697915
 10
4.708498128255206
 20
2.305285644531249
 10
4.711943223741318
 20
2.297361924913194
 10
4.806338840060762
 20
2.086866590711804
 10
5.058519829644096
 20
1.55838894314236
 10
5.177031114366318
 20
1.323433430989582
 10
5.180476209852429
 20
1.315165201822916
 10
5.189433458116318
 20
1.309653049045137
 10
5.197701687282985
 20
1.309653049045137
 10
5.206658935546873
 20
1.309653049045137
 10
5.21492716471354
 20
1.315165201822916
 10
5.219061279296873
 20
1.323433430989582
 10
5.337572564019096
 20
1.55563286675347
 10
5.59319864908854
 20
2.084110514322916
 10
5.690350341796873
 20
2.297706434461805
 10
5.693795437282985
 20
2.305630154079859
 10
5.693106418185761
 20
2.313553873697915
 10
5.68897230360243
 20
2.320444064670137
 97
        0
 97
        0
 75
     0
 76
     1
 98
        1
 10
0.0
 20
0.0
450
        0
451
        0
460
0.0
461
0.0
452
        0
462
0.0
453
        0
470

  0
ENDBLK
  5
33
330
2F
100
AcDbEntity
  8
外形１
100
AcDbBlockEnd
  0
BLOCK
  5
3C
330
34
100
AcDbEntity
  8
外形１
 62
     7
100
AcDbBlockBegin
  2
AI9-BLK3
 70
     0
 10
0.0
 20
0.0
 30
0.0
  3
AI9-BLK3
  1
AI9-BLK3
  0
HATCH
  5
35
330
34
100
AcDbEntity
  8
外形１
 62
     7
100
AcDbHatch
 10
0.0
 20
0.0
 30
0.0
210
0.0
220
0.0
230
1.0
  2
SOLID
 70
     1
 71
     0
 91
        1
 92
        1
 93
        1
 72
     4
 94
        3
 73
     0
 74
     0
 95
       47
 96
       43
 40
0.0
 40
0.0
 40
0.0
 40
0.0
 40
1.0
 40
1.0
 40
1.0
 40
2.0
 40
2.0
 40
2.0
 40
3.0
 40
3.0
 40
3.0
 40
4.0
 40
4.0
 40
4.0
 40
5.0
 40
5.0
 40
5.0
 40
6.0
 40
6.0
 40
6.0
 40
7.0
 40
7.0
 40
7.0
 40
8.0
 40
8.0
 40
8.0
 40
9.0
 40
9.0
 40
9.0
 40
10.0
 40
10.0
 40
10.0
 40
11.0
 40
11.0
 40
11.0
 40
12.0
 40
12.0
 40
12.0
 40
13.0
 40
13.0
 40
13.0
 40
14.0
 40
14.0
 40
14.0
 40
14.0
 10
-6.96675821940104
 20
-1.544264051649304
 10
-6.96675821940104
 20
-1.544264051649304
 10
-7.655432807074652
 20
-1.544264051649304
 10
-7.655432807074652
 20
-1.544264051649304
 10
-7.877985975477429
 20
-1.544264051649304
 10
-8.029225667317707
 20
-1.504989963107638
 10
-8.143602837456597
 20
-1.305174424913194
 10
-8.226974148220485
 20
-1.162547471788194
 10
-8.232830810546875
 20
-0.9413723415798608
 10
-8.232830810546875
 20
-0.5941067165798609
 10
-8.232830810546875
 20
-0.5941067165798609
 10
-8.232830810546875
 20
1.80643581814236
 10
-8.232830810546875
 20
1.80643581814236
 10
-8.232830810546875
 20
1.838130696614583
 10
-8.258324517144096
 20
1.863624403211805
 10
-8.289674886067709
 20
1.863624403211805
 10
-8.289674886067709
 20
1.863624403211805
 10
-8.873618570963538
 20
1.863624403211805
 10
-8.873618570963538
 20
1.863624403211805
 10
-8.905313449435762
 20
1.863624403211805
 10
-8.930807156032983
 20
1.838130696614583
 10
-8.930807156032983
 20
1.80643581814236
 10
-8.930807156032983
 20
1.80643581814236
 10
-8.930807156032983
 20
-0.6223564995659722
 10
-8.930807156032983
 20
-0.6223564995659722
 10
-8.930807156032983
 20
-1.177705891927083
 10
-8.889466010199649
 20
-1.542196994357638
 10
-8.670357937282984
 20
-1.882572428385415
 10
-8.401295979817707
 20
-2.30218505859375
 10
-8.100539143880208
 20
-2.334568956163193
 10
-7.705731201171873
 20
-2.334568956163193
 10
-7.705731201171873
 20
-2.334568956163193
 10
-6.96675821940104
 20
-2.334568956163193
 10
-6.96675821940104
 20
-2.334568956163193
 10
-6.935407850477429
 20
-2.334568956163193
 10
-6.909914143880207
 20
-2.30907524956597
 10
-6.909914143880207
 20
-2.27806939019097
 10
-6.909914143880207
 20
-2.27806939019097
 10
-6.909914143880207
 20
-1.601108127170137
 10
-6.909914143880207
 20
-1.601108127170137
 10
-6.909914143880207
 20
-1.569757758246526
 10
-6.935407850477429
 20
-1.544264051649304
 10
-6.96675821940104
 20
-1.544264051649304
 97
        0
 97
        0
 75
     0
 76
     1
 98
        1
 10
0.0
 20
0.0
450
        0
451
        0
460
0.0
461
0.0
452
        0
462
0.0
453
        0
470

  0
HATCH
  5
36
330
34
100
AcDbEntity
  8
外形１
 62
     7
100
AcDbHatch
 10
0.0
 20
0.0
 30
0.0
210
0.0
220
0.0
230
1.0
  2
SOLID
 70
     1
 71
     0
 91
        1
 92
        1
 93
        1
 72
     4
 94
        3
 73
     0
 74
     0
 95
       29
 96
       25
 40
0.0
 40
0.0
 40
0.0
 40
0.0
 40
1.0
 40
1.0
 40
1.0
 40
2.0
 40
2.0
 40
2.0
 40
3.0
 40
3.0
 40
3.0
 40
4.0
 40
4.0
 40
4.0
 40
5.0
 40
5.0
 40
5.0
 40
6.0
 40
6.0
 40
6.0
 40
7.0
 40
7.0
 40
7.0
 40
8.0
 40
8.0
 40
8.0
 40
8.0
 10
-5.704130723741317
 20
1.863624403211805
 10
-5.704130723741317
 20
1.863624403211805
 10
-6.315979682074653
 20
1.863624403211805
 10
-6.315979682074653
 20
1.863624403211805
 10
-6.346985541449653
 20
1.863624403211805
 10
-6.372479248046873
 20
1.838130696614583
 10
-6.372479248046873
 20
1.80643581814236
 10
-6.372479248046873
 20
1.80643581814236
 10
-6.372479248046873
 20
-2.27806939019097
 10
-6.372479248046873
 20
-2.27806939019097
 10
-6.372479248046873
 20
-2.30907524956597
 10
-6.346985541449653
 20
-2.334568956163193
 10
-6.315979682074653
 20
-2.334568956163193
 10
-6.315979682074653
 20
-2.334568956163193
 10
-5.704130723741317
 20
-2.334568956163193
 10
-5.704130723741317
 20
-2.334568956163193
 10
-5.672780354817707
 20
-2.334568956163193
 10
-5.647631157769096
 20
-2.30907524956597
 10
-5.647631157769096
 20
-2.27806939019097
 10
-5.647631157769096
 20
-2.27806939019097
 10
-5.647631157769096
 20
1.80643581814236
 10
-5.647631157769096
 20
1.80643581814236
 10
-5.647631157769096
 20
1.838130696614583
 10
-5.672780354817707
 20
1.863624403211805
 10
-5.704130723741317
 20
1.863624403211805
 97
        0
 97
        0
 75
     0
 76
     1
 98
        1
 10
0.0
 20
0.0
450
        0
451
        0
460
0.0
461
0.0
452
        0
462
0.0
453
        0
470

  0
HATCH
  5
37
330
34
100
AcDbEntity
  8
外形１
 62
     7
100
AcDbHatch
 10
0.0
 20
0.0
 30
0.0
210
0.0
220
0.0
230
1.0
  2
SOLID
 70
     1
 71
     0
 91
        1
 92
        1
 93
        1
 72
     4
 94
        3
 73
     0
 74
     0
 95
       65
 96
       61
 40
0.0
 40
0.0
 40
0.0
 40
0.0
 40
1.0
 40
1.0
 40
1.0
 40
2.0
 40
2.0
 40
2.0
 40
3.0
 40
3.0
 40
3.0
 40
4.0
 40
4.0
 40
4.0
 40
5.0
 40
5.0
 40
5.0
 40
6.0
 40
6.0
 40
6.0
 40
7.0
 40
7.0
 40
7.0
 40
8.0
 40
8.0
 40
8.0
 40
9.0
 40
9.0
 40
9.0
 40
10.0
 40
10.0
 40
10.0
 40
11.0
 40
11.0
 40
11.0
 40
12.0
 40
12.0
 40
12.0
 40
13.0
 40
13.0
 40
13.0
 40
14.0
 40
14.0
 40
14.0
 40
15.0
 40
15.0
 40
15.0
 40
16.0
 40
16.0
 40
16.0
 40
17.0
 40
17.0
 40
17.0
 40
18.0
 40
18.0
 40
18.0
 40
19.0
 40
19.0
 40
19.0
 40
20.0
 40
20.0
 40
20.0
 40
20.0
 10
-2.609056939019095
 20
1.863624403211805
 10
-2.609056939019095
 20
1.863624403211805
 10
-3.205058458116318
 20
1.863624403211805
 10
-3.205058458116318
 20
1.863624403211805
 10
-3.220216878255206
 20
1.863624403211805
 10
-3.234686279296874
 20
1.858112250434026
 10
-3.245366075303818
 20
1.84674343532986
 10
-3.256045871310763
 20
1.836063639322915
 10
-3.261558024088541
 20
1.821594238281249
 10
-3.261558024088541
 20
1.80643581814236
 10
-3.261558024088541
 20
1.80643581814236
 10
-3.242265489366318
 20
-0.3181545681423611
 10
-3.237786865234373
 20
-0.81700439453125
 10
-3.420721435546874
 20
-0.3443372938368055
 10
-4.262013753255208
 20
1.827106391059026
 10
-4.262013753255208
 20
1.827106391059026
 10
-4.270281982421873
 20
1.849155002170137
 10
-4.291986083984374
 20
1.863624403211805
 10
-4.315068223741318
 20
1.863624403211805
 10
-4.315068223741318
 20
1.863624403211805
 10
-5.054385715060762
 20
1.863624403211805
 10
-5.054385715060762
 20
1.863624403211805
 10
-5.085391574435762
 20
1.863624403211805
 10
-5.110885281032985
 20
1.838130696614583
 10
-5.110885281032985
 20
1.80643581814236
 10
-5.110885281032985
 20
1.80643581814236
 10
-5.110885281032985
 20
-2.27806939019097
 10
-5.110885281032985
 20
-2.27806939019097
 10
-5.110885281032985
 20
-2.30907524956597
 10
-5.085391574435762
 20
-2.334568956163193
 10
-5.054385715060762
 20
-2.334568956163193
 10
-5.054385715060762
 20
-2.334568956163193
 10
-4.454250081380208
 20
-2.334568956163193
 10
-4.454250081380208
 20
-2.334568956163193
 10
-4.439091661241318
 20
-2.334568956163193
 10
-4.424622260199652
 20
-2.328367784288194
 10
-4.414286973741318
 20
-2.318032497829859
 10
-4.403262668185762
 20
-2.307697211371526
 10
-4.397750515407985
 20
-2.29322781032986
 10
-4.397750515407985
 20
-2.27806939019097
 10
-4.397750515407985
 20
-2.27806939019097
 10
-4.41738755967882
 20
-0.0049953884548611
 10
-4.421866183810762
 20
0.4993665907118057
 10
-4.236520046657984
 20
0.0211873372395833
 10
-3.339072672526041
 20
-2.298739963107637
 10
-3.339072672526041
 20
-2.298739963107637
 10
-3.330459933810764
 20
-2.320788574218749
 10
-3.309444851345484
 20
-2.334568956163193
 10
-3.28636271158854
 20
-2.334568956163193
 10
-3.28636271158854
 20
-2.334568956163193
 10
-2.609056939019095
 20
-2.334568956163193
 10
-2.609056939019095
 20
-2.334568956163193
 10
-2.578051079644095
 20
-2.334568956163193
 10
-2.552557373046874
 20
-2.30907524956597
 10
-2.552557373046874
 20
-2.27806939019097
 10
-2.552557373046874
 20
-2.27806939019097
 10
-2.552557373046874
 20
1.80643581814236
 10
-2.552557373046874
 20
1.80643581814236
 10
-2.552557373046874
 20
1.838130696614583
 10
-2.578051079644095
 20
1.863624403211805
 10
-2.609056939019095
 20
1.863624403211805
 97
        0
 97
        0
 75
     0
 76
     1
 98
        1
 10
0.0
 20
0.0
450
        0
451
        0
460
0.0
461
0.0
452
        0
462
0.0
453
        0
470

  0
HATCH
  5
38
330
34
100
AcDbEntity
  8
外形１
 62
     7
100
AcDbHatch
 10
0.0
 20
0.0
 30
0.0
210
0.0
220
0.0
230
1.0
  2
SOLID
 70
     1
 71
     0
 91
        1
 92
        1
 93
        1
 72
     4
 94
        3
 73
     0
 74
     0
 95
       65
 96
       61
 40
0.0
 40
0.0
 40
0.0
 40
0.0
 40
1.0
 40
1.0
 40
1.0
 40
2.0
 40
2.0
 40
2.0
 40
3.0
 40
3.0
 40
3.0
 40
4.0
 40
4.0
 40
4.0
 40
5.0
 40
5.0
 40
5.0
 40
6.0
 40
6.0
 40
6.0
 40
7.0
 40
7.0
 40
7.0
 40
8.0
 40
8.0
 40
8.0
 40
9.0
 40
9.0
 40
9.0
 40
10.0
 40
10.0
 40
10.0
 40
11.0
 40
11.0
 40
11.0
 40
12.0
 40
12.0
 40
12.0
 40
13.0
 40
13.0
 40
13.0
 40
14.0
 40
14.0
 40
14.0
 40
15.0
 40
15.0
 40
15.0
 40
16.0
 40
16.0
 40
16.0
 40
17.0
 40
17.0
 40
17.0
 40
18.0
 40
18.0
 40
18.0
 40
19.0
 40
19.0
 40
19.0
 40
20.0
 40
20.0
 40
20.0
 40
20.0
 10
0.1876715766059028
 20
1.863624403211805
 10
0.1876715766059028
 20
1.863624403211805
 10
-0.7831563313802084
 20
1.863624403211805
 10
-0.7831563313802084
 20
1.863624403211805
 10
-1.714021131727429
 20
1.863624403211805
 10
-2.147758653428819
 20
1.173227267795137
 10
-2.147758653428819
 20
-0.3088528103298611
 10
-2.147758653428819
 20
-1.07159695095486
 10
-2.004098171657985
 20
-1.609720865885416
 10
-1.708853488498263
 20
-1.956297471788194
 10
-1.410852728949651
 20
-2.306319173177083
 10
-1.120775689019096
 20
-2.334568956163193
 10
-0.7986592610677084
 20
-2.334568956163193
 10
-0.7986592610677084
 20
-2.334568956163193
 10
0.1876715766059028
 20
-2.334568956163193
 10
0.1876715766059028
 20
-2.334568956163193
 10
0.2186774359809028
 20
-2.334568956163193
 10
0.2448601616753472
 20
-2.30907524956597
 10
0.2448601616753472
 20
-2.27806939019097
 10
0.2448601616753472
 20
-2.27806939019097
 10
0.2448601616753472
 20
-1.567001681857638
 10
0.2448601616753472
 20
-1.567001681857638
 10
0.2448601616753472
 20
-1.535306803385416
 10
0.2186774359809028
 20
-1.509813096788194
 10
0.1876715766059028
 20
-1.509813096788194
 10
0.1876715766059028
 20
-1.509813096788194
 10
-0.7721320258246527
 20
-1.509813096788194
 10
-0.7721320258246527
 20
-1.509813096788194
 10
-1.132489013671873
 20
-1.509813096788194
 10
-1.357798258463541
 20
-1.355472819010415
 10
-1.373645697699652
 20
-0.6223564995659722
 10
-1.263402642144096
 20
-0.6223564995659722
 10
0.1876715766059028
 20
-0.6223564995659722
 10
0.1876715766059028
 20
-0.6223564995659722
 10
0.2186774359809028
 20
-0.6223564995659722
 10
0.2448601616753472
 20
-0.59686279296875
 10
0.2448601616753472
 20
-0.5655124240451388
 10
0.2448601616753472
 20
-0.5655124240451388
 10
0.2448601616753472
 20
0.1452107747395833
 10
0.2448601616753472
 20
0.1452107747395833
 10
0.2448601616753472
 20
0.1769056532118055
 10
0.2186774359809028
 20
0.2023993598090278
 10
0.1876715766059028
 20
0.2023993598090278
 10
0.1876715766059028
 20
0.2023993598090278
 10
-1.252378336588541
 20
0.2023993598090278
 10
-1.367444525824651
 20
0.2023993598090278
 10
-1.323347303602429
 20
0.9455064561631944
 10
-1.009154595269097
 20
1.038868543836805
 10
-0.7721320258246527
 20
1.038868543836805
 10
-0.7721320258246527
 20
1.038868543836805
 10
0.1876715766059028
 20
1.038868543836805
 10
0.1876715766059028
 20
1.038868543836805
 10
0.2186774359809028
 20
1.038868543836805
 10
0.2448601616753472
 20
1.064362250434027
 10
0.2448601616753472
 20
1.096057128906249
 10
0.2448601616753472
 20
1.096057128906249
 10
0.2448601616753472
 20
1.80643581814236
 10
0.2448601616753472
 20
1.80643581814236
 10
0.2448601616753472
 20
1.838130696614583
 10
0.2186774359809028
 20
1.863624403211805
 10
0.1876715766059028
 20
1.863624403211805
 97
        0
 97
        0
 75
     0
 76
     1
 98
        1
 10
0.0
 20
0.0
450
        0
451
        0
460
0.0
461
0.0
452
        0
462
0.0
453
        0
470

  0
HATCH
  5
39
330
34
100
AcDbEntity
  8
外形１
 62
     7
100
AcDbHatch
 10
0.0
 20
0.0
 30
0.0
210
0.0
220
0.0
230
1.0
  2
SOLID
 70
     1
 71
     0
 91
        1
 92
        1
 93
        1
 72
     4
 94
        3
 73
     0
 74
     0
 95
       65
 96
       61
 40
0.0
 40
0.0
 40
0.0
 40
0.0
 40
1.0
 40
1.0
 40
1.0
 40
2.0
 40
2.0
 40
2.0
 40
3.0
 40
3.0
 40
3.0
 40
4.0
 40
4.0
 40
4.0
 40
5.0
 40
5.0
 40
5.0
 40
6.0
 40
6.0
 40
6.0
 40
7.0
 40
7.0
 40
7.0
 40
8.0
 40
8.0
 40
8.0
 40
9.0
 40
9.0
 40
9.0
 40
10.0
 40
10.0
 40
10.0
 40
11.0
 40
11.0
 40
11.0
 40
12.0
 40
12.0
 40
12.0
 40
13.0
 40
13.0
 40
13.0
 40
14.0
 40
14.0
 40
14.0
 40
15.0
 40
15.0
 40
15.0
 40
16.0
 40
16.0
 40
16.0
 40
17.0
 40
17.0
 40
17.0
 40
18.0
 40
18.0
 40
18.0
 40
19.0
 40
19.0
 40
19.0
 40
20.0
 40
20.0
 40
20.0
 40
20.0
 10
3.387820773654513
 20
1.863624403211805
 10
3.387820773654513
 20
1.863624403211805
 10
2.417337375217012
 20
1.863624403211805
 10
2.417337375217012
 20
1.863624403211805
 10
1.486128065321179
 20
1.863624403211805
 10
1.05239054361979
 20
1.173227267795137
 10
1.05239054361979
 20
-0.3088528103298611
 10
1.05239054361979
 20
-1.07159695095486
 10
1.195706515842012
 20
-1.609720865885416
 10
1.491640218098958
 20
-1.956297471788194
 10
1.788951958550346
 20
-2.306319173177083
 10
2.079373508029513
 20
-2.334568956163193
 10
2.401489935980901
 20
-2.334568956163193
 10
2.401489935980901
 20
-2.334568956163193
 10
3.387820773654513
 20
-2.334568956163193
 10
3.387820773654513
 20
-2.334568956163193
 10
3.419171142578123
 20
-2.334568956163193
 10
3.444320339626735
 20
-2.30907524956597
 10
3.444320339626735
 20
-2.27806939019097
 10
3.444320339626735
 20
-2.27806939019097
 10
3.444320339626735
 20
-1.567001681857638
 10
3.444320339626735
 20
-1.567001681857638
 10
3.444320339626735
 20
-1.535306803385416
 10
3.419171142578123
 20
-1.509813096788194
 10
3.387820773654513
 20
-1.509813096788194
 10
3.387820773654513
 20
-1.509813096788194
 10
2.428361680772568
 20
-1.509813096788194
 10
2.428361680772568
 20
-1.509813096788194
 10
2.068004692925346
 20
-1.509813096788194
 10
1.84269544813368
 20
-1.355472819010415
 10
1.826848008897569
 20
-0.6223564995659722
 10
1.936402045355901
 20
-0.6223564995659722
 10
3.387820773654513
 20
-0.6223564995659722
 10
3.387820773654513
 20
-0.6223564995659722
 10
3.419171142578123
 20
-0.6223564995659722
 10
3.444320339626735
 20
-0.59686279296875
 10
3.444320339626735
 20
-0.5655124240451388
 10
3.444320339626735
 20
-0.5655124240451388
 10
3.444320339626735
 20
0.1452107747395833
 10
3.444320339626735
 20
0.1452107747395833
 10
3.444320339626735
 20
0.1769056532118055
 10
3.419171142578123
 20
0.2023993598090278
 10
3.387820773654513
 20
0.2023993598090278
 10
3.387820773654513
 20
0.2023993598090278
 10
1.947081841362845
 20
0.2023993598090278
 10
1.833049180772569
 20
0.2023993598090278
 10
1.877146402994791
 20
0.9455064561631944
 10
2.191339111328124
 20
1.038868543836805
 10
2.428361680772568
 20
1.038868543836805
 10
2.428361680772568
 20
1.038868543836805
 10
3.387820773654513
 20
1.038868543836805
 10
3.387820773654513
 20
1.038868543836805
 10
3.419171142578123
 20
1.038868543836805
 10
3.444320339626735
 20
1.064362250434027
 10
3.444320339626735
 20
1.096057128906249
 10
3.444320339626735
 20
1.096057128906249
 10
3.444320339626735
 20
1.80643581814236
 10
3.444320339626735
 20
1.80643581814236
 10
3.444320339626735
 20
1.838130696614583
 10
3.419171142578123
 20
1.863624403211805
 10
3.387820773654513
 20
1.863624403211805
 97
        0
 97
        0
 75
     0
 76
     1
 98
        1
 10
0.0
 20
0.0
450
        0
451
        0
460
0.0
461
0.0
452
        0
462
0.0
453
        0
470

  0
INSERT
  5
3A
330
34
100
AcDbEntity
  8
外形１
 62
     7
100
AcDbBlockReference
  2
AI9-BLK4
 10
5.210707
 20
0.0
 30
0.0
  0
HATCH
  5
3B
330
34
100
AcDbEntity
  8
外形１
 62
     7
100
AcDbHatch
 10
0.0
 20
0.0
 30
0.0
210
0.0
220
0.0
230
1.0
  2
SOLID
 70
     1
 71
     0
 91
        1
 92
        1
 93
        1
 72
     4
 94
        3
 73
     0
 74
     0
 95
       65
 96
       61
 40
0.0
 40
0.0
 40
0.0
 40
0.0
 40
1.0
 40
1.0
 40
1.0
 40
2.0
 40
2.0
 40
2.0
 40
3.0
 40
3.0
 40
3.0
 40
4.0
 40
4.0
 40
4.0
 40
5.0
 40
5.0
 40
5.0
 40
6.0
 40
6.0
 40
6.0
 40
7.0
 40
7.0
 40
7.0
 40
8.0
 40
8.0
 40
8.0
 40
9.0
 40
9.0
 40
9.0
 40
10.0
 40
10.0
 40
10.0
 40
11.0
 40
11.0
 40
11.0
 40
12.0
 40
12.0
 40
12.0
 40
13.0
 40
13.0
 40
13.0
 40
14.0
 40
14.0
 40
14.0
 40
15.0
 40
15.0
 40
15.0
 40
16.0
 40
16.0
 40
16.0
 40
17.0
 40
17.0
 40
17.0
 40
18.0
 40
18.0
 40
18.0
 40
19.0
 40
19.0
 40
19.0
 40
20.0
 40
20.0
 40
20.0
 40
20.0
 10
7.915193006727426
 20
1.038868543836805
 10
7.915193006727426
 20
1.038868543836805
 10
8.874307590060762
 20
1.038868543836805
 10
8.874307590060762
 20
1.038868543836805
 10
8.906002468532987
 20
1.038868543836805
 10
8.930807156032983
 20
1.064362250434027
 10
8.930807156032983
 20
1.096057128906249
 10
8.930807156032983
 20
1.096057128906249
 10
8.930807156032983
 20
1.80643581814236
 10
8.930807156032983
 20
1.80643581814236
 10
8.930807156032983
 20
1.838130696614583
 10
8.906002468532987
 20
1.863624403211805
 10
8.874307590060762
 20
1.863624403211805
 10
8.874307590060762
 20
1.863624403211805
 10
7.903479682074652
 20
1.863624403211805
 10
7.903479682074652
 20
1.863624403211805
 10
6.972614881727428
 20
1.863624403211805
 10
6.539221869574651
 20
1.173227267795137
 10
6.539221869574651
 20
-0.3088528103298611
 10
6.539221869574651
 20
-1.07159695095486
 10
6.682537841796873
 20
-1.609720865885416
 10
6.978127034505207
 20
-1.956297471788194
 10
7.275094265407985
 20
-2.306319173177083
 10
7.565860324435762
 20
-2.334568956163193
 10
7.888321261935762
 20
-2.334568956163193
 10
7.888321261935762
 20
-2.334568956163193
 10
8.874307590060762
 20
-2.334568956163193
 10
8.874307590060762
 20
-2.334568956163193
 10
8.906002468532987
 20
-2.334568956163193
 10
8.930807156032983
 20
-2.30907524956597
 10
8.930807156032983
 20
-2.27806939019097
 10
8.930807156032983
 20
-2.27806939019097
 10
8.930807156032983
 20
-1.567001681857638
 10
8.930807156032983
 20
-1.567001681857638
 10
8.930807156032983
 20
-1.535306803385416
 10
8.906002468532987
 20
-1.509813096788194
 10
8.874307590060762
 20
-1.509813096788194
 10
8.874307590060762
 20
-1.509813096788194
 10
7.915193006727426
 20
-1.509813096788194
 10
7.915193006727426
 20
-1.509813096788194
 10
7.554836018880206
 20
-1.509813096788194
 10
7.328837754991316
 20
-1.355472819010415
 10
7.312990315755207
 20
-0.6223564995659722
 10
7.423233371310762
 20
-0.6223564995659722
 10
8.874307590060762
 20
-0.6223564995659722
 10
8.874307590060762
 20
-0.6223564995659722
 10
8.906002468532987
 20
-0.6223564995659722
 10
8.930807156032983
 20
-0.59686279296875
 10
8.930807156032983
 20
-0.5655124240451388
 10
8.930807156032983
 20
-0.5655124240451388
 10
8.930807156032983
 20
0.1452107747395833
 10
8.930807156032983
 20
0.1452107747395833
 10
8.930807156032983
 20
0.1769056532118055
 10
8.906002468532987
 20
0.2023993598090278
 10
8.874307590060762
 20
0.2023993598090278
 10
8.874307590060762
 20
0.2023993598090278
 10
7.434257676866316
 20
0.2023993598090278
 10
7.319191487630206
 20
0.2023993598090278
 10
7.36328870985243
 20
0.9455064561631944
 10
7.677481418185761
 20
1.038868543836805
 10
7.915193006727426
 20
1.038868543836805
 97
        0
 97
        0
 75
     0
 76
     1
 98
        1
 10
0.0
 20
0.0
450
        0
451
        0
460
0.0
461
0.0
452
        0
462
0.0
453
        0
470

  0
ENDBLK
  5
3D
330
34
100
AcDbEntity
  8
外形１
100
AcDbBlockEnd
  0
BLOCK
  5
40
330
3E
100
AcDbEntity
  8
外形１
 62
     7
100
AcDbBlockBegin
  2
AI9-BLK4
 70
     0
 10
0.0
 20
0.0
 30
0.0
  3
AI9-BLK4
  1
AI9-BLK4
  0
HATCH
  5
3F
330
3E
100
AcDbEntity
  8
外形１
 62
     7
100
AcDbHatch
 10
0.0
 20
0.0
 30
0.0
210
0.0
220
0.0
230
1.0
  2
SOLID
 70
     1
 71
     0
 91
        1
 92
        1
 93
        1
 72
     4
 94
        3
 73
     0
 74
     0
 95
       62
 96
       58
 40
0.0
 40
0.0
 40
0.0
 40
0.0
 40
1.0
 40
1.0
 40
1.0
 40
2.0
 40
2.0
 40
2.0
 40
3.0
 40
3.0
 40
3.0
 40
4.0
 40
4.0
 40
4.0
 40
5.0
 40
5.0
 40
5.0
 40
6.0
 40
6.0
 40
6.0
 40
7.0
 40
7.0
 40
7.0
 40
8.0
 40
8.0
 40
8.0
 40
9.0
 40
9.0
 40
9.0
 40
10.0
 40
10.0
 40
10.0
 40
11.0
 40
11.0
 40
11.0
 40
12.0
 40
12.0
 40
12.0
 40
13.0
 40
13.0
 40
13.0
 40
14.0
 40
14.0
 40
14.0
 40
15.0
 40
15.0
 40
15.0
 40
16.0
 40
16.0
 40
16.0
 40
17.0
 40
17.0
 40
17.0
 40
18.0
 40
18.0
 40
18.0
 40
19.0
 40
19.0
 40
19.0
 40
19.0
 10
1.626860215928819
 20
2.334568956163193
 10
1.626860215928819
 20
2.334568956163193
 10
0.9502434624565971
 20
2.334568956163193
 10
0.9502434624565971
 20
2.334568956163193
 10
0.9268168131510416
 20
2.334568956163193
 10
0.9075242784288192
 20
2.322166612413193
 10
0.8978780110677082
 20
2.301840549045138
 10
0.8978780110677082
 20
2.301840549045138
 10
0.075189208984375
 20
0.7260538736979166
 10
-0.0150722927517361
 20
0.5338175455729166
 10
-0.1032667371961805
 20
0.7260538736979166
 10
-0.9163092719184028
 20
2.301840549045138
 10
-0.9163092719184028
 20
2.301840549045138
 10
-0.9259555392795135
 20
2.321477593315971
 10
-0.9459370930989582
 20
2.334568956163193
 10
-0.9693637424045141
 20
2.334568956163193
 10
-0.9693637424045141
 20
2.334568956163193
 10
-1.626171196831596
 20
2.334568956163193
 10
-1.626171196831596
 20
2.334568956163193
 10
-1.64615275065104
 20
2.334568956163193
 10
-1.664067247178819
 20
2.32457817925347
 10
-1.674402533637151
 20
2.30873074001736
 10
-1.680603705512151
 20
2.300462510850693
 10
-1.683359781901041
 20
2.290127224392359
 10
-1.683359781901041
 20
2.279791937934028
 10
-1.683359781901041
 20
2.27186821831597
 10
-1.681981743706596
 20
2.264289008246528
 10
-1.678192138671874
 20
2.257054307725693
 10
-1.678192138671874
 20
2.257054307725693
 10
-0.365093994140625
 20
-0.2840481228298611
 10
-0.3540696885850694
 20
-0.3057522243923611
 10
-0.3540696885850694
 20
-0.3295233832465278
 10
-0.3540696885850694
 20
-2.280136447482638
 10
-0.3540696885850694
 20
-2.280136447482638
 10
-0.3540696885850694
 20
-2.310453287760415
 10
-0.3292650010850694
 20
-2.334568956163193
 10
-0.2975701226128472
 20
-2.334568956163193
 10
-0.2975701226128472
 20
-2.334568956163193
 10
0.286029052734375
 20
-2.334568956163193
 10
0.286029052734375
 20
-2.334568956163193
 10
0.3177239312065972
 20
-2.334568956163193
 10
0.3432176378038194
 20
-2.310453287760415
 10
0.3432176378038194
 20
-2.280136447482638
 10
0.3432176378038194
 20
-2.280136447482638
 10
0.3432176378038194
 20
-0.33021240234375
 10
0.3432176378038194
 20
-0.3057522243923611
 10
0.354241943359375
 20
-0.2840481228298611
 10
1.678536648220485
 20
2.256709798177082
 10
1.678536648220485
 20
2.256709798177082
 10
1.681981743706596
 20
2.264289008246528
 10
1.683359781901041
 20
2.27186821831597
 10
1.683359781901041
 20
2.279791937934028
 10
1.683359781901041
 20
2.290127224392359
 10
1.680603705512151
 20
2.300462510850693
 10
1.675091552734374
 20
2.30873074001736
 10
1.664067247178819
 20
2.32457817925347
 10
1.64615275065104
 20
2.334568956163193
 10
1.626860215928819
 20
2.334568956163193
 97
        0
 97
        0
 75
     0
 76
     1
 98
        1
 10
0.0
 20
0.0
450
        0
451
        0
460
0.0
461
0.0
452
        0
462
0.0
453
        0
470

  0
ENDBLK
  5
41
330
3E
100
AcDbEntity
  8
外形１
100
AcDbBlockEnd
  0
BLOCK
  5
44
330
42
100
AcDbEntity
  8
外形１
 62
     7
100
AcDbBlockBegin
  2
AI9-BLK5
 70
     0
 10
0.0
 20
0.0
 30
0.0
  3
AI9-BLK5
  1
AI9-BLK5
  0
HATCH
  5
43
330
42
100
AcDbEntity
  8
外形１
 62
     7
100
AcDbHatch
 10
0.0
 20
0.0
 30
0.0
210
0.0
220
0.0
230
1.0
  2
SOLID
 70
     1
 71
     0
 91
        1
 92
        1
 93
        1
 72
     4
 94
        3
 73
     0
 74
     0
 95
       17
 96
       13
 40
0.0
 40
0.0
 40
0.0
 40
0.0
 40
1.0
 40
1.0
 40
1.0
 40
2.0
 40
2.0
 40
2.0
 40
3.0
 40
3.0
 40
3.0
 40
4.0
 40
4.0
 40
4.0
 40
4.0
 10
-0.49144287109375
 20
-1.306380208333332
 10
-0.49144287109375
 20
-1.306380208333332
 10
0.2416734483506944
 20
1.306380208333332
 10
0.2416734483506944
 20
1.306380208333332
 10
0.2416734483506944
 20
1.306380208333332
 10
0.49144287109375
 20
1.306380208333332
 10
0.49144287109375
 20
1.306380208333332
 10
0.49144287109375
 20
1.306380208333332
 10
-0.2416734483506944
 20
-1.306380208333332
 10
-0.2416734483506944
 20
-1.306380208333332
 10
-0.2416734483506944
 20
-1.306380208333332
 10
-0.49144287109375
 20
-1.306380208333332
 10
-0.49144287109375
 20
-1.306380208333332
 97
        0
 97
        0
 75
     0
 76
     1
 98
        1
 10
0.0
 20
0.0
450
        0
451
        0
460
0.0
461
0.0
452
        0
462
0.0
453
        0
470

  0
ENDBLK
  5
45
330
42
100
AcDbEntity
  8
外形１
100
AcDbBlockEnd
  0
BLOCK
  5
26D9
330
26CF
100
AcDbEntity
  8
0
100
AcDbBlockBegin
  2
*D5
 70
     1
 10
0.0
 20
0.0
 30
0.0
  3
*D5
  1
*D5
  0
LINE
  5
26D0
330
26CF
100
AcDbEntity
  8
0
 62
     0
370
    -2
100
AcDbLine
 10
133.5799496199762
 20
194.8688128573029
 30
0.0
 11
133.5799496199762
 21
207.4015254713744
 31
0.0
  0
LINE
  5
26D1
330
26CF
100
AcDbEntity
  8
0
 62
     0
370
    -2
100
AcDbLine
 10
210.5799496199761
 20
194.8688128573029
 30
0.0
 11
210.5799496199761
 21
207.4015254713744
 31
0.0
  0
LINE
  5
26D2
330
26CF
100
AcDbEntity
  8
0
 62
     0
370
    -2
100
AcDbLine
 10
136.0799496199762
 20
206.1515254713745
 30
0.0
 11
208.0799496199762
 21
206.1515254713745
 31
0.0
  0
SOLID
  5
26D3
330
26CF
100
AcDbEntity
  8
0
 62
     0
100
AcDbTrace
 10
136.0799496199762
 20
206.5681921380411
 30
0.0
 11
136.0799496199762
 21
205.7348588047078
 31
0.0
 12
133.5799496199762
 22
206.1515254713745
 32
0.0
 13
133.5799496199762
 23
206.1515254713745
 33
0.0
  0
SOLID
  5
26D4
330
26CF
100
AcDbEntity
  8
0
 62
     0
100
AcDbTrace
 10
208.0799496199762
 20
206.5681921380411
 30
0.0
 11
208.0799496199762
 21
205.7348588047078
 31
0.0
 12
210.5799496199761
 22
206.1515254713745
 32
0.0
 13
210.5799496199761
 23
206.1515254713745
 33
0.0
  0
MTEXT
  5
26D5
330
26CF
100
AcDbEntity
  8
0
 62
     0
100
AcDbMText
 10
172.2136151148542
 20
208.0265254713745
 30
0.0
 40
2.5
 41
0.0
 46
0.0
 71
     5
 72
     1
  1
77
 73
     1
 44
1.0
  0
POINT
  5
26D6
330
26CF
100
AcDbEntity
  8
Defpoints
 62
     0
100
AcDbPoint
 10
133.5799496199762
 20
194.2438128573029
 30
0.0
  0
POINT
  5
26D7
330
26CF
100
AcDbEntity
  8
Defpoints
 62
     0
100
AcDbPoint
 10
210.5799496199761
 20
194.2438128573029
 30
0.0
  0
POINT
  5
26D8
330
26CF
100
AcDbEntity
  8
Defpoints
 62
     0
100
AcDbPoint
 10
210.5799496199761
 20
206.1515254713745
 30
0.0
  0
ENDBLK
  5
26DA
330
26CF
100
AcDbEntity
  8
0
100
AcDbBlockEnd
  0
BLOCK
  5
26E5
330
26DB
100
AcDbEntity
  8
0
100
AcDbBlockBegin
  2
*D6
 70
     1
 10
0.0
 20
0.0
 30
0.0
  3
*D6
  1
*D6
  0
LINE
  5
26DC
330
26DB
100
AcDbEntity
  8
0
 62
     0
370
    -2
100
AcDbLine
 10
132.9549496199762
 20
194.2438128573029
 30
0.0
 11
119.6841173115653
 21
194.2438128573029
 31
0.0
  0
LINE
  5
26DD
330
26DB
100
AcDbEntity
  8
0
 62
     0
370
    -2
100
AcDbLine
 10
132.9549496199762
 20
161.2438128573029
 30
0.0
 11
119.6841173115653
 21
161.2438128573029
 31
0.0
  0
LINE
  5
26DE
330
26DB
100
AcDbEntity
  8
0
 62
     0
370
    -2
100
AcDbLine
 10
120.9341173115653
 20
191.7438128573029
 30
0.0
 11
120.9341173115653
 21
163.7438128573029
 31
0.0
  0
SOLID
  5
26DF
330
26DB
100
AcDbEntity
  8
0
 62
     0
100
AcDbTrace
 10
120.5174506448987
 20
191.7438128573029
 30
0.0
 11
121.350783978232
 21
191.7438128573029
 31
0.0
 12
120.9341173115653
 22
194.2438128573029
 32
0.0
 13
120.9341173115653
 23
194.2438128573029
 33
0.0
  0
SOLID
  5
26E0
330
26DB
100
AcDbEntity
  8
0
 62
     0
100
AcDbTrace
 10
120.5174506448987
 20
163.7438128573029
 30
0.0
 11
121.350783978232
 21
163.7438128573029
 31
0.0
 12
120.9341173115653
 22
161.2438128573029
 32
0.0
 13
120.9341173115653
 23
161.2438128573029
 33
0.0
  0
MTEXT
  5
26E1
330
26DB
100
AcDbEntity
  8
0
 62
     0
100
AcDbMText
 10
119.0591173115653
 20
177.7438128573029
 30
0.0
 40
2.5
 41
0.0
 46
0.0
 71
     5
 72
     1
  1
33
 11
0.0000000000000001
 21
1.0
 31
0.0
 73
     1
 44
1.0
  0
POINT
  5
26E2
330
26DB
100
AcDbEntity
  8
Defpoints
 62
     0
100
AcDbPoint
 10
133.5799496199762
 20
194.2438128573029
 30
0.0
  0
POINT
  5
26E3
330
26DB
100
AcDbEntity
  8
Defpoints
 62
     0
100
AcDbPoint
 10
133.5799496199762
 20
161.2438128573029
 30
0.0
  0
POINT
  5
26E4
330
26DB
100
AcDbEntity
  8
Defpoints
 62
     0
100
AcDbPoint
 10
120.9341173115653
 20
161.2438128573029
 30
0.0
  0
ENDBLK
  5
26E6
330
26DB
100
AcDbEntity
  8
0
100
AcDbBlockEnd
  0
BLOCK
  5
26F1
330
26E7
100
AcDbEntity
  8
0
100
AcDbBlockBegin
  2
*D7
 70
     1
 10
0.0
 20
0.0
 30
0.0
  3
*D7
  1
*D7
  0
LINE
  5
26E8
330
26E7
100
AcDbEntity
  8
0
 62
     0
370
    -2
100
AcDbLine
 10
233.9562856199762
 20
194.8688128573029
 30
0.0
 11
233.9562856199762
 21
207.4015254713744
 31
0.0
  0
LINE
  5
26E9
330
26E7
100
AcDbEntity
  8
0
 62
     0
370
    -2
100
AcDbLine
 10
241.9562856199762
 20
194.8688128573029
 30
0.0
 11
241.9562856199762
 21
207.4015254713744
 31
0.0
  0
LINE
  5
26EA
330
26E7
100
AcDbEntity
  8
0
 62
     0
370
    -2
100
AcDbLine
 10
236.4562856199762
 20
206.1515254713745
 30
0.0
 11
239.4562856199761
 21
206.1515254713745
 31
0.0
  0
SOLID
  5
26EB
330
26E7
100
AcDbEntity
  8
0
 62
     0
100
AcDbTrace
 10
236.4562856199762
 20
206.5681921380411
 30
0.0
 11
236.4562856199762
 21
205.7348588047078
 31
0.0
 12
233.9562856199762
 22
206.1515254713745
 32
0.0
 13
233.9562856199762
 23
206.1515254713745
 33
0.0
  0
SOLID
  5
26EC
330
26E7
100
AcDbEntity
  8
0
 62
     0
100
AcDbTrace
 10
239.4562856199761
 20
206.5681921380411
 30
0.0
 11
239.4562856199761
 21
205.7348588047078
 31
0.0
 12
241.9562856199762
 22
206.1515254713745
 32
0.0
 13
241.9562856199762
 23
206.1515254713745
 33
0.0
  0
MTEXT
  5
26ED
330
26E7
100
AcDbEntity
  8
0
 62
     0
100
AcDbMText
 10
237.9562856199762
 20
208.0265254713745
 30
0.0
 40
2.5
 41
0.0
 46
0.0
 71
     5
 72
     1
  1
8
 73
     1
 44
1.0
  0
POINT
  5
26EE
330
26E7
100
AcDbEntity
  8
Defpoints
 62
     0
100
AcDbPoint
 10
233.9562856199762
 20
194.2438128573029
 30
0.0
  0
POINT
  5
26EF
330
26E7
100
AcDbEntity
  8
Defpoints
 62
     0
100
AcDbPoint
 10
241.9562856199762
 20
194.2438128573029
 30
0.0
  0
POINT
  5
26F0
330
26E7
100
AcDbEntity
  8
Defpoints
 62
     0
100
AcDbPoint
 10
241.9562856199762
 20
206.1515254713745
 30
0.0
  0
ENDBLK
  5
26F2
330
26E7
100
AcDbEntity
  8
0
100
AcDbBlockEnd
  0
BLOCK
  5
26FD
330
26F3
100
AcDbEntity
  8
0
100
AcDbBlockBegin
  2
*D8
 70
     1
 10
0.0
 20
0.0
 30
0.0
  3
*D8
  1
*D8
  0
LINE
  5
26F4
330
26F3
100
AcDbEntity
  8
0
 62
     0
370
    -2
100
AcDbLine
 10
216.2049496199761
 20
186.2438128573029
 30
0.0
 11
225.4365162135802
 21
186.2438128573029
 31
0.0
  0
LINE
  5
26F5
330
26F3
100
AcDbEntity
  8
0
 62
     0
370
    -2
100
AcDbLine
 10
216.2049496199761
 20
169.2438128573029
 30
0.0
 11
225.4365162135802
 21
169.2438128573029
 31
0.0
  0
LINE
  5
26F6
330
26F3
100
AcDbEntity
  8
0
 62
     0
370
    -2
100
AcDbLine
 10
224.1865162135802
 20
183.7438128573029
 30
0.0
 11
224.1865162135802
 21
171.7438128573029
 31
0.0
  0
SOLID
  5
26F7
330
26F3
100
AcDbEntity
  8
0
 62
     0
100
AcDbTrace
 10
223.7698495469135
 20
183.7438128573029
 30
0.0
 11
224.6031828802469
 21
183.7438128573029
 31
0.0
 12
224.1865162135802
 22
186.2438128573029
 32
0.0
 13
224.1865162135802
 23
186.2438128573029
 33
0.0
  0
SOLID
  5
26F8
330
26F3
100
AcDbEntity
  8
0
 62
     0
100
AcDbTrace
 10
223.7698495469135
 20
171.7438128573029
 30
0.0
 11
224.6031828802469
 21
171.7438128573029
 31
0.0
 12
224.1865162135802
 22
169.2438128573029
 32
0.0
 13
224.1865162135802
 23
169.2438128573029
 33
0.0
  0
MTEXT
  5
26F9
330
26F3
100
AcDbEntity
  8
0
 62
     0
100
AcDbMText
 10
222.3115162135802
 20
177.743812857303
 30
0.0
 40
2.5
 41
0.0
 46
0.0
 71
     5
 72
     1
  1
17
 11
0.0000000000000001
 21
1.0
 31
0.0
 73
     1
 44
1.0
  0
POINT
  5
26FA
330
26F3
100
AcDbEntity
  8
Defpoints
 62
     0
100
AcDbPoint
 10
215.5799496199761
 20
186.2438128573029
 30
0.0
  0
POINT
  5
26FB
330
26F3
100
AcDbEntity
  8
Defpoints
 62
     0
100
AcDbPoint
 10
215.5799496199761
 20
169.2438128573029
 30
0.0
  0
POINT
  5
26FC
330
26F3
100
AcDbEntity
  8
Defpoints
 62
     0
100
AcDbPoint
 10
224.1865162135802
 20
169.2438128573029
 30
0.0
  0
ENDBLK
  5
26FE
330
26F3
100
AcDbEntity
  8
0
100
AcDbBlockEnd
  0
BLOCK
  5
270B
330
26FF
100
AcDbEntity
  8
0
100
AcDbBlockBegin
  2
*D9
 70
     1
 10
0.0
 20
0.0
 30
0.0
  3
*D9
  1
*D9
  0
LINE
  5
2700
330
26FF
100
AcDbEntity
  8
0
 62
     0
370
    -2
100
AcDbLine
 10
216.0799496199762
 20
186.3688128573029
 30
0.0
 11
216.0799496199762
 21
207.4015254713744
 31
0.0
  0
LINE
  5
2701
330
26FF
100
AcDbEntity
  8
0
 62
     0
370
    -2
100
AcDbLine
 10
210.5799496199761
 20
194.8688128573029
 30
0.0
 11
210.5799496199761
 21
207.4015254713744
 31
0.0
  0
LINE
  5
2702
330
26FF
100
AcDbEntity
  8
0
 62
     0
370
    -2
100
AcDbLine
 10
218.5799496199761
 20
206.1515254713745
 30
0.0
 11
221.0799496199761
 21
206.1515254713745
 31
0.0
  0
LINE
  5
2703
330
26FF
100
AcDbEntity
  8
0
 62
     0
370
    -2
100
AcDbLine
 10
208.0799496199762
 20
206.1515254713745
 30
0.0
 11
198.9132829533095
 21
206.1515254713745
 31
0.0
  0
LINE
  5
2704
330
26FF
100
AcDbEntity
  8
0
 62
     0
370
    -2
100
AcDbLine
 10
216.0799496199762
 20
206.1515254713745
 30
0.0
 11
210.5799496199761
 21
206.1515254713745
 31
0.0
  0
SOLID
  5
2705
330
26FF
100
AcDbEntity
  8
0
 62
     0
100
AcDbTrace
 10
218.5799496199761
 20
206.5681921380411
 30
0.0
 11
218.5799496199761
 21
205.7348588047078
 31
0.0
 12
216.0799496199762
 22
206.1515254713745
 32
0.0
 13
216.0799496199762
 23
206.1515254713745
 33
0.0
  0
SOLID
  5
2706
330
26FF
100
AcDbEntity
  8
0
 62
     0
100
AcDbTrace
 10
208.0799496199762
 20
206.5681921380411
 30
0.0
 11
208.0799496199762
 21
205.7348588047078
 31
0.0
 12
210.5799496199761
 22
206.1515254713745
 32
0.0
 13
210.5799496199761
 23
206.1515254713745
 33
0.0
  0
MTEXT
  5
2707
330
26FF
100
AcDbEntity
  8
0
 62
     0
100
AcDbMText
 10
202.2466162866428
 20
208.2348588047078
 30
0.0
 40
2.5
 41
0.0
 46
0.0
 71
     5
 72
     1
  1
5,5
 73
     1
 44
1.0
  0
POINT
  5
2708
330
26FF
100
AcDbEntity
  8
Defpoints
 62
     0
100
AcDbPoint
 10
216.0799496199762
 20
185.7438128573028
 30
0.0
  0
POINT
  5
2709
330
26FF
100
AcDbEntity
  8
Defpoints
 62
     0
100
AcDbPoint
 10
210.5799496199761
 20
194.2438128573029
 30
0.0
  0
POINT
  5
270A
330
26FF
100
AcDbEntity
  8
Defpoints
 62
     0
100
AcDbPoint
 10
210.5799496199761
 20
206.1515254713745
 30
0.0
  0
ENDBLK
  5
270C
330
26FF
100
AcDbEntity
  8
0
100
AcDbBlockEnd
  0
BLOCK
  5
2717
330
270D
100
AcDbEntity
  8
0
100
AcDbBlockBegin
  2
*D10
 70
     1
 10
0.0
 20
0.0
 30
0.0
  3
*D10
  1
*D10
  0
LINE
  5
270E
330
270D
100
AcDbEntity
  8
DOTTED
  6
Continuous
 62
     0
370
    -2
100
AcDbLine
 10
132.4549496199762
 20
190.2438128573029
 30
0.0
 11
129.2768849943368
 21
190.2438128573029
 31
0.0
  0
LINE
  5
270F
330
270D
100
AcDbEntity
  8
DOTTED
  6
Continuous
 62
     0
370
    -2
100
AcDbLine
 10
132.4549496199762
 20
165.2438128573029
 30
0.0
 11
129.2768849943368
 21
165.2438128573029
 31
0.0
  0
LINE
  5
2710
330
270D
100
AcDbEntity
  8
DOTTED
  6
Continuous
 62
     0
370
    -2
100
AcDbLine
 10
130.5268849943368
 20
187.7438128573029
 30
0.0
 11
130.5268849943368
 21
167.7438128573029
 31
0.0
  0
SOLID
  5
2711
330
270D
100
AcDbEntity
  8
DOTTED
  6
Continuous
 62
     0
100
AcDbTrace
 10
130.1102183276702
 20
187.7438128573029
 30
0.0
 11
130.9435516610035
 21
187.7438128573029
 31
0.0
 12
130.5268849943368
 22
190.2438128573029
 32
0.0
 13
130.5268849943368
 23
190.2438128573029
 33
0.0
  0
SOLID
  5
2712
330
270D
100
AcDbEntity
  8
DOTTED
  6
Continuous
 62
     0
100
AcDbTrace
 10
130.1102183276702
 20
167.7438128573029
 30
0.0
 11
130.9435516610035
 21
167.7438128573029
 31
0.0
 12
130.5268849943368
 22
165.2438128573029
 32
0.0
 13
130.5268849943368
 23
165.2438128573029
 33
0.0
  0
MTEXT
  5
2713
330
270D
100
AcDbEntity
  8
DOTTED
  6
Continuous
 62
     0
100
AcDbMText
 10
128.6518849943368
 20
177.7438128573029
 30
0.0
 40
2.5
 41
0.0
 46
0.0
 71
     5
 72
     1
  1
25
 11
0.0000000000000001
 21
1.0
 31
0.0
 73
     1
 44
1.0
  0
POINT
  5
2714
330
270D
100
AcDbEntity
  8
Defpoints
  6
Continuous
 62
     0
100
AcDbPoint
 10
133.0799496199762
 20
190.2438128573029
 30
0.0
  0
POINT
  5
2715
330
270D
100
AcDbEntity
  8
Defpoints
  6
Continuous
 62
     0
100
AcDbPoint
 10
133.0799496199762
 20
165.2438128573029
 30
0.0
  0
POINT
  5
2716
330
270D
100
AcDbEntity
  8
Defpoints
  6
Continuous
 62
     0
100
AcDbPoint
 10
130.5268849943368
 20
165.2438128573029
 30
0.0
  0
ENDBLK
  5
2718
330
270D
100
AcDbEntity
  8
0
100
AcDbBlockEnd
  0
BLOCK
  5
2723
330
2719
100
AcDbEntity
  8
0
100
AcDbBlockBegin
  2
*D11
 70
     1
 10
0.0
 20
0.0
 30
0.0
  3
*D11
  1
*D11
  0
LINE
  5
271A
330
2719
100
AcDbEntity
  8
DOTTED
  6
Continuous
 62
     0
370
    -2
100
AcDbLine
 10
137.0799496199762
 20
194.8688128573029
 30
0.0
 11
137.0799496199762
 21
198.9310023240239
 31
0.0
  0
LINE
  5
271B
330
2719
100
AcDbEntity
  8
DOTTED
  6
Continuous
 62
     0
370
    -2
100
AcDbLine
 10
207.0799496199761
 20
194.8688128573029
 30
0.0
 11
207.0799496199761
 21
198.9310023240239
 31
0.0
  0
LINE
  5
271C
330
2719
100
AcDbEntity
  8
DOTTED
  6
Continuous
 62
     0
370
    -2
100
AcDbLine
 10
139.5799496199762
 20
197.6810023240239
 30
0.0
 11
204.5799496199761
 21
197.6810023240239
 31
0.0
  0
SOLID
  5
271D
330
2719
100
AcDbEntity
  8
DOTTED
  6
Continuous
 62
     0
100
AcDbTrace
 10
139.5799496199762
 20
198.0976689906906
 30
0.0
 11
139.5799496199762
 21
197.2643356573573
 31
0.0
 12
137.0799496199762
 22
197.6810023240239
 32
0.0
 13
137.0799496199762
 23
197.6810023240239
 33
0.0
  0
SOLID
  5
271E
330
2719
100
AcDbEntity
  8
DOTTED
  6
Continuous
 62
     0
100
AcDbTrace
 10
204.5799496199761
 20
198.0976689906906
 30
0.0
 11
204.5799496199761
 21
197.2643356573573
 31
0.0
 12
207.0799496199761
 22
197.6810023240239
 32
0.0
 13
207.0799496199761
 23
197.6810023240239
 33
0.0
  0
MTEXT
  5
271F
330
2719
100
AcDbEntity
  8
DOTTED
  6
Continuous
 62
     0
100
AcDbMText
 10
172.0799496199762
 20
199.5560023240239
 30
0.0
 40
2.5
 41
0.0
 46
0.0
 71
     5
 72
     1
  1
70
 73
     1
 44
1.0
  0
POINT
  5
2720
330
2719
100
AcDbEntity
  8
Defpoints
  6
Continuous
 62
     0
100
AcDbPoint
 10
137.0799496199762
 20
194.2438128573029
 30
0.0
  0
POINT
  5
2721
330
2719
100
AcDbEntity
  8
Defpoints
  6
Continuous
 62
     0
100
AcDbPoint
 10
207.0799496199761
 20
194.2438128573029
 30
0.0
  0
POINT
  5
2722
330
2719
100
AcDbEntity
  8
Defpoints
  6
Continuous
 62
     0
100
AcDbPoint
 10
207.0799496199761
 20
197.6810023240239
 30
0.0
  0
ENDBLK
  5
2724
330
2719
100
AcDbEntity
  8
0
100
AcDbBlockEnd
  0
BLOCK
  5
2731
330
2725
100
AcDbEntity
  8
0
100
AcDbBlockBegin
  2
*D12
 70
     1
 10
0.0
 20
0.0
 30
0.0
  3
*D12
  1
*D12
  0
LINE
  5
2726
330
2725
100
AcDbEntity
  8
DOTTED
  6
Continuous
 62
     0
370
    -2
100
AcDbLine
 10
237.9562856199762
 20
193.8688128573028
 30
0.0
 11
237.9562856199762
 21
198.9310023240239
 31
0.0
  0
LINE
  5
2727
330
2725
100
AcDbEntity
  8
DOTTED
  6
Continuous
 62
     0
370
    -2
100
AcDbLine
 10
233.9562856199762
 20
194.8688128573029
 30
0.0
 11
233.9562856199762
 21
198.9310023240239
 31
0.0
  0
LINE
  5
2728
330
2725
100
AcDbEntity
  8
DOTTED
  6
Continuous
 62
     0
370
    -2
100
AcDbLine
 10
240.4562856199762
 20
197.6810023240239
 30
0.0
 11
242.9562856199761
 21
197.6810023240239
 31
0.0
  0
LINE
  5
2729
330
2725
100
AcDbEntity
  8
DOTTED
  6
Continuous
 62
     0
370
    -2
100
AcDbLine
 10
231.4562856199762
 20
197.6810023240239
 30
0.0
 11
228.9562856199761
 21
197.6810023240239
 31
0.0
  0
LINE
  5
272A
330
2725
100
AcDbEntity
  8
DOTTED
  6
Continuous
 62
     0
370
    -2
100
AcDbLine
 10
237.9562856199762
 20
197.6810023240239
 30
0.0
 11
233.9562856199762
 21
197.6810023240239
 31
0.0
  0
SOLID
  5
272B
330
2725
100
AcDbEntity
  8
DOTTED
  6
Continuous
 62
     0
100
AcDbTrace
 10
240.4562856199762
 20
198.0976689906906
 30
0.0
 11
240.4562856199762
 21
197.2643356573573
 31
0.0
 12
237.9562856199762
 22
197.6810023240239
 32
0.0
 13
237.9562856199762
 23
197.6810023240239
 33
0.0
  0
SOLID
  5
272C
330
2725
100
AcDbEntity
  8
DOTTED
  6
Continuous
 62
     0
100
AcDbTrace
 10
231.4562856199762
 20
198.0976689906906
 30
0.0
 11
231.4562856199762
 21
197.2643356573573
 31
0.0
 12
233.9562856199762
 22
197.6810023240239
 32
0.0
 13
233.9562856199762
 23
197.6810023240239
 33
0.0
  0
MTEXT
  5
272D
330
2725
100
AcDbEntity
  8
DOTTED
  6
Continuous
 62
     0
100
AcDbMText
 10
235.9562856199762
 20
199.5560023240239
 30
0.0
 40
2.5
 41
0.0
 46
0.0
 71
     5
 72
     1
  1
4
 73
     1
 44
1.0
  0
POINT
  5
272E
330
2725
100
AcDbEntity
  8
Defpoints
  6
Continuous
 62
     0
100
AcDbPoint
 10
237.9562856199762
 20
193.2438128573029
 30
0.0
  0
POINT
  5
272F
330
2725
100
AcDbEntity
  8
Defpoints
  6
Continuous
 62
     0
100
AcDbPoint
 10
233.9562856199762
 20
194.2438128573029
 30
0.0
  0
POINT
  5
2730
330
2725
100
AcDbEntity
  8
Defpoints
  6
Continuous
 62
     0
100
AcDbPoint
 10
233.9562856199762
 20
197.6810023240239
 30
0.0
  0
ENDBLK
  5
2732
330
2725
100
AcDbEntity
  8
0
100
AcDbBlockEnd
  0
BLOCK
  5
273D
330
2733
100
AcDbEntity
  8
0
100
AcDbBlockBegin
  2
*D13
 70
     1
 10
0.0
 20
0.0
 30
0.0
  3
*D13
  1
*D13
  0
LINE
  5
2734
330
2733
100
AcDbEntity
  8
0
 62
     0
370
    -2
100
AcDbLine
 10
157.5799496199761
 20
138.3993708573029
 30
0.0
 11
157.5799496199761
 21
116.1191556903644
 31
0.0
  0
LINE
  5
2735
330
2733
100
AcDbEntity
  8
0
 62
     0
370
    -2
100
AcDbLine
 10
193.079949619976
 20
138.3993708573029
 30
0.0
 11
193.079949619976
 21
116.1191556903644
 31
0.0
  0
LINE
  5
2736
330
2733
100
AcDbEntity
  8
0
 62
     0
370
    -2
100
AcDbLine
 10
160.0799496199762
 20
117.3691556903644
 30
0.0
 11
190.5799496199762
 21
117.3691556903644
 31
0.0
  0
SOLID
  5
2737
330
2733
100
AcDbEntity
  8
0
 62
     0
100
AcDbTrace
 10
160.0799496199762
 20
117.785822357031
 30
0.0
 11
160.0799496199762
 21
116.9524890236977
 31
0.0
 12
157.5799496199761
 22
117.3691556903644
 32
0.0
 13
157.5799496199761
 23
117.3691556903644
 33
0.0
  0
SOLID
  5
2738
330
2733
100
AcDbEntity
  8
0
 62
     0
100
AcDbTrace
 10
190.5799496199762
 20
117.785822357031
 30
0.0
 11
190.5799496199762
 21
116.9524890236977
 31
0.0
 12
193.079949619976
 22
117.3691556903644
 32
0.0
 13
193.079949619976
 23
117.3691556903644
 33
0.0
  0
MTEXT
  5
2739
330
2733
100
AcDbEntity
  8
0
 62
     0
100
AcDbMText
 10
175.329949619976
 20
119.4524890236977
 30
0.0
 40
2.5
 41
0.0
 46
0.0
 71
     5
 72
     1
  1
35,5
 73
     1
 44
1.0
  0
POINT
  5
273A
330
2733
100
AcDbEntity
  8
Defpoints
 62
     0
100
AcDbPoint
 10
157.5799496199761
 20
139.0243708573029
 30
0.0
  0
POINT
  5
273B
330
2733
100
AcDbEntity
  8
Defpoints
 62
     0
100
AcDbPoint
 10
193.079949619976
 20
139.0243708573029
 30
0.0
  0
POINT
  5
273C
330
2733
100
AcDbEntity
  8
Defpoints
 62
     0
100
AcDbPoint
 10
193.079949619976
 20
117.3691556903644
 30
0.0
  0
ENDBLK
  5
273E
330
2733
100
AcDbEntity
  8
0
100
AcDbBlockEnd
  0
BLOCK
  5
2749
330
273F
100
AcDbEntity
  8
0
100
AcDbBlockBegin
  2
*D14
 70
     1
 10
0.0
 20
0.0
 30
0.0
  3
*D14
  1
*D14
  0
LINE
  5
2740
330
273F
100
AcDbEntity
  8
0
 62
     0
370
    -2
100
AcDbLine
 10
157.5799496199761
 20
137.7743708573029
 30
0.0
 11
157.5799496199761
 21
128.8868446560878
 31
0.0
  0
LINE
  5
2741
330
273F
100
AcDbEntity
  8
0
 62
     0
370
    -2
100
AcDbLine
 10
172.079949619976
 20
142.8993708573029
 30
0.0
 11
172.079949619976
 21
128.8868446560878
 31
0.0
  0
LINE
  5
2742
330
273F
100
AcDbEntity
  8
0
 62
     0
370
    -2
100
AcDbLine
 10
160.0799496199762
 20
130.1368446560878
 30
0.0
 11
169.5799496199762
 21
130.1368446560878
 31
0.0
  0
SOLID
  5
2743
330
273F
100
AcDbEntity
  8
0
 62
     0
100
AcDbTrace
 10
160.0799496199762
 20
130.5535113227545
 30
0.0
 11
160.0799496199762
 21
129.7201779894211
 31
0.0
 12
157.5799496199761
 22
130.1368446560878
 32
0.0
 13
157.5799496199761
 23
130.1368446560878
 33
0.0
  0
SOLID
  5
2744
330
273F
100
AcDbEntity
  8
0
 62
     0
100
AcDbTrace
 10
169.5799496199762
 20
130.5535113227545
 30
0.0
 11
169.5799496199762
 21
129.7201779894211
 31
0.0
 12
172.079949619976
 22
130.1368446560878
 32
0.0
 13
172.079949619976
 23
130.1368446560878
 33
0.0
  0
MTEXT
  5
2745
330
273F
100
AcDbEntity
  8
0
 62
     0
100
AcDbMText
 10
164.8299496199761
 20
132.2201779894211
 30
0.0
 40
2.5
 41
0.0
 46
0.0
 71
     5
 72
     1
  1
14,5
 73
     1
 44
1.0
  0
POINT
  5
2746
330
273F
100
AcDbEntity
  8
Defpoints
 62
     0
100
AcDbPoint
 10
157.5799496199761
 20
138.3993708573029
 30
0.0
  0
POINT
  5
2747
330
273F
100
AcDbEntity
  8
Defpoints
 62
     0
100
AcDbPoint
 10
172.079949619976
 20
143.5243708573029
 30
0.0
  0
POINT
  5
2748
330
273F
100
AcDbEntity
  8
Defpoints
 62
     0
100
AcDbPoint
 10
172.079949619976
 20
130.1368446560878
 30
0.0
  0
ENDBLK
  5
274A
330
273F
100
AcDbEntity
  8
0
100
AcDbBlockEnd
  0
BLOCK
  5
2757
330
274B
100
AcDbEntity
  8
0
100
AcDbBlockBegin
  2
*D15
 70
     1
 10
0.0
 20
0.0
 30
0.0
  3
*D15
  1
*D15
  0
LINE
  5
274C
330
274B
100
AcDbEntity
  8
0
 62
     0
370
    -2
100
AcDbLine
 10
171.4549496199762
 20
147.0243708573029
 30
0.0
 11
165.9470525562604
 21
147.0243708573029
 31
0.0
  0
LINE
  5
274D
330
274B
100
AcDbEntity
  8
0
 62
     0
370
    -2
100
AcDbLine
 10
171.4549496199762
 20
144.5243708573029
 30
0.0
 11
165.9470525562604
 21
144.5243708573029
 31
0.0
  0
LINE
  5
274E
330
274B
100
AcDbEntity
  8
0
 62
     0
370
    -2
100
AcDbLine
 10
167.1970525562604
 20
142.0243708573029
 30
0.0
 11
167.1970525562604
 21
139.5243708573029
 31
0.0
  0
LINE
  5
274F
330
274B
100
AcDbEntity
  8
0
 62
     0
370
    -2
100
AcDbLine
 10
167.1970525562604
 20
149.5243708573029
 30
0.0
 11
167.1970525562604
 21
158.6910375239695
 31
0.0
  0
LINE
  5
2750
330
274B
100
AcDbEntity
  8
0
 62
     0
370
    -2
100
AcDbLine
 10
167.1970525562604
 20
144.5243708573029
 30
0.0
 11
167.1970525562604
 21
147.0243708573029
 31
0.0
  0
SOLID
  5
2751
330
274B
100
AcDbEntity
  8
0
 62
     0
100
AcDbTrace
 10
166.7803858895937
 20
142.0243708573029
 30
0.0
 11
167.6137192229271
 21
142.0243708573029
 31
0.0
 12
167.1970525562604
 22
144.5243708573029
 32
0.0
 13
167.1970525562604
 23
144.5243708573029
 33
0.0
  0
SOLID
  5
2752
330
274B
100
AcDbEntity
  8
0
 62
     0
100
AcDbTrace
 10
166.7803858895937
 20
149.5243708573029
 30
0.0
 11
167.6137192229271
 21
149.5243708573029
 31
0.0
 12
167.1970525562604
 22
147.0243708573029
 32
0.0
 13
167.1970525562604
 23
147.0243708573029
 33
0.0
  0
MTEXT
  5
2753
330
274B
100
AcDbEntity
  8
0
 62
     0
100
AcDbMText
 10
165.113719222927
 20
155.3577041906363
 30
0.0
 40
2.5
 41
0.0
 46
0.0
 71
     5
 72
     1
  1
2,5
 11
0.0000000000000001
 21
1.0
 31
0.0
 73
     1
 44
1.0
  0
POINT
  5
2754
330
274B
100
AcDbEntity
  8
Defpoints
 62
     0
100
AcDbPoint
 10
172.079949619976
 20
147.0243708573029
 30
0.0
  0
POINT
  5
2755
330
274B
100
AcDbEntity
  8
Defpoints
 62
     0
100
AcDbPoint
 10
172.079949619976
 20
144.5243708573029
 30
0.0
  0
POINT
  5
2756
330
274B
100
AcDbEntity
  8
Defpoints
 62
     0
100
AcDbPoint
 10
167.1970525562604
 20
144.5243708573029
 30
0.0
  0
ENDBLK
  5
2758
330
274B
100
AcDbEntity
  8
0
100
AcDbBlockEnd
  0
BLOCK
  5
2762
330
2759
100
AcDbEntity
  8
0
100
AcDbBlockBegin
  2
*D16
 70
     1
 10
0.0
 20
0.0
 30
0.0
  3
*D16
  1
*D16
  0
LINE
  5
275A
330
2759
100
AcDbEntity
  8
0
 62
     0
370
    -2
100
AcDbLine
 10
229.2460802370018
 20
150.9140530885325
 30
0.0
 11
210.5231101574966
 21
163.0179095546272
 31
0.0
  0
LINE
  5
275B
330
2759
100
AcDbEntity
  8
0
 62
     0
370
    -2
100
AcDbLine
 10
203.6367890824558
 20
167.4697161599785
 30
0.0
 11
201.5373009498214
 21
168.8269742713661
 31
0.0
  0
MTEXT
  5
275C
330
2759
100
AcDbEntity
  8
0
 62
     0
100
AcDbMText
 10
224.4904314557979
 20
156.2211289943242
 30
0.0
 40
2.5
 41
0.0
 46
0.0
 71
     5
 72
     1
  1
4-%%c3.2
 11
0.8397952530537502
 21
-0.5429032445550386
 31
0.0
 73
     1
 44
1.0
  0
LINE
  5
275D
330
2759
100
AcDbEntity
  8
0
 62
     0
370
    -2
100
AcDbLine
 10
205.7362772150901
 20
166.1124580485909
 30
0.0
 11
208.4236220248622
 21
164.3751676660148
 31
0.0
  0
SOLID
  5
275E
330
2759
100
AcDbEntity
  8
0
 62
     0
100
AcDbTrace
 10
203.862998767687
 20
167.819630848751
 30
0.0
 11
203.4105793972245
 21
167.1198014712062
 31
0.0
 12
205.7362772150901
 22
166.1124580485909
 32
0.0
 13
205.7362772150901
 23
166.1124580485909
 33
0.0
  0
SOLID
  5
275F
330
2759
100
AcDbEntity
  8
0
 62
     0
100
AcDbTrace
 10
210.7493198427278
 20
163.3678242433996
 30
0.0
 11
210.2969004722652
 21
162.6679948658549
 31
0.0
 12
208.4236220248622
 22
164.3751676660148
 32
0.0
 13
208.4236220248622
 23
164.3751676660148
 33
0.0
  0
POINT
  5
2760
330
2759
100
AcDbEntity
  8
Defpoints
 62
     0
100
AcDbPoint
 10
208.4236220248622
 20
164.3751676660148
 30
0.0
  0
POINT
  5
2761
330
2759
100
AcDbEntity
  8
Defpoints
 62
     0
100
AcDbPoint
 10
205.7362772150901
 20
166.1124580485909
 30
0.0
  0
ENDBLK
  5
2763
330
2759
100
AcDbEntity
  8
0
100
AcDbBlockEnd
  0
BLOCK
  5
2770
330
2764
100
AcDbEntity
  8
0
100
AcDbBlockBegin
  2
*D17
 70
     1
 10
0.0
 20
0.0
 30
0.0
  3
*D17
  1
*D17
  0
LINE
  5
2765
330
2764
100
AcDbEntity
  8
0
 62
     0
370
    -2
100
AcDbLine
 10
216.2049496199761
 20
144.5243708573029
 30
0.0
 11
225.4934390810709
 21
144.5243708573029
 31
0.0
  0
LINE
  5
2766
330
2764
100
AcDbEntity
  8
0
 62
     0
370
    -2
100
AcDbLine
 10
216.2049496199761
 20
140.5243708573029
 30
0.0
 11
225.4934390810709
 21
140.5243708573029
 31
0.0
  0
LINE
  5
2767
330
2764
100
AcDbEntity
  8
0
 62
     0
370
    -2
100
AcDbLine
 10
224.2434390810709
 20
147.0243708573029
 30
0.0
 11
224.2434390810709
 21
149.5243708573029
 31
0.0
  0
LINE
  5
2768
330
2764
100
AcDbEntity
  8
0
 62
     0
370
    -2
100
AcDbLine
 10
224.2434390810709
 20
138.0243708573029
 30
0.0
 11
224.2434390810709
 21
135.5243708573029
 31
0.0
  0
LINE
  5
2769
330
2764
100
AcDbEntity
  8
0
 62
     0
370
    -2
100
AcDbLine
 10
224.2434390810709
 20
144.5243708573029
 30
0.0
 11
224.2434390810709
 21
140.5243708573029
 31
0.0
  0
SOLID
  5
276A
330
2764
100
AcDbEntity
  8
0
 62
     0
100
AcDbTrace
 10
223.8267724144042
 20
147.0243708573029
 30
0.0
 11
224.6601057477376
 21
147.0243708573029
 31
0.0
 12
224.2434390810709
 22
144.5243708573029
 32
0.0
 13
224.2434390810709
 23
144.5243708573029
 33
0.0
  0
SOLID
  5
276B
330
2764
100
AcDbEntity
  8
0
 62
     0
100
AcDbTrace
 10
223.8267724144042
 20
138.0243708573029
 30
0.0
 11
224.6601057477376
 21
138.0243708573029
 31
0.0
 12
224.2434390810709
 22
140.5243708573029
 32
0.0
 13
224.2434390810709
 23
140.5243708573029
 33
0.0
  0
MTEXT
  5
276C
330
2764
100
AcDbEntity
  8
0
 62
     0
100
AcDbMText
 10
222.3684390810709
 20
142.5243708573029
 30
0.0
 40
2.5
 41
0.0
 46
0.0
 71
     5
 72
     1
  1
4
 11
0.0000000000000001
 21
1.0
 31
0.0
 73
     1
 44
1.0
  0
POINT
  5
276D
330
2764
100
AcDbEntity
  8
Defpoints
 62
     0
100
AcDbPoint
 10
215.5799496199761
 20
144.5243708573029
 30
0.0
  0
POINT
  5
276E
330
2764
100
AcDbEntity
  8
Defpoints
 62
     0
100
AcDbPoint
 10
215.5799496199761
 20
140.5243708573029
 30
0.0
  0
POINT
  5
276F
330
2764
100
AcDbEntity
  8
Defpoints
 62
     0
100
AcDbPoint
 10
224.2434390810709
 20
140.5243708573029
 30
0.0
  0
ENDBLK
  5
2771
330
2764
100
AcDbEntity
  8
0
100
AcDbBlockEnd
  0
BLOCK
  5
280A
330
2772
100
AcDbEntity
  8
0
100
AcDbBlockBegin
  2
A$C27BD67DC
 70
     0
 10
0.0
 20
0.0
 30
0.0
  3
A$C27BD67DC
  1
A$C27BD67DC
  0
LEADER
  5
2773
330
2772
100
AcDbEntity
  8
0
100
AcDbLeader
  3
ISO-25
 76
     2
 10
124.3772345200254
 20
21.90521495118309
 30
0.0
 10
130.372929216126
 20
15.33601465841211
 30
0.0
1001
ACAD
1000
DSTYLE
1002
{
1070
   147
1040
0.625
1070
    77
1070
     0
1002
}
  0
DIMENSION
  5
2774
102
{ACAD_XDICTIONARY
360
2775
102
}
102
{ACAD_REACTORS
330
2776
102
}
330
2772
100
AcDbEntity
  8
0
100
AcDbDimension
280
     0
  2
*D16
 10
123.0335621151394
 20
49.99330214247115
 30
0.0
 11
140.7697727723065
 21
38.5273569887286
 31
0.0
 12
-82.70271509995074
 22
-116.1191559061198
 32
0.0
 70
   131
  1
4-%%c3.2
 71
     5
 42
3.200000000000017
 73
     0
 74
     0
 75
     0
  3
ISO-25
100
AcDbDiametricDimension
 15
125.7209069249114
 25
48.25601175989501
 35
0.0
 40
0.0
1001
ACAD
1000
DSTYLE
1002
{
1070
   288
1070
     1
1002
}
  0
DIMENSION
  5
2777
102
{ACAD_XDICTIONARY
360
2778
102
}
102
{ACAD_REACTORS
330
2779
102
}
330
2772
100
AcDbEntity
  8
0
100
AcDbDimension
280
     0
  2
*D9
 10
127.8772345200254
 20
90.03236956525467
 30
0.0
 11
119.543901186692
 21
92.11570289858801
 31
0.0
 12
-82.70271509995074
 22
-116.1191559061198
 32
0.0
 70
    32
 71
     5
 42
5.5
 73
     0
 74
     0
 75
     0
  3
ISO-25
100
AcDbAlignedDimension
 13
133.3772345200254
 23
69.62465695118311
 33
0.0
 14
127.8772345200254
 24
78.12465695118311
 34
0.0
100
AcDbRotatedDimension
  0
DIMENSION
  5
277A
102
{ACAD_XDICTIONARY
360
277B
102
}
102
{ACAD_REACTORS
330
277C
102
}
330
2772
100
AcDbEntity
  8
0
100
AcDbDimension
280
     0
  2
*D5
 10
127.8772345200254
 20
90.03236956525467
 30
0.0
 11
89.51090001490356
 21
90.03236956525467
 31
0.0
 12
-82.70271509995074
 22
-116.1191559061198
 32
0.0
 70
   128
 71
     5
 42
76.99999999999997
 73
     0
 74
     0
 75
     0
  3
ISO-25
100
AcDbAlignedDimension
 13
50.87723452002546
 23
78.12465695118311
 33
0.0
 14
127.8772345200254
 24
78.12465695118311
 34
0.0
100
AcDbRotatedDimension
  0
LINE
  5
277D
330
2772
100
AcDbEntity
  8
CENTER
100
AcDbLine
 10
128.3772345200254
 20
74.12465695118311
 30
0.0
 11
120.3772345200254
 21
74.12465695118311
 31
0.0
  0
CIRCLE
  5
277E
330
2772
100
AcDbEntity
  8
DOTTED
100
AcDbCircle
 10
124.3772345200254
 20
49.12465695118311
 30
0.0
 40
3.0
  0
LINE
  5
277F
330
2772
100
AcDbEntity
  8
CENTER
100
AcDbLine
 10
128.3772345200254
 20
49.12465695118311
 30
0.0
 11
120.3772345200254
 21
49.12465695118311
 31
0.0
  0
LINE
  5
2780
330
2772
100
AcDbEntity
  8
DOTTED
100
AcDbLine
 10
110.3772345200254
 20
70.12465695118311
 30
0.0
 11
127.8772345200254
 21
70.12465695118311
 31
0.0
  0
LINE
  5
2781
330
2772
100
AcDbEntity
  8
DOTTED
100
AcDbLine
 10
110.3772345200254
 20
53.12465695118311
 30
0.0
 11
127.8772345200254
 21
53.12465695118311
 31
0.0
  0
CIRCLE
  5
2782
330
2772
100
AcDbEntity
  8
DOTTED
100
AcDbCircle
 10
124.3772345200254
 20
74.12465695118311
 30
0.0
 40
3.0
  0
LINE
  5
2783
330
2772
100
AcDbEntity
  8
DOTTED
100
AcDbLine
 10
127.3772345200254
 20
26.90521495118309
 30
0.0
 11
121.3772345200254
 21
26.90521495118309
 31
0.0
  0
LINE
  5
2784
102
{ACAD_REACTORS
330
2798
102
}
330
2772
100
AcDbEntity
  8
CONTINUOUS
100
AcDbLine
 10
110.3772345200254
 20
22.90521495118309
 30
0.0
 11
127.8772345200254
 21
22.90521495118309
 31
0.0
  0
LINE
  5
2785
330
2772
100
AcDbEntity
  8
DOTTED
100
AcDbLine
 10
110.3772345200254
 20
24.40521495118309
 30
0.0
 11
127.8772345200254
 21
24.40521495118309
 31
0.0
  0
LINE
  5
2786
330
2772
100
AcDbEntity
  8
DOTTED
100
AcDbLine
 10
110.3772345200254
 20
28.40521495118309
 30
0.0
 11
127.8772345200254
 21
28.40521495118309
 31
0.0
  0
LINE
  5
2787
102
{ACAD_REACTORS
330
277C
102
}
330
2772
100
AcDbEntity
  8
CONTINUOUS
100
AcDbLine
 10
50.87723452002546
 20
78.12465695118311
 30
0.0
 11
127.8772345200254
 21
78.12465695118311
 31
0.0
  0
LINE
  5
2788
102
{ACAD_REACTORS
330
27B4
102
}
330
2772
100
AcDbEntity
  8
CONTINUOUS
100
AcDbLine
 10
50.87723452002546
 20
45.12465695118311
 30
0.0
 11
127.8772345200254
 21
45.12465695118311
 31
0.0
  0
LINE
  5
2789
330
2772
100
AcDbEntity
  8
CENTER
100
AcDbLine
 10
49.87723452002548
 20
61.62465695118311
 30
0.0
 11
128.8772345200254
 21
61.62465695118311
 31
0.0
  0
LINE
  5
278A
102
{ACAD_REACTORS
330
278D
102
}
330
2772
100
AcDbEntity
  8
CONTINUOUS
100
AcDbLine
 10
50.87723452002546
 20
30.90521495118309
 30
0.0
 11
127.8772345200254
 21
30.90521495118309
 31
0.0
  0
DIMENSION
  5
278B
102
{ACAD_XDICTIONARY
360
278C
102
}
102
{ACAD_REACTORS
330
278D
102
}
330
2772
100
AcDbEntity
  8
0
100
AcDbDimension
280
     0
  2
*D15
 10
84.49433745630969
 20
28.40521495118309
 30
0.0
 11
84.49433745630967
 21
39.23854828451647
 31
0.0
 12
-82.70271509995074
 22
-116.1191559061198
 32
0.0
 70
   128
 71
     5
 42
2.5
 73
     0
 74
     0
 75
     0
  3
ISO-25
100
AcDbAlignedDimension
 13
89.37723452002543
 23
30.90521495118309
 33
0.0
 14
89.37723452002543
 24
28.40521495118309
 34
0.0
 50
90.0
100
AcDbRotatedDimension
  0
LINE
  5
278E
102
{ACAD_REACTORS
330
2798
102
}
330
2772
100
AcDbEntity
  8
CONTINUOUS
100
AcDbLine
 10
50.87723452002546
 20
22.90521495118309
 30
0.0
 11
74.87723452002544
 21
22.90521495118309
 31
0.0
  0
LINE
  5
278F
330
2772
100
AcDbEntity
  8
DOTTED
100
AcDbLine
 10
51.37723452002546
 20
26.90521495118309
 30
0.0
 11
57.37723452002548
 21
26.90521495118309
 31
0.0
  0
LINE
  5
2790
330
2772
100
AcDbEntity
  8
DOTTED
100
AcDbLine
 10
51.37723452002546
 20
26.90521495118309
 30
0.0
 11
51.37723452002546
 21
22.90521495118309
 31
0.0
  0
LINE
  5
2791
330
2772
100
AcDbEntity
  8
CONTINUOUS
100
AcDbLine
 10
50.87723452002546
 20
30.90521495118309
 30
0.0
 11
50.87723452002546
 21
22.90521495118309
 31
0.0
  0
LINE
  5
2792
330
2772
100
AcDbEntity
  8
DOTTED
100
AcDbLine
 10
52.77723452002543
 20
30.90521495118309
 30
0.0
 11
52.77723452002543
 21
26.90521495118309
 31
0.0
  0
LINE
  5
2793
330
2772
100
AcDbEntity
  8
DOTTED
100
AcDbLine
 10
57.37723452002548
 20
26.90521495118309
 30
0.0
 11
57.37723452002548
 21
22.90521495118309
 31
0.0
  0
LINE
  5
2794
330
2772
100
AcDbEntity
  8
CENTER
100
AcDbLine
 10
54.37723452002547
 20
31.90521495118309
 30
0.0
 11
54.37723452002547
 21
21.90521495118309
 31
0.0
  0
LINE
  5
2795
330
2772
100
AcDbEntity
  8
DOTTED
100
AcDbLine
 10
55.97723452002544
 20
30.90521495118309
 30
0.0
 11
55.97723452002544
 21
26.90521495118309
 31
0.0
  0
DIMENSION
  5
2796
102
{ACAD_XDICTIONARY
360
2797
102
}
102
{ACAD_REACTORS
330
2798
102
}
330
2772
100
AcDbEntity
  8
0
100
AcDbDimension
280
     0
  2
*D13
 10
110.3772345200254
 20
1.249999784244579
 30
0.0
 11
92.62723452002544
 21
3.333333117577907
 31
0.0
 12
-82.70271509995074
 22
-116.1191559061198
 32
0.0
 70
    32
 71
     5
 42
35.5
 73
     0
 74
     0
 75
     0
  3
ISO-25
100
AcDbAlignedDimension
 13
74.87723452002544
 23
22.90521495118309
 33
0.0
 14
110.3772345200254
 24
22.90521495118309
 34
0.0
100
AcDbRotatedDimension
  0
LINE
  5
2799
102
{ACAD_REACTORS
330
278D
102
}
330
2772
100
AcDbEntity
  8
CONTINUOUS
100
AcDbLine
 10
74.87723452002544
 20
28.40521495118309
 30
0.0
 11
110.3772345200254
 21
28.40521495118309
 31
0.0
  0
DIMENSION
  5
279A
102
{ACAD_XDICTIONARY
360
279B
102
}
102
{ACAD_REACTORS
330
279C
102
}
330
2772
100
AcDbEntity
  8
0
100
AcDbDimension
280
     0
  2
*D14
 10
89.37723452002543
 20
14.01768874996801
 30
0.0
 11
82.12723452002544
 21
16.10102208330135
 31
0.0
 12
-82.70271509995074
 22
-116.1191559061198
 32
0.0
 70
    32
 71
     5
 42
14.5
 73
     0
 74
     0
 75
     0
  3
ISO-25
100
AcDbAlignedDimension
 13
74.87723452002544
 23
22.28021495118309
 33
0.0
 14
89.37723452002543
 24
27.4052149511831
 34
0.0
100
AcDbRotatedDimension
  0
LINE
  5
279D
330
2772
100
AcDbEntity
  8
CONTINUOUS
100
AcDbLine
 10
76.37723452002544
 20
26.90521495118309
 30
0.0
 11
76.87723452002543
 21
26.4052149511831
 31
0.0
  0
LINE
  5
279E
330
2772
100
AcDbEntity
  8
CONTINUOUS
100
AcDbLine
 10
74.87723452002544
 20
22.90521495118309
 30
0.0
 11
74.87723452002544
 21
28.40521495118309
 31
0.0
  0
LINE
  5
279F
330
2772
100
AcDbEntity
  8
CONTINUOUS
100
AcDbLine
 10
76.87723452002543
 20
26.4052149511831
 30
0.0
 11
76.87723452002543
 21
25.90521495118309
 31
0.0
  0
LINE
  5
27A0
330
2772
100
AcDbEntity
  8
CONTINUOUS
100
AcDbLine
 10
76.87723452002543
 20
25.90521495118309
 30
0.0
 11
74.87723452002544
 21
22.90521495118309
 31
0.0
  0
LINE
  5
27A1
330
2772
100
AcDbEntity
  8
CONTINUOUS
100
AcDbLine
 10
74.87723452002544
 20
26.90521495118309
 30
0.0
 11
76.37723452002544
 21
26.90521495118309
 31
0.0
  0
LINE
  5
27A2
102
{ACAD_REACTORS
330
279C
330
278D
102
}
330
2772
100
AcDbEntity
  8
CENTER
100
AcDbLine
 10
89.37723452002543
 20
31.90521495118309
 30
0.0
 11
89.37723452002543
 21
27.4052149511831
 31
0.0
  0
LINE
  5
27A3
330
2772
100
AcDbEntity
  8
CONTINUOUS
100
AcDbLine
 10
110.3772345200254
 20
28.40521495118309
 30
0.0
 11
110.3772345200254
 21
22.90521495118309
 31
0.0
  0
LINE
  5
27A4
330
2772
100
AcDbEntity
  8
CONTINUOUS
100
AcDbLine
 10
107.5894215200254
 20
26.72839295118313
 30
0.0
 11
110.3772345200254
 21
24.40521495118309
 31
0.0
  0
LINE
  5
27A5
330
2772
100
AcDbEntity
  8
CONTINUOUS
100
AcDbLine
 10
108.8772345200254
 20
28.40521495118309
 30
0.0
 11
108.8772345200254
 21
26.90521495118309
 31
0.0
  0
ARC
  5
27A6
330
2772
100
AcDbEntity
  8
CONTINUOUS
100
AcDbCircle
 10
107.6534395200254
 20
26.80521495118313
 30
0.0
 40
0.1
100
AcDbArc
 50
90.0
 51
230.1944289999996
  0
LINE
  5
27A7
330
2772
100
AcDbEntity
  8
CONTINUOUS
100
AcDbLine
 10
107.6534395200254
 20
26.90521495118309
 30
0.0
 11
108.8772345200254
 21
26.90521495118309
 31
0.0
  0
LINE
  5
27A8
330
2772
100
AcDbEntity
  8
DOTTED
100
AcDbLine
 10
121.3772345200254
 20
26.90521495118309
 30
0.0
 11
121.3772345200254
 21
22.90521495118309
 31
0.0
  0
LINE
  5
27A9
330
2772
100
AcDbEntity
  8
CENTER
100
AcDbLine
 10
124.3772345200254
 20
31.90521495118309
 30
0.0
 11
124.3772345200254
 21
21.90521495118309
 31
0.0
  0
LINE
  5
27AA
330
2772
100
AcDbEntity
  8
DOTTED
100
AcDbLine
 10
122.7772345200254
 20
30.90521495118309
 30
0.0
 11
122.7772345200254
 21
26.90521495118309
 31
0.0
  0
LINE
  5
27AB
330
2772
100
AcDbEntity
  8
DOTTED
100
AcDbLine
 10
125.9772345200254
 20
30.90521495118309
 30
0.0
 11
125.9772345200254
 21
26.90521495118309
 31
0.0
  0
DIMENSION
  5
27AC
102
{ACAD_XDICTIONARY
360
27AD
102
}
102
{ACAD_REACTORS
330
27AE
102
}
330
2772
100
AcDbEntity
  8
DOTTED
  6
Continuous
100
AcDbDimension
280
     0
  2
*D11
 10
124.3772345200254
 20
81.56184641790416
 30
0.0
 11
89.37723452002547
 21
83.43684641790416
 31
0.0
 12
-82.70271509995074
 22
-116.1191559061198
 32
0.0
 70
    32
 71
     5
 42
69.99999999999997
 73
     0
 74
     0
 75
     0
  3
ISO-25
100
AcDbAlignedDimension
 13
54.37723452002547
 23
78.12465695118311
 33
0.0
 14
124.3772345200254
 24
78.12465695118311
 34
0.0
100
AcDbRotatedDimension
  0
DIMENSION
  5
27AF
102
{ACAD_XDICTIONARY
360
27B0
102
}
102
{ACAD_REACTORS
330
27B1
102
}
330
2772
100
AcDbEntity
  8
DOTTED
  6
Continuous
100
AcDbDimension
280
     0
  2
*D10
 10
47.8241698943861
 20
49.12465695118311
 30
0.0
 11
45.94916989438607
 21
61.62465695118314
 31
0.0
 12
-82.70271509995074
 22
-116.1191559061198
 32
0.0
 70
    32
 71
     5
 42
25.0
 73
     0
 74
     0
 75
     0
  3
ISO-25
100
AcDbAlignedDimension
 13
50.37723452002548
 23
74.12465695118311
 33
0.0
 14
50.37723452002548
 24
49.12465695118311
 34
0.0
 50
90.0
100
AcDbRotatedDimension
  0
DIMENSION
  5
27B2
102
{ACAD_XDICTIONARY
360
27B3
102
}
102
{ACAD_REACTORS
330
27B4
102
}
330
2772
100
AcDbEntity
  8
0
100
AcDbDimension
280
     0
  2
*D6
 10
38.23140221161464
 20
45.12465695118311
 30
0.0
 11
36.35640221161461
 21
61.62465695118314
 31
0.0
 12
-82.70271509995074
 22
-116.1191559061198
 32
0.0
 70
    32
 71
     5
 42
33.0
 73
     0
 74
     0
 75
     0
  3
ISO-25
100
AcDbAlignedDimension
 13
50.87723452002546
 23
78.12465695118311
 33
0.0
 14
50.87723452002546
 24
45.12465695118311
 34
0.0
 50
90.0
100
AcDbRotatedDimension
  0
LINE
  5
27B5
330
2772
100
AcDbEntity
  8
CONTINUOUS
100
AcDbLine
 10
50.87723452002546
 20
78.12465695118311
 30
0.0
 11
50.87723452002546
 21
45.12465695118311
 31
0.0
  0
CIRCLE
  5
27B6
330
2772
100
AcDbEntity
  8
DOTTED
100
AcDbCircle
 10
54.37723452002547
 20
49.12465695118311
 30
0.0
 40
3.0
  0
CIRCLE
  5
27B7
330
2772
100
AcDbEntity
  8
CONTINUOUS
100
AcDbCircle
 10
54.37723452002547
 20
49.12465695118311
 30
0.0
 40
1.6
  0
LINE
  5
27B8
102
{ACAD_REACTORS
330
27B1
102
}
330
2772
100
AcDbEntity
  8
CENTER
100
AcDbLine
 10
58.37723452002546
 20
49.12465695118311
 30
0.0
 11
50.37723452002548
 21
49.12465695118311
 31
0.0
  0
LINE
  5
27B9
330
2772
100
AcDbEntity
  8
CENTER
100
AcDbLine
 10
54.37723452002547
 20
53.12465695118311
 30
0.0
 11
54.37723452002547
 21
45.12465695118311
 31
0.0
  0
CIRCLE
  5
27BA
330
2772
100
AcDbEntity
  8
CONTINUOUS
100
AcDbCircle
 10
54.37723452002547
 20
74.12465695118311
 30
0.0
 40
1.6
  0
LINE
  5
27BB
102
{ACAD_REACTORS
330
27B1
102
}
330
2772
100
AcDbEntity
  8
CENTER
100
AcDbLine
 10
58.37723452002546
 20
74.12465695118311
 30
0.0
 11
50.37723452002548
 21
74.12465695118311
 31
0.0
  0
CIRCLE
  5
27BC
330
2772
100
AcDbEntity
  8
DOTTED
100
AcDbCircle
 10
54.37723452002547
 20
74.12465695118311
 30
0.0
 40
3.0
  0
LINE
  5
27BD
102
{ACAD_REACTORS
330
27AE
102
}
330
2772
100
AcDbEntity
  8
CENTER
100
AcDbLine
 10
54.37723452002547
 20
78.12465695118311
 30
0.0
 11
54.37723452002547
 21
70.12465695118311
 31
0.0
  0
LINE
  5
27BE
330
2772
100
AcDbEntity
  8
CENTER
100
AcDbLine
 10
89.37723452002543
 20
79.12465695118311
 30
0.0
 11
89.37723452002543
 21
44.12465695118311
 31
0.0
  0
LINE
  5
27BF
330
2772
100
AcDbEntity
  8
DOTTED
100
AcDbLine
 10
74.87723452002544
 20
78.12465695118311
 30
0.0
 11
74.87723452002544
 21
45.12465695118311
 31
0.0
  0
LINE
  5
27C0
330
2772
100
AcDbEntity
  8
DOTTED
100
AcDbLine
 10
76.87723452002543
 20
51.62465695118311
 30
0.0
 11
76.87723452002543
 21
48.62465695118311
 31
0.0
  0
LINE
  5
27C1
330
2772
100
AcDbEntity
  8
DOTTED
100
AcDbLine
 10
76.87723452002543
 20
48.62465695118311
 30
0.0
 11
74.87723452002544
 21
48.62465695118311
 31
0.0
  0
LINE
  5
27C2
330
2772
100
AcDbEntity
  8
DOTTED
100
AcDbLine
 10
74.87723452002544
 20
51.62465695118311
 30
0.0
 11
76.87723452002543
 21
51.62465695118311
 31
0.0
  0
LINE
  5
27C3
330
2772
100
AcDbEntity
  8
DOTTED
100
AcDbLine
 10
76.87723452002543
 20
74.62465695118311
 30
0.0
 11
76.87723452002543
 21
71.62465695118311
 31
0.0
  0
LINE
  5
27C4
330
2772
100
AcDbEntity
  8
DOTTED
100
AcDbLine
 10
74.87723452002544
 20
71.62465695118311
 30
0.0
 11
76.87723452002543
 21
71.62465695118311
 31
0.0
  0
LINE
  5
27C5
330
2772
100
AcDbEntity
  8
DOTTED
100
AcDbLine
 10
74.87723452002544
 20
74.62465695118311
 30
0.0
 11
76.87723452002543
 21
74.62465695118311
 31
0.0
  0
LINE
  5
27C6
330
2772
100
AcDbEntity
  8
DOTTED
100
AcDbLine
 10
107.3772345200254
 20
68.87465695118311
 30
0.0
 11
107.3772345200254
 21
54.37465695118311
 31
0.0
  0
LINE
  5
27C7
330
2772
100
AcDbEntity
  8
DOTTED
100
AcDbLine
 10
110.3772345200254
 20
78.12465695118311
 30
0.0
 11
110.3772345200254
 21
45.12465695118311
 31
0.0
  0
LINE
  5
27C8
330
2772
100
AcDbEntity
  8
DOTTED
100
AcDbLine
 10
110.3772345200254
 20
54.37465695118311
 30
0.0
 11
107.3772345200254
 21
54.37465695118311
 31
0.0
  0
LINE
  5
27C9
330
2772
100
AcDbEntity
  8
CENTER
100
AcDbLine
 10
124.3772345200254
 20
53.12465695118311
 30
0.0
 11
124.3772345200254
 21
45.12465695118311
 31
0.0
  0
CIRCLE
  5
27CA
102
{ACAD_REACTORS
330
2776
102
}
330
2772
100
AcDbEntity
  8
CONTINUOUS
100
AcDbCircle
 10
124.3772345200254
 20
49.12465695118311
 30
0.0
 40
1.6
  0
LINE
  5
27CB
330
2772
100
AcDbEntity
  8
DOTTED
100
AcDbLine
 10
107.3772345200254
 20
68.87465695118311
 30
0.0
 11
110.3772345200254
 21
68.87465695118311
 31
0.0
  0
CIRCLE
  5
27CC
330
2772
100
AcDbEntity
  8
CONTINUOUS
100
AcDbCircle
 10
124.3772345200254
 20
74.12465695118311
 30
0.0
 40
1.6
  0
LINE
  5
27CD
102
{ACAD_REACTORS
330
27AE
102
}
330
2772
100
AcDbEntity
  8
CENTER
100
AcDbLine
 10
124.3772345200254
 20
78.12465695118311
 30
0.0
 11
124.3772345200254
 21
70.12465695118311
 31
0.0
  0
DIMENSION
  5
27CE
102
{ACAD_XDICTIONARY
360
27CF
102
}
102
{ACAD_REACTORS
330
27D0
102
}
330
2772
100
AcDbEntity
  8
0
100
AcDbDimension
280
     0
  2
*D17
 10
141.5407239811202
 20
24.40521495118309
 30
0.0
 11
139.6657239811201
 21
26.40521495118315
 31
0.0
 12
-82.70271509995074
 22
-116.1191559061198
 32
0.0
 70
    32
 71
     5
 42
4.0
 73
     0
 74
     0
 75
     0
  3
ISO-25
100
AcDbAlignedDimension
 13
132.8772345200254
 23
28.40521495118309
 33
0.0
 14
132.8772345200254
 24
24.40521495118309
 34
0.0
 50
90.0
100
AcDbRotatedDimension
  0
MTEXT
  5
27D1
330
2772
100
AcDbEntity
  8
0
100
AcDbMText
 10
127.5840091692676
 20
14.18810364899849
 30
0.0
 40
2.5
 41
24.44409999999999
 46
0.0
 71
     1
 72
     5
  1
M3{\fMS UI Gothic|b0|i0|c128|p17;ネジ用穴}
 73
     1
 44
1.0
  0
LINE
  5
27D2
330
2772
100
AcDbEntity
  8
CONTINUOUS
100
AcDbLine
 10
133.3772345200254
 20
27.90521495118309
 30
0.0
 11
133.3772345200254
 21
24.9052149511831
 31
0.0
  0
LINE
  5
27D3
330
2772
100
AcDbEntity
  8
DOTTED
100
AcDbLine
 10
128.8772345200254
 20
28.40521495118309
 30
0.0
 11
128.8772345200254
 21
24.40521495118309
 31
0.0
  0
LINE
  5
27D4
102
{ACAD_REACTORS
330
27D0
102
}
330
2772
100
AcDbEntity
  8
DOTTED
100
AcDbLine
 10
132.8772345200254
 20
28.40521495118309
 30
0.0
 11
132.8772345200254
 21
24.40521495118309
 31
0.0
  0
LINE
  5
27D5
330
2772
100
AcDbEntity
  8
DOTTED
100
AcDbLine
 10
130.8772345200254
 20
28.40521495118309
 30
0.0
 11
130.8772345200254
 21
24.40521495118309
 31
0.0
  0
LINE
  5
27D6
330
2772
100
AcDbEntity
  8
DOTTED
100
AcDbLine
 10
127.3772345200254
 20
26.90521495118309
 30
0.0
 11
127.3772345200254
 21
22.90521495118309
 31
0.0
  0
LINE
  5
27D7
330
2772
100
AcDbEntity
  8
CONTINUOUS
100
AcDbLine
 10
127.8772345200254
 20
30.90521495118309
 30
0.0
 11
127.8772345200254
 21
22.90521495118309
 31
0.0
  0
LINE
  5
27D8
330
2772
100
AcDbEntity
  8
CONTINUOUS
100
AcDbLine
 10
127.8772345200254
 20
24.40521495118309
 30
0.0
 11
132.8772345200254
 21
24.40521495118309
 31
0.0
  0
ARC
  5
27D9
330
2772
100
AcDbEntity
  8
CONTINUOUS
100
AcDbCircle
 10
132.8772345200254
 20
24.9052149511831
 30
0.0
 40
0.5
100
AcDbArc
 50
270.0
 51
0.0
  0
LINE
  5
27DA
330
2772
100
AcDbEntity
  8
CONTINUOUS
100
AcDbLine
 10
127.8772345200254
 20
28.40521495118309
 30
0.0
 11
132.8772345200254
 21
28.40521495118309
 31
0.0
  0
ARC
  5
27DB
330
2772
100
AcDbEntity
  8
CONTINUOUS
100
AcDbCircle
 10
132.8772345200254
 20
27.90521495118309
 30
0.0
 40
0.5
100
AcDbArc
 50
0.0
 51
90.0
  0
DIMENSION
  5
27DC
102
{ACAD_XDICTIONARY
360
27DD
102
}
102
{ACAD_REACTORS
330
27DE
102
}
330
2772
100
AcDbEntity
  8
DOTTED
  6
Continuous
100
AcDbDimension
280
     0
  2
*D12
 10
151.2535705200254
 20
81.56184641790416
 30
0.0
 11
153.2535705200254
 21
83.43684641790416
 31
0.0
 12
-82.70271509995074
 22
-116.1191559061198
 32
0.0
 70
    32
 71
     5
 42
4.0
 73
     0
 74
     0
 75
     0
  3
ISO-25
100
AcDbAlignedDimension
 13
155.2535705200254
 23
77.12465695118311
 33
0.0
 14
151.2535705200254
 24
78.12465695118311
 34
0.0
100
AcDbRotatedDimension
  0
DIMENSION
  5
27DF
102
{ACAD_XDICTIONARY
360
27E0
102
}
102
{ACAD_REACTORS
330
27E1
102
}
330
2772
100
AcDbEntity
  8
0
100
AcDbDimension
280
     0
  2
*D7
 10
159.2535705200254
 20
90.03236956525467
 30
0.0
 11
155.2535705200254
 21
91.90736956525467
 31
0.0
 12
-82.70271509995074
 22
-116.1191559061198
 32
0.0
 70
    32
 71
     5
 42
8.0
 73
     0
 74
     0
 75
     0
  3
ISO-25
100
AcDbAlignedDimension
 13
151.2535705200254
 23
78.12465695118311
 33
0.0
 14
159.2535705200254
 24
78.12465695118311
 34
0.0
100
AcDbRotatedDimension
  0
LINE
  5
27E2
330
2772
100
AcDbEntity
  8
CENTER
100
AcDbLine
 10
150.2535705200254
 20
74.12465695118311
 30
0.0
 11
160.2535705200254
 21
74.12465695118311
 31
0.0
  0
LINE
  5
27E3
330
2772
100
AcDbEntity
  8
CENTER
100
AcDbLine
 10
150.2535705200254
 20
49.12465695118311
 30
0.0
 11
160.2535705200254
 21
49.12465695118311
 31
0.0
  0
DIMENSION
  5
27E4
102
{ACAD_XDICTIONARY
360
27E5
102
}
102
{ACAD_REACTORS
330
27E6
102
}
330
2772
100
AcDbEntity
  8
0
100
AcDbDimension
280
     0
  2
*D8
 10
141.4838011136295
 20
53.12465695118311
 30
0.0
 11
139.6088011136294
 21
61.62465695118317
 31
0.0
 12
-82.70271509995074
 22
-116.1191559061198
 32
0.0
 70
    32
 71
     5
 42
17.0
 73
     0
 74
     0
 75
     0
  3
ISO-25
100
AcDbAlignedDimension
 13
132.8772345200254
 23
70.12465695118311
 33
0.0
 14
132.8772345200254
 24
53.12465695118311
 34
0.0
 50
90.0
100
AcDbRotatedDimension
  0
LINE
  5
27E7
330
2772
100
AcDbEntity
  8
CONTINUOUS
100
AcDbLine
 10
153.7535705200254
 20
70.12465695118311
 30
0.0
 11
153.7535705200254
 21
53.12465695118311
 31
0.0
  0
LINE
  5
27E8
330
2772
100
AcDbEntity
  8
CONTINUOUS
100
AcDbLine
 10
157.7535705200254
 20
70.12465695118311
 30
0.0
 11
157.7535705200254
 21
53.12465695118311
 31
0.0
  0
LINE
  5
27E9
102
{ACAD_REACTORS
330
27E1
102
}
330
2772
100
AcDbEntity
  8
CONTINUOUS
100
AcDbLine
 10
151.2535705200254
 20
78.12465695118311
 30
0.0
 11
151.2535705200254
 21
45.12465695118311
 31
0.0
  0
LINE
  5
27EA
102
{ACAD_REACTORS
330
2779
102
}
330
2772
100
AcDbEntity
  8
CONTINUOUS
100
AcDbLine
 10
133.3772345200254
 20
69.62465695118311
 30
0.0
 11
133.3772345200254
 21
53.62465695118311
 31
0.0
  0
LINE
  5
27EB
330
2772
100
AcDbEntity
  8
CONTINUOUS
100
AcDbLine
 10
127.8772345200254
 20
78.12465695118311
 30
0.0
 11
127.8772345200254
 21
45.12465695118311
 31
0.0
  0
LINE
  5
27EC
102
{ACAD_REACTORS
330
27E6
102
}
330
2772
100
AcDbEntity
  8
CONTINUOUS
100
AcDbLine
 10
127.8772345200254
 20
53.12465695118311
 30
0.0
 11
132.8772345200254
 21
53.12465695118311
 31
0.0
  0
ARC
  5
27ED
330
2772
100
AcDbEntity
  8
CONTINUOUS
100
AcDbCircle
 10
132.8772345200254
 20
53.62465695118311
 30
0.0
 40
0.5
100
AcDbArc
 50
270.0
 51
0.0
  0
LINE
  5
27EE
330
2772
100
AcDbEntity
  8
DOTTED
100
AcDbLine
 10
151.2535705200254
 20
50.7246569511831
 30
0.0
 11
155.2535705200254
 21
50.7246569511831
 31
0.0
  0
LINE
  5
27EF
330
2772
100
AcDbEntity
  8
DOTTED
100
AcDbLine
 10
151.2535705200254
 20
47.52465695118312
 30
0.0
 11
155.2535705200254
 21
47.52465695118312
 31
0.0
  0
LINE
  5
27F0
330
2772
100
AcDbEntity
  8
CONTINUOUS
100
AcDbLine
 10
151.2535705200254
 20
45.12465695118311
 30
0.0
 11
159.2535705200254
 21
45.12465695118311
 31
0.0
  0
LINE
  5
27F1
330
2772
100
AcDbEntity
  8
CONTINUOUS
100
AcDbLine
 10
159.2535705200254
 20
54.12465695118311
 30
0.0
 11
159.2535705200254
 21
45.12465695118311
 31
0.0
  0
LINE
  5
27F2
330
2772
100
AcDbEntity
  8
DOTTED
100
AcDbLine
 10
155.2535705200254
 20
46.12465695118311
 30
0.0
 11
155.2535705200254
 21
52.12465695118311
 31
0.0
  0
LINE
  5
27F3
330
2772
100
AcDbEntity
  8
DOTTED
100
AcDbLine
 10
155.2535705200254
 20
46.12465695118311
 30
0.0
 11
159.2535705200254
 21
46.12465695118311
 31
0.0
  0
LINE
  5
27F4
330
2772
100
AcDbEntity
  8
CONTINUOUS
100
AcDbLine
 10
153.7535705200254
 20
53.12465695118311
 30
0.0
 11
157.7535705200254
 21
53.12465695118311
 31
0.0
  0
LINE
  5
27F5
330
2772
100
AcDbEntity
  8
DOTTED
100
AcDbLine
 10
155.2535705200254
 20
52.12465695118311
 30
0.0
 11
159.2535705200254
 21
52.12465695118311
 31
0.0
  0
LINE
  5
27F6
330
2772
100
AcDbEntity
  8
CONTINUOUS
100
AcDbLine
 10
157.7535705200254
 20
54.12465695118311
 30
0.0
 11
159.2535705200254
 21
54.12465695118311
 31
0.0
  0
ARC
  5
27F7
330
2772
100
AcDbEntity
  8
CONTINUOUS
100
AcDbCircle
 10
130.8772345200254
 20
61.62465695118311
 30
0.0
 40
2.0
100
AcDbArc
 50
270.0
 51
90.0
  0
LINE
  5
27F8
330
2772
100
AcDbEntity
  8
CONTINUOUS
100
AcDbLine
 10
128.8772345200254
 20
65.62465695118311
 30
0.0
 11
128.8772345200254
 21
57.62465695118311
 31
0.0
  0
LINE
  5
27F9
330
2772
100
AcDbEntity
  8
CONTINUOUS
100
AcDbLine
 10
128.8772345200254
 20
57.62465695118311
 30
0.0
 11
130.8772345200254
 21
57.62465695118311
 31
0.0
  0
LINE
  5
27FA
330
2772
100
AcDbEntity
  8
CONTINUOUS
100
AcDbLine
 10
130.8772345200254
 20
59.62465695118311
 30
0.0
 11
130.8772345200254
 21
57.62465695118311
 31
0.0
  0
LINE
  5
27FB
330
2772
100
AcDbEntity
  8
CONTINUOUS
100
AcDbLine
 10
130.8772345200254
 20
65.62465695118311
 30
0.0
 11
130.8772345200254
 21
63.62465695118311
 31
0.0
  0
LINE
  5
27FC
330
2772
100
AcDbEntity
  8
CONTINUOUS
100
AcDbLine
 10
128.8772345200254
 20
65.62465695118311
 30
0.0
 11
130.8772345200254
 21
65.62465695118311
 31
0.0
  0
LINE
  5
27FD
102
{ACAD_REACTORS
330
27E6
102
}
330
2772
100
AcDbEntity
  8
CONTINUOUS
100
AcDbLine
 10
127.8772345200254
 20
70.12465695118311
 30
0.0
 11
132.8772345200254
 21
70.12465695118311
 31
0.0
  0
ARC
  5
27FE
330
2772
100
AcDbEntity
  8
CONTINUOUS
100
AcDbCircle
 10
132.8772345200254
 20
69.62465695118311
 30
0.0
 40
0.5
100
AcDbArc
 50
0.0
 51
90.0
  0
LINE
  5
27FF
330
2772
100
AcDbEntity
  8
CENTER
100
AcDbLine
 10
150.2535705200254
 20
61.62465695118311
 30
0.0
 11
158.7535705200254
 21
61.62465695118311
 31
0.0
  0
LINE
  5
2800
102
{ACAD_REACTORS
330
27E1
102
}
330
2772
100
AcDbEntity
  8
CONTINUOUS
100
AcDbLine
 10
151.2535705200254
 20
78.12465695118311
 30
0.0
 11
159.2535705200254
 21
78.12465695118311
 31
0.0
  0
LINE
  5
2801
330
2772
100
AcDbEntity
  8
DOTTED
100
AcDbLine
 10
151.2535705200254
 20
75.72465695118309
 30
0.0
 11
155.2535705200254
 21
75.72465695118309
 31
0.0
  0
LINE
  5
2802
330
2772
100
AcDbEntity
  8
DOTTED
100
AcDbLine
 10
151.2535705200254
 20
72.52465695118313
 30
0.0
 11
155.2535705200254
 21
72.52465695118313
 31
0.0
  0
LINE
  5
2803
330
2772
100
AcDbEntity
  8
CONTINUOUS
100
AcDbLine
 10
159.2535705200254
 20
78.12465695118311
 30
0.0
 11
159.2535705200254
 21
69.12465695118311
 31
0.0
  0
LINE
  5
2804
102
{ACAD_REACTORS
330
27DE
102
}
330
2772
100
AcDbEntity
  8
DOTTED
100
AcDbLine
 10
155.2535705200254
 20
77.12465695118311
 30
0.0
 11
155.2535705200254
 21
71.12465695118311
 31
0.0
  0
LINE
  5
2805
330
2772
100
AcDbEntity
  8
CONTINUOUS
100
AcDbLine
 10
153.7535705200254
 20
70.12465695118311
 30
0.0
 11
157.7535705200254
 21
70.12465695118311
 31
0.0
  0
LINE
  5
2806
330
2772
100
AcDbEntity
  8
DOTTED
100
AcDbLine
 10
155.2535705200254
 20
71.12465695118311
 30
0.0
 11
159.2535705200254
 21
71.12465695118311
 31
0.0
  0
LINE
  5
2807
330
2772
100
AcDbEntity
  8
CONTINUOUS
100
AcDbLine
 10
157.7535705200254
 20
69.12465695118311
 30
0.0
 11
159.2535705200254
 21
69.12465695118311
 31
0.0
  0
LINE
  5
2808
330
2772
100
AcDbEntity
  8
DOTTED
100
AcDbLine
 10
155.2535705200254
 20
77.12465695118311
 30
0.0
 11
159.2535705200254
 21
77.12465695118311
 31
0.0
  0
MTEXT
  5
2809
330
2772
100
AcDbEntity
  8
GAIKEI
100
AcDbMText
 10
-0.000000287488092
 20
136.5341353288614
 30
0.0
 40
3.0
 41
106.2100999999999
 46
0.0
 71
     1
 72
     5
  1
{\Fsimplex.shx,bigfont.shx;DINレール取付プレート 外形図\P型番：SI-DIN70}
 73
     1
 44
1.0
  0
ENDBLK
  5
280B
330
2772
100
AcDbEntity
  8
0
100
AcDbBlockEnd
  0
BLOCK
  5
3C5E
330
3C5D
100
AcDbEntity
  8
0
100
AcDbBlockBegin
  2
*D19
 70
     1
 10
0.0
 20
0.0
 30
0.0
  3
*D19
  1

  0
LINE
  5
489C
330
3C5D
100
AcDbEntity
  8
寸法
440
 16777216
100
AcDbLine
 10
175.420206267002
 20
128.5595343487452
 30
0.0
 11
162.5012881068
 21
122.877860966864
 31
0.0
  0
MTEXT
  5
489D
330
3C5D
100
AcDbEntity
  8
寸法
440
 16777216
100
AcDbMText
 10
170.54773333957
 20
128.8746301265964
 30
0.0
 40
2.5
 41
0.0
 46
0.0
 71
     5
 72
     1
  1
\A1;R2.1
 11
0.9153842524734566
 21
0.4025812592801746
 31
0.0
 73
     1
 44
1.0
  0
LINE
  5
489E
330
3C5D
100
AcDbEntity
  8
寸法
440
 16777216
100
AcDbLine
 10
158.7482126716587
 20
121.2272778038153
 30
0.0
 11
160.6705196018531
 21
122.0726984483037
 31
0.0
  0
SOLID
  5
489F
330
3C5D
100
AcDbEntity
  8
寸法
440
 16777216
100
AcDbTrace
 10
162.3670943537066
 20
123.1829890510218
 30
0.0
 11
162.6354818598934
 21
122.5727328827062
 31
0.0
 12
160.6705196018531
 22
122.0726984483037
 32
0.0
 13
160.6705196018531
 23
122.0726984483037
 33
0.0
  0
POINT
  5
48A0
330
3C5D
100
AcDbEntity
  8
Defpoints
 62
     0
440
 16777216
100
AcDbPoint
 10
160.6705196018531
 20
122.0726984483037
 30
0.0
  0
POINT
  5
48A1
330
3C5D
100
AcDbEntity
  8
Defpoints
 62
     0
440
 16777216
100
AcDbPoint
 10
158.7482126716587
 20
121.2272778038153
 30
0.0
  0
ENDBLK
  5
3C5F
330
3C5D
100
AcDbEntity
  8
0
100
AcDbBlockEnd
  0
BLOCK
  5
3C70
330
3C6F
100
AcDbEntity
  8
0
100
AcDbBlockBegin
  2
*D20
 70
     1
 10
0.0
 20
0.0
 30
0.0
  3
*D20
  1

  0
LINE
  5
488A
330
3C6F
100
AcDbEntity
  8
寸法
440
 16777216
100
AcDbLine
 10
175.5625911374839
 20
107.1009019523784
 30
0.0
 11
163.7001981141209
 21
112.8339871449852
 31
0.0
  0
MTEXT
  5
488B
330
3C6F
100
AcDbEntity
  8
寸法
440
 16777216
100
AcDbMText
 10
172.2649498885152
 20
111.193647020557
 30
0.0
 40
2.5
 41
0.0
 46
0.0
 71
     5
 72
     1
  1
\A1;R3.5
 11
0.9003609895385766
 21
-0.4351437561509015
 31
0.0
 73
     1
 44
1.0
  0
LINE
  5
488C
330
3C6F
100
AcDbEntity
  8
寸法
440
 16777216
100
AcDbLine
 10
158.7482126716587
 20
115.2272778038152
 30
0.0
 11
161.8994761350437
 21
113.704274657287
 31
0.0
  0
SOLID
  5
488D
330
3C6F
100
AcDbEntity
  8
寸法
440
 16777216
100
AcDbTrace
 10
163.8452460328378
 20
113.1341074748314
 30
0.0
 11
163.5551501954039
 21
112.533866815139
 31
0.0
 12
161.8994761350437
 22
113.704274657287
 32
0.0
 13
161.8994761350437
 23
113.704274657287
 33
0.0
  0
POINT
  5
488E
330
3C6F
100
AcDbEntity
  8
Defpoints
 62
     0
440
 16777216
100
AcDbPoint
 10
161.8994761350437
 20
113.704274657287
 30
0.0
  0
POINT
  5
488F
330
3C6F
100
AcDbEntity
  8
Defpoints
 62
     0
440
 16777216
100
AcDbPoint
 10
158.7482126716587
 20
115.2272778038152
 30
0.0
  0
ENDBLK
  5
3C71
330
3C6F
100
AcDbEntity
  8
0
100
AcDbBlockEnd
  0
BLOCK
  5
3C82
330
3C81
100
AcDbEntity
  8
0
100
AcDbBlockBegin
  2
*D21
 70
     1
 10
0.0
 20
0.0
 30
0.0
  3
*D21
  1

  0
LINE
  5
424E
330
3C81
100
AcDbEntity
  8
寸法
440
 16777216
100
AcDbLine
 10
174.1824908297679
 20
99.62719147445142
 30
0.0
 11
162.2296952437805
 21
107.0618034677842
 31
0.0
  0
MTEXT
  5
424F
330
3C81
100
AcDbEntity
  8
寸法
440
 16777216
100
AcDbMText
 10
171.6912451655906
 20
103.8264738915431
 30
0.0
 40
2.5
 41
0.0
 46
0.0
 71
     5
 72
     1
  1
\A1;R2.1
 11
0.8491420907615381
 21
-0.5281644722026688
 31
0.0
 73
     1
 44
1.0
  0
LINE
  5
4250
330
3C81
100
AcDbEntity
  8
寸法
440
 16777216
100
AcDbLine
 10
158.7482126716583
 20
109.2272778038152
 30
0.0
 11
160.5314110622574
 21
108.1181324121896
 31
0.0
  0
SOLID
  5
4251
330
3C81
100
AcDbEntity
  8
寸法
440
 16777216
100
AcDbTrace
 10
162.4057500678481
 20
107.3448508313714
 30
0.0
 11
162.053640419713
 21
106.778756104197
 31
0.0
 12
160.5314110622574
 22
108.1181324121896
 32
0.0
 13
160.5314110622574
 23
108.1181324121896
 33
0.0
  0
POINT
  5
4252
330
3C81
100
AcDbEntity
  8
Defpoints
 62
     0
440
 16777216
100
AcDbPoint
 10
160.5314110622574
 20
108.1181324121896
 30
0.0
  0
POINT
  5
4253
330
3C81
100
AcDbEntity
  8
Defpoints
 62
     0
440
 16777216
100
AcDbPoint
 10
158.7482126716583
 20
109.2272778038152
 30
0.0
  0
ENDBLK
  5
3C83
330
3C81
100
AcDbEntity
  8
0
100
AcDbBlockEnd
  0
BLOCK
  5
3CAC
330
3CAB
100
AcDbEntity
  8
0
100
AcDbBlockBegin
  2
*D22
 70
     1
 10
0.0
 20
0.0
 30
0.0
  3
*D22
  1

  0
LINE
  5
48E2
330
3CAB
100
AcDbEntity
  8
寸法
440
 16777216
100
AcDbLine
 10
155.2482126716588
 20
127.7272778038151
 30
0.0
 11
134.1686843123137
 21
127.7272778038151
 31
0.0
  0
LINE
  5
48E3
330
3CAB
100
AcDbEntity
  8
寸法
440
 16777216
100
AcDbLine
 10
155.2482126716588
 20
102.7272778038151
 30
0.0
 11
134.1686843123137
 21
102.7272778038151
 31
0.0
  0
LINE
  5
48E4
330
3CAB
100
AcDbEntity
  8
寸法
440
 16777216
100
AcDbLine
 10
135.1686843123137
 20
125.7272778038151
 30
0.0
 11
135.1686843123137
 21
104.7272778038151
 31
0.0
  0
SOLID
  5
48E5
330
3CAB
100
AcDbEntity
  8
寸法
440
 16777216
100
AcDbTrace
 10
134.8353509789804
 20
125.7272778038151
 30
0.0
 11
135.502017645647
 21
125.7272778038151
 31
0.0
 12
135.1686843123137
 22
127.7272778038151
 32
0.0
 13
135.1686843123137
 23
127.7272778038151
 33
0.0
  0
SOLID
  5
48E6
330
3CAB
100
AcDbEntity
  8
寸法
440
 16777216
100
AcDbTrace
 10
134.8353509789804
 20
104.7272778038151
 30
0.0
 11
135.502017645647
 21
104.7272778038151
 31
0.0
 12
135.1686843123137
 22
102.7272778038151
 32
0.0
 13
135.1686843123137
 23
102.7272778038151
 33
0.0
  0
MTEXT
  5
48E7
330
3CAB
100
AcDbEntity
  8
寸法
440
 16777216
100
AcDbMText
 10
132.9186843123137
 20
118.4160650697533
 30
0.0
 40
2.5
 41
0.0
 46
0.0
 71
     5
 72
     1
  1
\A1;25
 11
0.0000000000000001
 21
1.0
 31
0.0
 73
     1
 44
1.0
  0
POINT
  5
48E8
330
3CAB
100
AcDbEntity
  8
Defpoints
 62
     0
440
 16777216
100
AcDbPoint
 10
156.2482126716588
 20
127.7272778038151
 30
0.0
  0
POINT
  5
48E9
330
3CAB
100
AcDbEntity
  8
Defpoints
 62
     0
440
 16777216
100
AcDbPoint
 10
156.2482126716588
 20
102.7272778038151
 30
0.0
  0
POINT
  5
48EA
330
3CAB
100
AcDbEntity
  8
Defpoints
 62
     0
440
 16777216
100
AcDbPoint
 10
135.1686843123137
 20
102.7272778038151
 30
0.0
  0
ENDBLK
  5
3CAD
330
3CAB
100
AcDbEntity
  8
0
100
AcDbBlockEnd
  0
BLOCK
  5
40E5
330
40E4
100
AcDbEntity
  8
0
100
AcDbBlockBegin
  2
*D23
 70
     1
 10
0.0
 20
0.0
 30
0.0
  3
*D23
  1

  0
LINE
  5
42AB
330
40E4
100
AcDbEntity
  8
寸法
440
 16777216
100
AcDbLine
 10
164.7482126716588
 20
136.2272778038151
 30
0.0
 11
164.7482126716588
 21
147.2636923921321
 31
0.0
  0
LINE
  5
42AC
330
40E4
100
AcDbEntity
  8
寸法
440
 16777216
100
AcDbLine
 10
158.7482126716588
 20
132.117171873777
 30
0.0
 11
158.7482126716588
 21
147.2636923921321
 31
0.0
  0
LINE
  5
42AD
330
40E4
100
AcDbEntity
  8
寸法
440
 16777216
100
AcDbLine
 10
162.7482126716588
 20
146.2636923921321
 30
0.0
 11
160.7482126716588
 21
146.2636923921321
 31
0.0
  0
SOLID
  5
42AE
330
40E4
100
AcDbEntity
  8
寸法
440
 16777216
100
AcDbTrace
 10
166.7482126716588
 20
146.5970257254654
 30
0.0
 11
166.7482126716588
 21
145.9303590587987
 31
0.0
 12
164.7482126716588
 22
146.2636923921321
 32
0.0
 13
164.7482126716588
 23
146.2636923921321
 33
0.0
  0
LINE
  5
42AF
330
40E4
100
AcDbEntity
  8
寸法
440
 16777216
100
AcDbLine
 10
166.7482126716588
 20
146.2636923921321
 30
0.0
 11
168.7482126716588
 21
146.2636923921321
 31
0.0
  0
LINE
  5
42B0
330
40E4
100
AcDbEntity
  8
寸法
440
 16777216
100
AcDbLine
 10
164.7482126716588
 20
146.2636923921321
 30
0.0
 11
162.7482126716588
 21
146.2636923921321
 31
0.0
  0
SOLID
  5
42B1
330
40E4
100
AcDbEntity
  8
寸法
440
 16777216
100
AcDbTrace
 10
156.7482126716588
 20
146.5970257254654
 30
0.0
 11
156.7482126716588
 21
145.9303590587987
 31
0.0
 12
158.7482126716588
 22
146.2636923921321
 32
0.0
 13
158.7482126716588
 23
146.2636923921321
 33
0.0
  0
LINE
  5
42B2
330
40E4
100
AcDbEntity
  8
寸法
440
 16777216
100
AcDbLine
 10
156.7482126716588
 20
146.2636923921321
 30
0.0
 11
154.7482126716588
 21
146.2636923921321
 31
0.0
  0
LINE
  5
42B3
330
40E4
100
AcDbEntity
  8
寸法
440
 16777216
100
AcDbLine
 10
158.7482126716588
 20
146.2636923921321
 30
0.0
 11
160.7482126716588
 21
146.2636923921321
 31
0.0
  0
MTEXT
  5
42B4
330
40E4
100
AcDbEntity
  8
寸法
440
 16777216
100
AcDbMText
 10
161.7482126716588
 20
148.5136923921321
 30
0.0
 40
2.5
 41
0.0
 46
0.0
 71
     5
 72
     1
  1
\A1;6
 73
     1
 44
1.0
  0
POINT
  5
42B5
330
40E4
100
AcDbEntity
  8
Defpoints
 62
     0
440
 16777216
100
AcDbPoint
 10
164.7482126716588
 20
135.2272778038151
 30
0.0
  0
POINT
  5
42B6
330
40E4
100
AcDbEntity
  8
Defpoints
 62
     0
440
 16777216
100
AcDbPoint
 10
158.7482126716588
 20
131.117171873777
 30
0.0
  0
POINT
  5
42B7
330
40E4
100
AcDbEntity
  8
Defpoints
 62
     0
440
 16777216
100
AcDbPoint
 10
158.7482126716588
 20
146.2636923921321
 30
0.0
  0
ENDBLK
  5
40E6
330
40E4
100
AcDbEntity
  8
0
100
AcDbBlockEnd
  0
BLOCK
  5
4256
330
4255
100
AcDbEntity
  8
0
100
AcDbBlockBegin
  2
*D24
 70
     1
 10
0.0
 20
0.0
 30
0.0
  3
*D24
  1

  0
LINE
  5
47DB
330
4255
100
AcDbEntity
  8
寸法
440
 16777216
100
AcDbLine
 10
155.2482126716588
 20
121.2272778038154
 30
0.0
 11
142.1769157133214
 21
121.2272778038154
 31
0.0
  0
LINE
  5
47DC
330
4255
100
AcDbEntity
  8
寸法
440
 16777216
100
AcDbLine
 10
150.7482126716588
 20
115.2272778038151
 30
0.0
 11
142.1769157133214
 21
115.2272778038151
 31
0.0
  0
LINE
  5
47DD
330
4255
100
AcDbEntity
  8
寸法
440
 16777216
100
AcDbLine
 10
143.1769157133214
 20
119.2272778038154
 30
0.0
 11
143.1769157133214
 21
117.2272778038151
 31
0.0
  0
SOLID
  5
47DE
330
4255
100
AcDbEntity
  8
寸法
440
 16777216
100
AcDbTrace
 10
142.8435823799881
 20
123.2272778038154
 30
0.0
 11
143.5102490466547
 21
123.2272778038154
 31
0.0
 12
143.1769157133214
 22
121.2272778038154
 32
0.0
 13
143.1769157133214
 23
121.2272778038154
 33
0.0
  0
LINE
  5
47DF
330
4255
100
AcDbEntity
  8
寸法
440
 16777216
100
AcDbLine
 10
143.1769157133214
 20
123.2272778038154
 30
0.0
 11
143.1769157133214
 21
125.2272778038154
 31
0.0
  0
LINE
  5
47E0
330
4255
100
AcDbEntity
  8
寸法
440
 16777216
100
AcDbLine
 10
143.1769157133214
 20
121.2272778038154
 30
0.0
 11
143.1769157133214
 21
119.2272778038154
 31
0.0
  0
SOLID
  5
47E1
330
4255
100
AcDbEntity
  8
寸法
440
 16777216
100
AcDbTrace
 10
142.8435823799881
 20
113.2272778038151
 30
0.0
 11
143.5102490466547
 21
113.2272778038151
 31
0.0
 12
143.1769157133214
 22
115.2272778038151
 32
0.0
 13
143.1769157133214
 23
115.2272778038151
 33
0.0
  0
LINE
  5
47E2
330
4255
100
AcDbEntity
  8
寸法
440
 16777216
100
AcDbLine
 10
143.1769157133214
 20
113.2272778038151
 30
0.0
 11
143.1769157133214
 21
111.2272778038151
 31
0.0
  0
LINE
  5
47E3
330
4255
100
AcDbEntity
  8
寸法
440
 16777216
100
AcDbLine
 10
143.1769157133214
 20
115.2272778038151
 30
0.0
 11
143.1769157133214
 21
117.2272778038151
 31
0.0
  0
MTEXT
  5
47E4
330
4255
100
AcDbEntity
  8
寸法
440
 16777216
100
AcDbMText
 10
140.9269157133214
 20
118.2272778038152
 30
0.0
 40
2.5
 41
0.0
 46
0.0
 71
     5
 72
     1
  1
\A1;6
 11
0.0000000000000001
 21
1.0
 31
0.0
 73
     1
 44
1.0
  0
POINT
  5
47E5
330
4255
100
AcDbEntity
  8
Defpoints
 62
     0
440
 16777216
100
AcDbPoint
 10
156.2482126716588
 20
121.2272778038154
 30
0.0
  0
POINT
  5
47E6
330
4255
100
AcDbEntity
  8
Defpoints
 62
     0
440
 16777216
100
AcDbPoint
 10
151.7482126716588
 20
115.2272778038151
 30
0.0
  0
POINT
  5
47E7
330
4255
100
AcDbEntity
  8
Defpoints
 62
     0
440
 16777216
100
AcDbPoint
 10
143.1769157133214
 20
115.2272778038151
 30
0.0
  0
ENDBLK
  5
4257
330
4255
100
AcDbEntity
  8
0
100
AcDbBlockEnd
  0
BLOCK
  5
426E
330
426D
100
AcDbEntity
  8
0
100
AcDbBlockBegin
  2
*D25
 70
     1
 10
0.0
 20
0.0
 30
0.0
  3
*D25
  1

  0
LINE
  5
47D0
330
426D
100
AcDbEntity
  8
寸法
440
 16777216
100
AcDbLine
 10
155.2482126716588
 20
109.2272778038154
 30
0.0
 11
142.1769157133214
 21
109.2272778038154
 31
0.0
  0
LINE
  5
47D1
330
426D
100
AcDbEntity
  8
寸法
440
 16777216
100
AcDbLine
 10
150.7482126716588
 20
115.2272778038151
 30
0.0
 11
142.1769157133214
 21
115.2272778038151
 31
0.0
  0
LINE
  5
47D2
330
426D
100
AcDbEntity
  8
寸法
440
 16777216
100
AcDbLine
 10
143.1769157133214
 20
107.2272778038154
 30
0.0
 11
143.1769157133214
 21
105.2272778038154
 31
0.0
  0
LINE
  5
47D3
330
426D
100
AcDbEntity
  8
寸法
440
 16777216
100
AcDbLine
 10
143.1769157133214
 20
117.2272778038151
 30
0.0
 11
143.1769157133214
 21
119.2272778038151
 31
0.0
  0
LINE
  5
47D4
330
426D
100
AcDbEntity
  8
寸法
440
 16777216
100
AcDbLine
 10
143.1769157133214
 20
109.2272778038154
 30
0.0
 11
143.1769157133214
 21
115.2272778038151
 31
0.0
  0
SOLID
  5
47D5
330
426D
100
AcDbEntity
  8
寸法
440
 16777216
100
AcDbTrace
 10
142.8435823799881
 20
107.2272778038154
 30
0.0
 11
143.5102490466547
 21
107.2272778038154
 31
0.0
 12
143.1769157133214
 22
109.2272778038154
 32
0.0
 13
143.1769157133214
 23
109.2272778038154
 33
0.0
  0
SOLID
  5
47D6
330
426D
100
AcDbEntity
  8
寸法
440
 16777216
100
AcDbTrace
 10
142.8435823799881
 20
117.2272778038151
 30
0.0
 11
143.5102490466547
 21
117.2272778038151
 31
0.0
 12
143.1769157133214
 22
115.2272778038151
 32
0.0
 13
143.1769157133214
 23
115.2272778038151
 33
0.0
  0
MTEXT
  5
47D7
330
426D
100
AcDbEntity
  8
寸法
440
 16777216
100
AcDbMText
 10
140.9269157133214
 20
112.2272778038152
 30
0.0
 40
2.5
 41
0.0
 46
0.0
 71
     5
 72
     1
  1
\A1;6
 11
0.0000000000000001
 21
1.0
 31
0.0
 73
     1
 44
1.0
  0
POINT
  5
47D8
330
426D
100
AcDbEntity
  8
Defpoints
 62
     0
440
 16777216
100
AcDbPoint
 10
156.2482126716588
 20
109.2272778038154
 30
0.0
  0
POINT
  5
47D9
330
426D
100
AcDbEntity
  8
Defpoints
 62
     0
440
 16777216
100
AcDbPoint
 10
151.7482126716588
 20
115.2272778038151
 30
0.0
  0
POINT
  5
47DA
330
426D
100
AcDbEntity
  8
Defpoints
 62
     0
440
 16777216
100
AcDbPoint
 10
143.1769157133214
 20
115.2272778038151
 30
0.0
  0
ENDBLK
  5
426F
330
426D
100
AcDbEntity
  8
0
100
AcDbBlockEnd
  0
BLOCK
  5
42EF
330
42EE
100
AcDbEntity
  8
0
100
AcDbBlockBegin
  2
*D26
 70
     1
 10
0.0
 20
0.0
 30
0.0
  3
*D26
  1

  0
LINE
  5
4493
330
42EE
100
AcDbEntity
  8
寸法
440
 16777216
100
AcDbLine
 10
136.7594300852445
 20
154.7272778038151
 30
0.0
 11
185.7482126716588
 21
154.7272778038151
 31
0.0
  0
LINE
  5
4494
330
42EE
100
AcDbEntity
  8
寸法
440
 16777216
100
AcDbLine
 10
164.7482126716588
 20
136.2272778038151
 30
0.0
 11
185.7482126716588
 21
136.2272778038151
 31
0.0
  0
LINE
  5
4495
330
42EE
100
AcDbEntity
  8
寸法
440
 16777216
100
AcDbLine
 10
184.7482126716588
 20
152.7272778038151
 30
0.0
 11
184.7482126716588
 21
138.2272778038151
 31
0.0
  0
SOLID
  5
4496
330
42EE
100
AcDbEntity
  8
寸法
440
 16777216
100
AcDbTrace
 10
184.4148793383255
 20
152.7272778038151
 30
0.0
 11
185.0815460049922
 21
152.7272778038151
 31
0.0
 12
184.7482126716588
 22
154.7272778038151
 32
0.0
 13
184.7482126716588
 23
154.7272778038151
 33
0.0
  0
SOLID
  5
4497
330
42EE
100
AcDbEntity
  8
寸法
440
 16777216
100
AcDbTrace
 10
184.4148793383255
 20
138.2272778038151
 30
0.0
 11
185.0815460049922
 21
138.2272778038151
 31
0.0
 12
184.7482126716588
 22
136.2272778038151
 32
0.0
 13
184.7482126716588
 23
136.2272778038151
 33
0.0
  0
MTEXT
  5
4498
330
42EE
100
AcDbEntity
  8
寸法
440
 16777216
100
AcDbMText
 10
182.4982126716588
 20
145.4772778038151
 30
0.0
 40
2.5
 41
0.0
 46
0.0
 71
     5
 72
     1
  1
\A1;18.5
 11
0.0000000000000001
 21
1.0
 31
0.0
 73
     1
 44
1.0
  0
POINT
  5
4499
330
42EE
100
AcDbEntity
  8
Defpoints
 62
     0
440
 16777216
100
AcDbPoint
 10
135.7594300852445
 20
154.7272778038151
 30
0.0
  0
POINT
  5
449A
330
42EE
100
AcDbEntity
  8
Defpoints
 62
     0
440
 16777216
100
AcDbPoint
 10
163.7482126716588
 20
136.2272778038151
 30
0.0
  0
POINT
  5
449B
330
42EE
100
AcDbEntity
  8
Defpoints
 62
     0
440
 16777216
100
AcDbPoint
 10
184.7482126716588
 20
136.2272778038151
 30
0.0
  0
ENDBLK
  5
42F0
330
42EE
100
AcDbEntity
  8
0
100
AcDbBlockEnd
  0
BLOCK
  5
4307
330
4306
100
AcDbEntity
  8
0
100
AcDbBlockBegin
  2
*D27
 70
     1
 10
0.0
 20
0.0
 30
0.0
  3
*D27
  1

  0
LINE
  5
448A
330
4306
100
AcDbEntity
  8
寸法
440
 16777216
100
AcDbLine
 10
164.7482126716588
 20
136.2272778038151
 30
0.0
 11
185.7482126716588
 21
136.2272778038151
 31
0.0
  0
LINE
  5
448B
330
4306
100
AcDbEntity
  8
寸法
440
 16777216
100
AcDbLine
 10
164.7482126716588
 20
94.22727780381515
 30
0.0
 11
185.7482126716588
 21
94.22727780381515
 31
0.0
  0
LINE
  5
448C
330
4306
100
AcDbEntity
  8
寸法
440
 16777216
100
AcDbLine
 10
184.7482126716588
 20
134.2272778038151
 30
0.0
 11
184.7482126716588
 21
96.22727780381516
 31
0.0
  0
MTEXT
  5
448D
330
4306
100
AcDbEntity
  8
寸法
440
 16777216
100
AcDbMText
 10
182.4982126716588
 20
118.306769425687
 30
0.0
 40
2.5
 41
0.0
 46
0.0
 71
     5
 72
     1
  1
\A1;42
 11
0.0000000000000001
 21
1.0
 31
0.0
 73
     1
 44
1.0
  0
SOLID
  5
448E
330
4306
100
AcDbEntity
  8
寸法
440
 16777216
100
AcDbTrace
 10
184.4148793383255
 20
134.2272778038151
 30
0.0
 11
185.0815460049922
 21
134.2272778038151
 31
0.0
 12
184.7482126716588
 22
136.2272778038151
 32
0.0
 13
184.7482126716588
 23
136.2272778038151
 33
0.0
  0
SOLID
  5
448F
330
4306
100
AcDbEntity
  8
寸法
440
 16777216
100
AcDbTrace
 10
184.4148793383255
 20
96.22727780381516
 30
0.0
 11
185.0815460049922
 21
96.22727780381516
 31
0.0
 12
184.7482126716588
 22
94.22727780381515
 32
0.0
 13
184.7482126716588
 23
94.22727780381515
 33
0.0
  0
POINT
  5
4490
330
4306
100
AcDbEntity
  8
Defpoints
 62
     0
440
 16777216
100
AcDbPoint
 10
163.7482126716588
 20
136.2272778038151
 30
0.0
  0
POINT
  5
4491
330
4306
100
AcDbEntity
  8
Defpoints
 62
     0
440
 16777216
100
AcDbPoint
 10
163.7482126716588
 20
94.22727780381515
 30
0.0
  0
POINT
  5
4492
330
4306
100
AcDbEntity
  8
Defpoints
 62
     0
440
 16777216
100
AcDbPoint
 10
184.7482126716588
 20
94.22727780381515
 30
0.0
  0
ENDBLK
  5
4308
330
4306
100
AcDbEntity
  8
0
100
AcDbBlockEnd
  0
BLOCK
  5
431F
330
431E
100
AcDbEntity
  8
0
100
AcDbBlockBegin
  2
*D28
 70
     1
 10
0.0
 20
0.0
 30
0.0
  3
*D28
  1

  0
LINE
  5
449C
330
431E
100
AcDbEntity
  8
寸法
440
 16777216
100
AcDbLine
 10
164.7482126716588
 20
94.22727780381515
 30
0.0
 11
185.7482126716588
 21
94.22727780381515
 31
0.0
  0
LINE
  5
449D
330
431E
100
AcDbEntity
  8
寸法
440
 16777216
100
AcDbLine
 10
136.7594300852445
 20
75.72727780381511
 30
0.0
 11
185.7482126716588
 21
75.7272778038151
 31
0.0
  0
LINE
  5
449E
330
431E
100
AcDbEntity
  8
寸法
440
 16777216
100
AcDbLine
 10
184.7482126716588
 20
92.22727780381516
 30
0.0
 11
184.7482126716588
 21
77.7272778038151
 31
0.0
  0
SOLID
  5
449F
330
431E
100
AcDbEntity
  8
寸法
440
 16777216
100
AcDbTrace
 10
184.4148793383255
 20
92.22727780381516
 30
0.0
 11
185.0815460049922
 21
92.22727780381516
 31
0.0
 12
184.7482126716588
 22
94.22727780381515
 32
0.0
 13
184.7482126716588
 23
94.22727780381515
 33
0.0
  0
SOLID
  5
44A0
330
431E
100
AcDbEntity
  8
寸法
440
 16777216
100
AcDbTrace
 10
184.4148793383255
 20
77.7272778038151
 30
0.0
 11
185.0815460049922
 21
77.7272778038151
 31
0.0
 12
184.7482126716588
 22
75.7272778038151
 32
0.0
 13
184.7482126716588
 23
75.7272778038151
 33
0.0
  0
MTEXT
  5
44A1
330
431E
100
AcDbEntity
  8
寸法
440
 16777216
100
AcDbMText
 10
182.4982126716588
 20
84.97727780381515
 30
0.0
 40
2.5
 41
0.0
 46
0.0
 71
     5
 72
     1
  1
\A1;18.5
 11
0.0000000000000001
 21
1.0
 31
0.0
 73
     1
 44
1.0
  0
POINT
  5
44A2
330
431E
100
AcDbEntity
  8
Defpoints
 62
     0
440
 16777216
100
AcDbPoint
 10
163.7482126716588
 20
94.22727780381515
 30
0.0
  0
POINT
  5
44A3
330
431E
100
AcDbEntity
  8
Defpoints
 62
     0
440
 16777216
100
AcDbPoint
 10
135.7594300852445
 20
75.72727780381511
 30
0.0
  0
POINT
  5
44A4
330
431E
100
AcDbEntity
  8
Defpoints
 62
     0
440
 16777216
100
AcDbPoint
 10
184.7482126716588
 20
75.7272778038151
 30
0.0
  0
ENDBLK
  5
4320
330
431E
100
AcDbEntity
  8
0
100
AcDbBlockEnd
  0
BLOCK
  5
437E
330
437D
100
AcDbEntity
  8
0
100
AcDbBlockBegin
  2
*D29
 70
     1
 10
0.0
 20
0.0
 30
0.0
  3
*D29
  1

  0
LINE
  5
44C1
330
437D
100
AcDbEntity
  8
寸法
440
 16777216
100
AcDbLine
 10
136.7594300852445
 20
154.7272778038151
 30
0.0
 11
195.7482126716588
 21
154.727277803815
 31
0.0
  0
LINE
  5
44C2
330
437D
100
AcDbEntity
  8
寸法
440
 16777216
100
AcDbLine
 10
136.7594300852445
 20
75.72727780381511
 30
0.0
 11
195.7482126716588
 21
75.7272778038151
 31
0.0
  0
LINE
  5
44C3
330
437D
100
AcDbEntity
  8
寸法
440
 16777216
100
AcDbLine
 10
194.7482126716588
 20
152.7272778038151
 30
0.0
 11
194.7482126716588
 21
77.7272778038151
 31
0.0
  0
MTEXT
  5
44C4
330
437D
100
AcDbEntity
  8
寸法
440
 16777216
100
AcDbMText
 10
191.855663762568
 20
119.8425745306413
 30
0.0
 40
2.5
 41
0.0
 46
0.0
 71
     5
 72
     1
  1
\A1;(79)
 11
0.0000000000000001
 21
1.0
 31
0.0
 73
     1
 44
1.0
  0
SOLID
  5
44C5
330
437D
100
AcDbEntity
  8
寸法
440
 16777216
100
AcDbTrace
 10
194.4148793383255
 20
152.7272778038151
 30
0.0
 11
195.0815460049922
 21
152.7272778038151
 31
0.0
 12
194.7482126716588
 22
154.727277803815
 32
0.0
 13
194.7482126716588
 23
154.727277803815
 33
0.0
  0
SOLID
  5
44C6
330
437D
100
AcDbEntity
  8
寸法
440
 16777216
100
AcDbTrace
 10
194.4148793383255
 20
77.7272778038151
 30
0.0
 11
195.0815460049922
 21
77.7272778038151
 31
0.0
 12
194.7482126716588
 22
75.7272778038151
 32
0.0
 13
194.7482126716588
 23
75.7272778038151
 33
0.0
  0
POINT
  5
44C7
330
437D
100
AcDbEntity
  8
Defpoints
 62
     0
440
 16777216
100
AcDbPoint
 10
135.7594300852445
 20
154.7272778038151
 30
0.0
  0
POINT
  5
44C8
330
437D
100
AcDbEntity
  8
Defpoints
 62
     0
440
 16777216
100
AcDbPoint
 10
135.7594300852445
 20
75.72727780381511
 30
0.0
  0
POINT
  5
44C9
330
437D
100
AcDbEntity
  8
Defpoints
 62
     0
440
 16777216
100
AcDbPoint
 10
194.7482126716588
 20
75.7272778038151
 30
0.0
  0
ENDBLK
  5
437F
330
437D
100
AcDbEntity
  8
0
100
AcDbBlockEnd
  0
BLOCK
  5
440E
330
440D
100
AcDbEntity
  8
0
100
AcDbBlockBegin
  2
*D30
 70
     1
 10
0.0
 20
0.0
 30
0.0
  3
*D30
  1

  0
LINE
  5
47AF
330
440D
100
AcDbEntity
  8
寸法
440
 16777216
100
AcDbLine
 10
218.4921566366921
 20
74.72727780381511
 30
0.0
 11
218.4921566366921
 21
59.72727780381511
 31
0.0
  0
LINE
  5
47B0
330
440D
100
AcDbEntity
  8
寸法
440
 16777216
100
AcDbLine
 10
217.4921566366921
 20
74.72727780381511
 30
0.0
 11
217.4921566366921
 21
59.72727780381511
 31
0.0
  0
LINE
  5
47B1
330
440D
100
AcDbEntity
  8
寸法
440
 16777216
100
AcDbLine
 10
220.4921566366921
 20
60.72727780381511
 30
0.0
 11
222.4921566366921
 21
60.72727780381511
 31
0.0
  0
LINE
  5
47B2
330
440D
100
AcDbEntity
  8
寸法
440
 16777216
100
AcDbLine
 10
215.4921566366921
 20
60.72727780381511
 30
0.0
 11
207.0046509407244
 21
60.72727780381511
 31
0.0
  0
LINE
  5
47B3
330
440D
100
AcDbEntity
  8
寸法
440
 16777216
100
AcDbLine
 10
218.4921566366921
 20
60.72727780381511
 30
0.0
 11
217.4921566366921
 21
60.72727780381511
 31
0.0
  0
SOLID
  5
47B4
330
440D
100
AcDbEntity
  8
寸法
440
 16777216
100
AcDbTrace
 10
220.4921566366921
 20
61.06061113714845
 30
0.0
 11
220.4921566366921
 21
60.39394447048177
 31
0.0
 12
218.4921566366921
 22
60.72727780381511
 32
0.0
 13
218.4921566366921
 23
60.72727780381511
 33
0.0
  0
SOLID
  5
47B5
330
440D
100
AcDbEntity
  8
寸法
440
 16777216
100
AcDbTrace
 10
215.4921566366921
 20
61.06061113714845
 30
0.0
 11
215.4921566366921
 21
60.39394447048177
 31
0.0
 12
217.4921566366921
 22
60.72727780381511
 32
0.0
 13
217.4921566366921
 23
60.72727780381511
 33
0.0
  0
MTEXT
  5
47B6
330
440D
100
AcDbEntity
  8
寸法
440
 16777216
100
AcDbMText
 10
208.4213176073911
 20
62.97727780381511
 30
0.0
 40
2.5
 41
0.0
 46
0.0
 71
     5
 72
     1
  1
\A1;1
 73
     1
 44
1.0
  0
POINT
  5
47B7
330
440D
100
AcDbEntity
  8
Defpoints
 62
     0
440
 16777216
100
AcDbPoint
 10
218.4921566366921
 20
75.72727780381511
 30
0.0
  0
POINT
  5
47B8
330
440D
100
AcDbEntity
  8
Defpoints
 62
     0
440
 16777216
100
AcDbPoint
 10
217.4921566366921
 20
75.72727780381511
 30
0.0
  0
POINT
  5
47B9
330
440D
100
AcDbEntity
  8
Defpoints
 62
     0
440
 16777216
100
AcDbPoint
 10
217.4921566366921
 20
60.72727780381511
 30
0.0
  0
ENDBLK
  5
440F
330
440D
100
AcDbEntity
  8
0
100
AcDbBlockEnd
  0
BLOCK
  5
442A
330
4429
100
AcDbEntity
  8
0
100
AcDbBlockBegin
  2
*D31
 70
     1
 10
0.0
 20
0.0
 30
0.0
  3
*D31
  1

  0
LINE
  5
4683
330
4429
100
AcDbEntity
  8
寸法
440
 16777216
100
AcDbLine
 10
218.4921566366921
 20
74.72727780381511
 30
0.0
 11
218.4921566366921
 21
49.72727780381511
 31
0.0
  0
LINE
  5
4684
330
4429
100
AcDbEntity
  8
寸法
440
 16777216
100
AcDbLine
 10
213.4921566366921
 20
93.2272778038151
 30
0.0
 11
213.4921566366921
 21
49.72727780381511
 31
0.0
  0
LINE
  5
4685
330
4429
100
AcDbEntity
  8
寸法
440
 16777216
100
AcDbLine
 10
220.4921566366921
 20
50.72727780381511
 30
0.0
 11
222.4921566366921
 21
50.72727780381511
 31
0.0
  0
LINE
  5
4686
330
4429
100
AcDbEntity
  8
寸法
440
 16777216
100
AcDbLine
 10
211.4921566366921
 20
50.72727780381511
 30
0.0
 11
209.4921566366921
 21
50.72727780381511
 31
0.0
  0
LINE
  5
4687
330
4429
100
AcDbEntity
  8
寸法
440
 16777216
100
AcDbLine
 10
218.4921566366921
 20
50.72727780381511
 30
0.0
 11
213.4921566366921
 21
50.72727780381511
 31
0.0
  0
SOLID
  5
4688
330
4429
100
AcDbEntity
  8
寸法
440
 16777216
100
AcDbTrace
 10
220.4921566366921
 20
51.06061113714845
 30
0.0
 11
220.4921566366921
 21
50.39394447048177
 31
0.0
 12
218.4921566366921
 22
50.72727780381511
 32
0.0
 13
218.4921566366921
 23
50.72727780381511
 33
0.0
  0
SOLID
  5
4689
330
4429
100
AcDbEntity
  8
寸法
440
 16777216
100
AcDbTrace
 10
211.4921566366921
 20
51.06061113714845
 30
0.0
 11
211.4921566366921
 21
50.39394447048177
 31
0.0
 12
213.4921566366921
 22
50.72727780381511
 32
0.0
 13
213.4921566366921
 23
50.72727780381511
 33
0.0
  0
MTEXT
  5
468A
330
4429
100
AcDbEntity
  8
寸法
440
 16777216
100
AcDbMText
 10
215.9921566366922
 20
52.97727780381511
 30
0.0
 40
2.5
 41
0.0
 46
0.0
 71
     5
 72
     1
  1
\A1;5
 73
     1
 44
1.0
  0
POINT
  5
468B
330
4429
100
AcDbEntity
  8
Defpoints
 62
     0
440
 16777216
100
AcDbPoint
 10
218.4921566366921
 20
75.72727780381511
 30
0.0
  0
POINT
  5
468C
330
4429
100
AcDbEntity
  8
Defpoints
 62
     0
440
 16777216
100
AcDbPoint
 10
213.4921566366921
 20
94.2272778038151
 30
0.0
  0
POINT
  5
468D
330
4429
100
AcDbEntity
  8
Defpoints
 62
     0
440
 16777216
100
AcDbPoint
 10
213.4921566366921
 20
50.72727780381511
 30
0.0
  0
ENDBLK
  5
442B
330
4429
100
AcDbEntity
  8
0
100
AcDbBlockEnd
  0
BLOCK
  5
4500
330
44FF
100
AcDbEntity
  8
0
100
AcDbBlockBegin
  2
*D32
 70
     1
 10
0.0
 20
0.0
 30
0.0
  3
*D32
  1

  0
LINE
  5
4588
330
44FF
100
AcDbEntity
  8
寸法
440
 16777216
100
AcDbLine
 10
82.46377040357842
 20
159.3341358247349
 30
0.0
 11
104.3722533490775
 21
151.4467177400027
 31
0.0
  0
LINE
  5
4589
330
44FF
100
AcDbEntity
  8
寸法
440
 16777216
100
AcDbLine
 10
111.1466068214114
 20
149.0078378676274
 30
0.0
 11
113.0283716748375
 21
148.3303712364121
 31
0.0
  0
MTEXT
  5
458A
330
44FF
100
AcDbEntity
  8
寸法
440
 16777216
100
AcDbMText
 10
93.3643797819737
 20
158.1936305452192
 30
0.0
 40
2.5
 41
0.0
 46
0.0
 71
     5
 72
     1
  1
\A1;2-∅3.2 {\fMS PGothic|b0|i0|c128|p50;穴}
 11
0.9408824267130448
 21
-0.3387333156076798
 31
0.0
 73
     1
 44
1.0
  0
LINE
  5
458B
330
44FF
100
AcDbEntity
  8
寸法
440
 16777216
100
AcDbLine
 10
109.2648419679854
 20
149.6853044988428
 30
0.0
 11
106.2540182025036
 21
150.7692511087873
 31
0.0
  0
SOLID
  5
458C
330
44FF
100
AcDbEntity
  8
寸法
440
 16777216
100
AcDbTrace
 10
111.259517926614
 20
149.3214653431984
 30
0.0
 11
111.0336957162089
 21
148.6942103920564
 31
0.0
 12
109.2648419679854
 22
149.6853044988428
 32
0.0
 13
109.2648419679854
 23
149.6853044988428
 33
0.0
  0
SOLID
  5
458D
330
44FF
100
AcDbEntity
  8
寸法
440
 16777216
100
AcDbTrace
 10
104.4851644542801
 20
151.7603452155737
 30
0.0
 11
104.2593422438749
 21
151.1330902644316
 31
0.0
 12
106.2540182025036
 22
150.7692511087873
 32
0.0
 13
106.2540182025036
 23
150.7692511087873
 33
0.0
  0
POINT
  5
458E
330
44FF
100
AcDbEntity
  8
Defpoints
 62
     0
440
 16777216
100
AcDbPoint
 10
106.2540182025036
 20
150.7692511087873
 30
0.0
  0
POINT
  5
458F
330
44FF
100
AcDbEntity
  8
Defpoints
 62
     0
440
 16777216
100
AcDbPoint
 10
109.2648419679854
 20
149.6853044988428
 30
0.0
  0
ENDBLK
  5
4501
330
44FF
100
AcDbEntity
  8
0
100
AcDbBlockEnd
  0
BLOCK
  5
4526
330
4525
100
AcDbEntity
  8
0
100
AcDbBlockBegin
  2
*D33
 70
     1
 10
0.0
 20
0.0
 30
0.0
  3
*D33
  1

  0
LINE
  5
4545
330
4525
100
AcDbEntity
  8
寸法
440
 16777216
100
AcDbLine
 10
111.2594300852445
 20
150.2272778038151
 30
0.0
 11
117.9193180395643
 21
150.2272778038151
 31
0.0
  0
LINE
  5
4546
330
4525
100
AcDbEntity
  8
寸法
440
 16777216
100
AcDbLine
 10
129.2594300852445
 20
80.22727780381512
 30
0.0
 11
115.9193180395643
 21
80.22727780381512
 31
0.0
  0
LINE
  5
4547
330
4525
100
AcDbEntity
  8
寸法
440
 16777216
100
AcDbLine
 10
116.9193180395643
 20
148.2272778038151
 30
0.0
 11
116.9193180395643
 21
82.22727780381511
 31
0.0
  0
SOLID
  5
4548
330
4525
100
AcDbEntity
  8
寸法
440
 16777216
100
AcDbTrace
 10
116.585984706231
 20
148.2272778038151
 30
0.0
 11
117.2526513728976
 21
148.2272778038151
 31
0.0
 12
116.9193180395643
 22
150.2272778038151
 32
0.0
 13
116.9193180395643
 23
150.2272778038151
 33
0.0
  0
SOLID
  5
4549
330
4525
100
AcDbEntity
  8
寸法
440
 16777216
100
AcDbTrace
 10
116.585984706231
 20
82.22727780381511
 30
0.0
 11
117.2526513728976
 21
82.22727780381511
 31
0.0
 12
116.9193180395643
 22
80.22727780381512
 32
0.0
 13
116.9193180395643
 23
80.22727780381512
 33
0.0
  0
MTEXT
  5
454A
330
4525
100
AcDbEntity
  8
寸法
440
 16777216
100
AcDbMText
 10
114.6693180395643
 20
118.1028375772069
 30
0.0
 40
2.5
 41
0.0
 46
0.0
 71
     5
 72
     1
  1
\A1;70
 11
0.0000000000000001
 21
1.0
 31
0.0
 73
     1
 44
1.0
  0
POINT
  5
454B
330
4525
100
AcDbEntity
  8
Defpoints
 62
     0
440
 16777216
100
AcDbPoint
 10
110.2594300852445
 20
150.2272778038151
 30
0.0
  0
POINT
  5
454C
330
4525
100
AcDbEntity
  8
Defpoints
 62
     0
440
 16777216
100
AcDbPoint
 10
130.2594300852445
 20
80.22727780381512
 30
0.0
  0
POINT
  5
454D
330
4525
100
AcDbEntity
  8
Defpoints
 62
     0
440
 16777216
100
AcDbPoint
 10
116.9193180395643
 20
80.22727780381512
 30
0.0
  0
ENDBLK
  5
4527
330
4525
100
AcDbEntity
  8
0
100
AcDbBlockEnd
  0
BLOCK
  5
4550
330
454F
100
AcDbEntity
  8
0
100
AcDbBlockBegin
  2
*D34
 70
     1
 10
0.0
 20
0.0
 30
0.0
  3
*D34
  1

  0
LINE
  5
456F
330
454F
100
AcDbEntity
  8
寸法
440
 16777216
100
AcDbLine
 10
107.7594300852445
 20
146.7272778038151
 30
0.0
 11
107.7594300852445
 21
92.01332287154501
 31
0.0
  0
LINE
  5
4570
330
454F
100
AcDbEntity
  8
寸法
440
 16777216
100
AcDbLine
 10
132.7594300852445
 20
83.72727780381511
 30
0.0
 11
132.7594300852445
 21
94.01332287154501
 31
0.0
  0
LINE
  5
4571
330
454F
100
AcDbEntity
  8
寸法
440
 16777216
100
AcDbLine
 10
109.7594300852445
 20
93.01332287154501
 30
0.0
 11
130.7594300852445
 21
93.01332287154501
 31
0.0
  0
SOLID
  5
4572
330
454F
100
AcDbEntity
  8
寸法
440
 16777216
100
AcDbTrace
 10
109.7594300852445
 20
93.34665620487834
 30
0.0
 11
109.7594300852445
 21
92.67998953821168
 31
0.0
 12
107.7594300852445
 22
93.01332287154501
 32
0.0
 13
107.7594300852445
 23
93.01332287154501
 33
0.0
  0
SOLID
  5
4573
330
454F
100
AcDbEntity
  8
寸法
440
 16777216
100
AcDbTrace
 10
130.7594300852445
 20
93.34665620487834
 30
0.0
 11
130.7594300852445
 21
92.67998953821168
 31
0.0
 12
132.7594300852445
 22
93.01332287154501
 32
0.0
 13
132.7594300852445
 23
93.01332287154501
 33
0.0
  0
MTEXT
  5
4574
330
454F
100
AcDbEntity
  8
寸法
440
 16777216
100
AcDbMText
 10
123.4007658112642
 20
95.26332287154501
 30
0.0
 40
2.5
 41
0.0
 46
0.0
 71
     5
 72
     1
  1
\A1;25
 73
     1
 44
1.0
  0
POINT
  5
4575
330
454F
100
AcDbEntity
  8
Defpoints
 62
     0
440
 16777216
100
AcDbPoint
 10
107.7594300852445
 20
147.7272778038151
 30
0.0
  0
POINT
  5
4576
330
454F
100
AcDbEntity
  8
Defpoints
 62
     0
440
 16777216
100
AcDbPoint
 10
132.7594300852445
 20
82.72727780381512
 30
0.0
  0
POINT
  5
4577
330
454F
100
AcDbEntity
  8
Defpoints
 62
     0
440
 16777216
100
AcDbPoint
 10
132.7594300852445
 20
93.01332287154501
 30
0.0
  0
ENDBLK
  5
4551
330
454F
100
AcDbEntity
  8
0
100
AcDbBlockEnd
  0
BLOCK
  5
45FB
330
45FA
100
AcDbEntity
  8
0
100
AcDbBlockBegin
  2
*D35
 70
     1
 10
0.0
 20
0.0
 30
0.0
  3
*D35
  1

  0
LINE
  5
4607
330
45FA
100
AcDbEntity
  8
寸法
440
 16777216
100
AcDbLine
 10
136.7594300852445
 20
75.72727780381511
 30
0.0
 11
136.7594300852445
 21
59.72727780381511
 31
0.0
  0
LINE
  5
4608
330
45FA
100
AcDbEntity
  8
寸法
440
 16777216
100
AcDbLine
 10
103.7594300852445
 20
75.7272778038151
 30
0.0
 11
103.7594300852445
 21
59.72727780381511
 31
0.0
  0
LINE
  5
4609
330
45FA
100
AcDbEntity
  8
寸法
440
 16777216
100
AcDbLine
 10
134.7594300852445
 20
60.72727780381511
 30
0.0
 11
105.7594300852445
 21
60.72727780381511
 31
0.0
  0
SOLID
  5
460A
330
45FA
100
AcDbEntity
  8
寸法
440
 16777216
100
AcDbTrace
 10
134.7594300852445
 20
61.06061113714845
 30
0.0
 11
134.7594300852445
 21
60.39394447048177
 31
0.0
 12
136.7594300852445
 22
60.72727780381511
 32
0.0
 13
136.7594300852445
 23
60.72727780381511
 33
0.0
  0
SOLID
  5
460B
330
45FA
100
AcDbEntity
  8
寸法
440
 16777216
100
AcDbTrace
 10
105.7594300852445
 20
61.06061113714845
 30
0.0
 11
105.7594300852445
 21
60.39394447048177
 31
0.0
 12
103.7594300852445
 22
60.72727780381511
 32
0.0
 13
103.7594300852445
 23
60.72727780381511
 33
0.0
  0
MTEXT
  5
460C
330
45FA
100
AcDbEntity
  8
寸法
440
 16777216
100
AcDbMText
 10
120.2594300852445
 20
62.97727780381511
 30
0.0
 40
2.5
 41
0.0
 46
0.0
 71
     5
 72
     1
  1
\A1;33
 73
     1
 44
1.0
  0
POINT
  5
460D
330
45FA
100
AcDbEntity
  8
Defpoints
 62
     0
440
 16777216
100
AcDbPoint
 10
136.7594300852445
 20
76.72727780381511
 30
0.0
  0
POINT
  5
460E
330
45FA
100
AcDbEntity
  8
Defpoints
 62
     0
440
 16777216
100
AcDbPoint
 10
103.7594300852445
 20
76.7272778038151
 30
0.0
  0
POINT
  5
460F
330
45FA
100
AcDbEntity
  8
Defpoints
 62
     0
440
 16777216
100
AcDbPoint
 10
103.7594300852445
 20
60.72727780381511
 30
0.0
  0
ENDBLK
  5
45FC
330
45FA
100
AcDbEntity
  8
0
100
AcDbBlockEnd
  0
BLOCK
  5
4613
330
4612
100
AcDbEntity
  8
0
100
AcDbBlockBegin
  2
*D36
 70
     1
 10
0.0
 20
0.0
 30
0.0
  3
*D36
  1

  0
LINE
  5
461F
330
4612
100
AcDbEntity
  8
寸法
440
 16777216
100
AcDbLine
 10
164.7482126716588
 20
94.22727780381515
 30
0.0
 11
164.7482126716588
 21
49.72727780381511
 31
0.0
  0
LINE
  5
4620
330
4612
100
AcDbEntity
  8
寸法
440
 16777216
100
AcDbLine
 10
152.7482126716588
 20
93.2272778038151
 30
0.0
 11
152.7482126716588
 21
49.72727780381511
 31
0.0
  0
LINE
  5
4621
330
4612
100
AcDbEntity
  8
寸法
440
 16777216
100
AcDbLine
 10
162.7482126716588
 20
50.72727780381511
 30
0.0
 11
154.7482126716588
 21
50.72727780381511
 31
0.0
  0
SOLID
  5
4622
330
4612
100
AcDbEntity
  8
寸法
440
 16777216
100
AcDbTrace
 10
162.7482126716588
 20
51.06061113714845
 30
0.0
 11
162.7482126716588
 21
50.39394447048177
 31
0.0
 12
164.7482126716588
 22
50.72727780381511
 32
0.0
 13
164.7482126716588
 23
50.72727780381511
 33
0.0
  0
SOLID
  5
4623
330
4612
100
AcDbEntity
  8
寸法
440
 16777216
100
AcDbTrace
 10
154.7482126716588
 20
51.06061113714845
 30
0.0
 11
154.7482126716588
 21
50.39394447048177
 31
0.0
 12
152.7482126716588
 22
50.72727780381511
 32
0.0
 13
152.7482126716588
 23
50.72727780381511
 33
0.0
  0
MTEXT
  5
4624
330
4612
100
AcDbEntity
  8
寸法
440
 16777216
100
AcDbMText
 10
158.7482126716588
 20
52.97727780381511
 30
0.0
 40
2.5
 41
0.0
 46
0.0
 71
     5
 72
     1
  1
\A1;12
 73
     1
 44
1.0
  0
POINT
  5
4625
330
4612
100
AcDbEntity
  8
Defpoints
 62
     0
440
 16777216
100
AcDbPoint
 10
164.7482126716588
 20
95.22727780381515
 30
0.0
  0
POINT
  5
4626
330
4612
100
AcDbEntity
  8
Defpoints
 62
     0
440
 16777216
100
AcDbPoint
 10
152.7482126716588
 20
94.22727780381512
 30
0.0
  0
POINT
  5
4627
330
4612
100
AcDbEntity
  8
Defpoints
 62
     0
440
 16777216
100
AcDbPoint
 10
152.7482126716588
 20
50.72727780381511
 30
0.0
  0
ENDBLK
  5
4614
330
4612
100
AcDbEntity
  8
0
100
AcDbBlockEnd
  0
BLOCK
  5
462B
330
462A
100
AcDbEntity
  8
0
100
AcDbBlockBegin
  2
*D37
 70
     1
 10
0.0
 20
0.0
 30
0.0
  3
*D37
  1

  0
LINE
  5
4637
330
462A
100
AcDbEntity
  8
寸法
440
 16777216
100
AcDbLine
 10
152.7482126716588
 20
93.2272778038151
 30
0.0
 11
152.7482126716588
 21
49.72727780381511
 31
0.0
  0
LINE
  5
4638
330
462A
100
AcDbEntity
  8
寸法
440
 16777216
100
AcDbLine
 10
87.74821267165883
 20
93.2272778038151
 30
0.0
 11
87.74821267165883
 21
49.72727780381511
 31
0.0
  0
LINE
  5
4639
330
462A
100
AcDbEntity
  8
寸法
440
 16777216
100
AcDbLine
 10
150.7482126716588
 20
50.72727780381511
 30
0.0
 11
89.74821267165884
 21
50.72727780381511
 31
0.0
  0
SOLID
  5
463A
330
462A
100
AcDbEntity
  8
寸法
440
 16777216
100
AcDbTrace
 10
150.7482126716588
 20
51.06061113714845
 30
0.0
 11
150.7482126716588
 21
50.39394447048177
 31
0.0
 12
152.7482126716588
 22
50.72727780381511
 32
0.0
 13
152.7482126716588
 23
50.72727780381511
 33
0.0
  0
SOLID
  5
463B
330
462A
100
AcDbEntity
  8
寸法
440
 16777216
100
AcDbTrace
 10
89.74821267165884
 20
51.06061113714845
 30
0.0
 11
89.74821267165884
 21
50.39394447048177
 31
0.0
 12
87.74821267165883
 22
50.72727780381511
 32
0.0
 13
87.74821267165883
 23
50.72727780381511
 33
0.0
  0
MTEXT
  5
463C
330
462A
100
AcDbEntity
  8
寸法
440
 16777216
100
AcDbMText
 10
120.2482126716588
 20
52.97727780381511
 30
0.0
 40
2.5
 41
0.0
 46
0.0
 71
     5
 72
     1
  1
\A1;65
 73
     1
 44
1.0
  0
POINT
  5
463D
330
462A
100
AcDbEntity
  8
Defpoints
 62
     0
440
 16777216
100
AcDbPoint
 10
152.7482126716588
 20
94.22727780381512
 30
0.0
  0
POINT
  5
463E
330
462A
100
AcDbEntity
  8
Defpoints
 62
     0
440
 16777216
100
AcDbPoint
 10
87.74821267165883
 20
94.22727780381512
 30
0.0
  0
POINT
  5
463F
330
462A
100
AcDbEntity
  8
Defpoints
 62
     0
440
 16777216
100
AcDbPoint
 10
87.74821267165883
 20
50.72727780381511
 30
0.0
  0
ENDBLK
  5
462C
330
462A
100
AcDbEntity
  8
0
100
AcDbBlockEnd
  0
BLOCK
  5
4643
330
4642
100
AcDbEntity
  8
0
100
AcDbBlockBegin
  2
*D38
 70
     1
 10
0.0
 20
0.0
 30
0.0
  3
*D38
  1

  0
LINE
  5
464F
330
4642
100
AcDbEntity
  8
寸法
440
 16777216
100
AcDbLine
 10
87.74821267165883
 20
93.2272778038151
 30
0.0
 11
87.74821267165883
 21
49.72727780381511
 31
0.0
  0
LINE
  5
4650
330
4642
100
AcDbEntity
  8
寸法
440
 16777216
100
AcDbLine
 10
75.74821267165884
 20
94.2272778038151
 30
0.0
 11
75.74821267165884
 21
49.72727780381511
 31
0.0
  0
LINE
  5
4651
330
4642
100
AcDbEntity
  8
寸法
440
 16777216
100
AcDbLine
 10
85.74821267165884
 20
50.72727780381511
 30
0.0
 11
77.74821267165883
 21
50.72727780381511
 31
0.0
  0
SOLID
  5
4652
330
4642
100
AcDbEntity
  8
寸法
440
 16777216
100
AcDbTrace
 10
85.74821267165884
 20
51.06061113714845
 30
0.0
 11
85.74821267165884
 21
50.39394447048177
 31
0.0
 12
87.74821267165883
 22
50.72727780381511
 32
0.0
 13
87.74821267165883
 23
50.72727780381511
 33
0.0
  0
SOLID
  5
4653
330
4642
100
AcDbEntity
  8
寸法
440
 16777216
100
AcDbTrace
 10
77.74821267165883
 20
51.06061113714845
 30
0.0
 11
77.74821267165883
 21
50.39394447048177
 31
0.0
 12
75.74821267165884
 22
50.72727780381511
 32
0.0
 13
75.74821267165884
 23
50.72727780381511
 33
0.0
  0
MTEXT
  5
4654
330
4642
100
AcDbEntity
  8
寸法
440
 16777216
100
AcDbMText
 10
81.74821267165883
 20
52.97727780381511
 30
0.0
 40
2.5
 41
0.0
 46
0.0
 71
     5
 72
     1
  1
\A1;12
 73
     1
 44
1.0
  0
POINT
  5
4655
330
4642
100
AcDbEntity
  8
Defpoints
 62
     0
440
 16777216
100
AcDbPoint
 10
87.74821267165883
 20
94.22727780381512
 30
0.0
  0
POINT
  5
4656
330
4642
100
AcDbEntity
  8
Defpoints
 62
     0
440
 16777216
100
AcDbPoint
 10
75.74821267165884
 20
95.2272778038151
 30
0.0
  0
POINT
  5
4657
330
4642
100
AcDbEntity
  8
Defpoints
 62
     0
440
 16777216
100
AcDbPoint
 10
75.74821267165884
 20
50.72727780381511
 30
0.0
  0
ENDBLK
  5
4644
330
4642
100
AcDbEntity
  8
0
100
AcDbBlockEnd
  0
BLOCK
  5
465B
330
465A
100
AcDbEntity
  8
0
100
AcDbBlockBegin
  2
*D39
 70
     1
 10
0.0
 20
0.0
 30
0.0
  3
*D39
  1

  0
LINE
  5
467A
330
465A
100
AcDbEntity
  8
寸法
440
 16777216
100
AcDbLine
 10
75.74821267165884
 20
94.2272778038151
 30
0.0
 11
75.74821267165884
 21
39.72727780381511
 31
0.0
  0
LINE
  5
467B
330
465A
100
AcDbEntity
  8
寸法
440
 16777216
100
AcDbLine
 10
164.7482126716588
 20
94.22727780381515
 30
0.0
 11
164.7482126716588
 21
39.72727780381511
 31
0.0
  0
LINE
  5
467C
330
465A
100
AcDbEntity
  8
寸法
440
 16777216
100
AcDbLine
 10
77.74821267165883
 20
40.72727780381511
 30
0.0
 11
162.7482126716588
 21
40.72727780381511
 31
0.0
  0
SOLID
  5
467D
330
465A
100
AcDbEntity
  8
寸法
440
 16777216
100
AcDbTrace
 10
77.74821267165883
 20
41.06061113714845
 30
0.0
 11
77.74821267165883
 21
40.39394447048177
 31
0.0
 12
75.74821267165884
 22
40.72727780381511
 32
0.0
 13
75.74821267165884
 23
40.72727780381511
 33
0.0
  0
SOLID
  5
467E
330
465A
100
AcDbEntity
  8
寸法
440
 16777216
100
AcDbTrace
 10
162.7482126716588
 20
41.06061113714845
 30
0.0
 11
162.7482126716588
 21
40.39394447048177
 31
0.0
 12
164.7482126716588
 22
40.72727780381511
 32
0.0
 13
164.7482126716588
 23
40.72727780381511
 33
0.0
  0
MTEXT
  5
467F
330
465A
100
AcDbEntity
  8
寸法
440
 16777216
100
AcDbMText
 10
120.2482126716588
 20
42.97727780381511
 30
0.0
 40
2.5
 41
0.0
 46
0.0
 71
     5
 72
     1
  1
\A1;(89)
 73
     1
 44
1.0
  0
POINT
  5
4680
330
465A
100
AcDbEntity
  8
Defpoints
 62
     0
440
 16777216
100
AcDbPoint
 10
75.74821267165884
 20
95.2272778038151
 30
0.0
  0
POINT
  5
4681
330
465A
100
AcDbEntity
  8
Defpoints
 62
     0
440
 16777216
100
AcDbPoint
 10
164.7482126716588
 20
95.22727780381515
 30
0.0
  0
POINT
  5
4682
330
465A
100
AcDbEntity
  8
Defpoints
 62
     0
440
 16777216
100
AcDbPoint
 10
164.7482126716588
 20
40.72727780381511
 30
0.0
  0
ENDBLK
  5
465C
330
465A
100
AcDbEntity
  8
0
100
AcDbBlockEnd
  0
BLOCK
  5
469B
330
469A
100
AcDbEntity
  8
0
100
AcDbBlockBegin
  2
*D40
 70
     1
 10
0.0
 20
0.0
 30
0.0
  3
*D40
  1

  0
LINE
  5
46B7
330
469A
100
AcDbEntity
  8
寸法
440
 16777216
100
AcDbLine
 10
65.76511213650215
 20
150.289971571001
 30
0.0
 11
79.43602843960923
 21
130.9912943596954
 31
0.0
  0
LINE
  5
46B8
330
469A
100
AcDbEntity
  8
寸法
440
 16777216
100
AcDbLine
 10
84.06039690370846
 20
124.4632612479347
 30
0.0
 11
85.21648901973327
 21
122.8312529699945
 31
0.0
  0
MTEXT
  5
46B9
330
469A
100
AcDbEntity
  8
寸法
440
 16777216
100
AcDbMText
 10
73.09094263769711
 20
144.4797255153517
 30
0.0
 40
2.5
 41
0.0
 46
0.0
 71
     5
 72
     1
  1
\A1;4-∅4 {\fMS PGothic|b0|i0|c128|p50;穴}
 11
0.5780460580124069
 21
-0.8160041389700895
 31
0.0
 73
     1
 44
1.0
  0
LINE
  5
46BA
330
469A
100
AcDbEntity
  8
寸法
440
 16777216
100
AcDbLine
 10
82.90430478768366
 20
126.0952695258749
 30
0.0
 11
80.59212055563405
 21
129.3592860817552
 31
0.0
  0
SOLID
  5
46BB
330
469A
100
AcDbEntity
  8
寸法
440
 16777216
100
AcDbTrace
 10
84.33239828336516
 20
124.6559432672722
 30
0.0
 11
83.78839552405176
 21
124.2705792285972
 31
0.0
 12
82.90430478768366
 22
126.0952695258749
 32
0.0
 13
82.90430478768366
 23
126.0952695258749
 33
0.0
  0
SOLID
  5
46BC
330
469A
100
AcDbEntity
  8
寸法
440
 16777216
100
AcDbTrace
 10
79.70802981926593
 20
131.1839763790329
 30
0.0
 11
79.16402705995253
 21
130.798612340358
 31
0.0
 12
80.59212055563405
 22
129.3592860817552
 32
0.0
 13
80.59212055563405
 23
129.3592860817552
 33
0.0
  0
POINT
  5
46BD
330
469A
100
AcDbEntity
  8
Defpoints
 62
     0
440
 16777216
100
AcDbPoint
 10
80.59212055563405
 20
129.3592860817552
 30
0.0
  0
POINT
  5
46BE
330
469A
100
AcDbEntity
  8
Defpoints
 62
     0
440
 16777216
100
AcDbPoint
 10
82.90430478768366
 20
126.0952695258749
 30
0.0
  0
ENDBLK
  5
469C
330
469A
100
AcDbEntity
  8
0
100
AcDbBlockEnd
  0
BLOCK
  5
46C1
330
46C0
100
AcDbEntity
  8
0
100
AcDbBlockBegin
  2
*D41
 70
     1
 10
0.0
 20
0.0
 30
0.0
  3
*D41
  1

  0
LINE
  5
48C0
330
46C0
100
AcDbEntity
  8
寸法
440
 16777216
100
AcDbLine
 10
66.31542667178959
 20
126.957729862949
 30
0.0
 11
77.90462879997611
 21
122.654464904843
 31
0.0
  0
MTEXT
  5
48C1
330
46C0
100
AcDbEntity
  8
寸法
440
 16777216
100
AcDbMText
 10
71.16096352250616
 20
127.5586045638022
 30
0.0
 40
2.5
 41
0.0
 46
0.0
 71
     5
 72
     1
  1
\A1;R2.1
 11
0.9374594808982207
 21
-0.3480944148848678
 31
0.0
 73
     1
 44
1.0
  0
LINE
  5
48C2
330
46C0
100
AcDbEntity
  8
寸法
440
 16777216
100
AcDbLine
 10
81.7482126716588
 20
121.2272778038151
 30
0.0
 11
79.77954776177255
 21
121.9582760750733
 31
0.0
  0
SOLID
  5
48C3
330
46C0
100
AcDbEntity
  8
寸法
440
 16777216
100
AcDbTrace
 10
78.02066027160439
 20
122.9669513984757
 30
0.0
 11
77.78859732834781
 21
122.3419784112103
 31
0.0
 12
79.77954776177255
 22
121.9582760750733
 32
0.0
 13
79.77954776177255
 23
121.9582760750733
 33
0.0
  0
POINT
  5
48C4
330
46C0
100
AcDbEntity
  8
Defpoints
 62
     0
440
 16777216
100
AcDbPoint
 10
79.77954776177255
 20
121.9582760750733
 30
0.0
  0
POINT
  5
48C5
330
46C0
100
AcDbEntity
  8
Defpoints
 62
     0
440
 16777216
100
AcDbPoint
 10
81.7482126716588
 20
121.2272778038151
 30
0.0
  0
ENDBLK
  5
46C2
330
46C0
100
AcDbEntity
  8
0
100
AcDbBlockEnd
  0
BLOCK
  5
46D3
330
46D2
100
AcDbEntity
  8
0
100
AcDbBlockBegin
  2
*D42
 70
     1
 10
0.0
 20
0.0
 30
0.0
  3
*D42
  1

  0
LINE
  5
48AE
330
46D2
100
AcDbEntity
  8
寸法
440
 16777216
100
AcDbLine
 10
99.67618284831111
 20
106.3559924953725
 30
0.0
 11
86.67771551142747
 21
112.7880152610138
 31
0.0
  0
MTEXT
  5
48AF
330
46D2
100
AcDbEntity
  8
寸法
440
 16777216
100
AcDbMText
 10
96.41676507238416
 20
110.4792431258789
 30
0.0
 40
2.5
 41
0.0
 46
0.0
 71
     5
 72
     1
  1
\A1;R3.5
 11
0.8962732435942941
 21
-0.4435022805093148
 31
0.0
 73
     1
 44
1.0
  0
LINE
  5
48B0
330
46D2
100
AcDbEntity
  8
寸法
440
 16777216
100
AcDbLine
 10
81.74821267165899
 20
115.2272778038151
 30
0.0
 11
84.88516902423889
 21
113.6750198220325
 31
0.0
  0
SOLID
  5
48B1
330
46D2
100
AcDbEntity
  8
寸法
440
 16777216
100
AcDbTrace
 10
86.82554960493058
 20
113.0867730088786
 30
0.0
 11
86.52988141792437
 21
112.4892575131491
 31
0.0
 12
84.88516902423889
 22
113.6750198220325
 32
0.0
 13
84.88516902423889
 23
113.6750198220325
 33
0.0
  0
POINT
  5
48B2
330
46D2
100
AcDbEntity
  8
Defpoints
 62
     0
440
 16777216
100
AcDbPoint
 10
84.88516902423889
 20
113.6750198220325
 30
0.0
  0
POINT
  5
48B3
330
46D2
100
AcDbEntity
  8
Defpoints
 62
     0
440
 16777216
100
AcDbPoint
 10
81.74821267165899
 20
115.2272778038151
 30
0.0
  0
ENDBLK
  5
46D4
330
46D2
100
AcDbEntity
  8
0
100
AcDbBlockEnd
  0
BLOCK
  5
46E5
330
46E4
100
AcDbEntity
  8
0
100
AcDbBlockBegin
  2
*D43
 70
     1
 10
0.0
 20
0.0
 30
0.0
  3
*D43
  1

  0
LINE
  5
48D2
330
46E4
100
AcDbEntity
  8
寸法
440
 16777216
100
AcDbLine
 10
67.63400143165805
 20
99.86836983820509
 30
0.0
 11
78.33116681181326
 21
106.9614892894752
 31
0.0
  0
MTEXT
  5
48D3
330
46E4
100
AcDbEntity
  8
寸法
440
 16777216
100
AcDbMText
 10
70.00209278988515
 20
104.1383137601867
 30
0.0
 40
2.5
 41
0.0
 46
0.0
 71
     5
 72
     1
  1
\A1;R2.1
 11
0.8334258194744448
 21
0.5526313449609516
 31
0.0
 73
     1
 44
1.0
  0
LINE
  5
48D4
330
46E4
100
AcDbEntity
  8
寸法
440
 16777216
100
AcDbLine
 10
81.74821267165842
 20
109.227277803815
 30
0.0
 11
79.99801845076214
 21
108.0667519793971
 31
0.0
  0
SOLID
  5
48D5
330
46E4
100
AcDbEntity
  8
寸法
440
 16777216
100
AcDbTrace
 10
78.14695636349293
 20
107.2392978959667
 30
0.0
 11
78.51537726013358
 21
106.6836806829837
 31
0.0
 12
79.99801845076214
 22
108.0667519793971
 32
0.0
 13
79.99801845076214
 23
108.0667519793971
 33
0.0
  0
POINT
  5
48D6
330
46E4
100
AcDbEntity
  8
Defpoints
 62
     0
440
 16777216
100
AcDbPoint
 10
79.99801845076214
 20
108.0667519793971
 30
0.0
  0
POINT
  5
48D7
330
46E4
100
AcDbEntity
  8
Defpoints
 62
     0
440
 16777216
100
AcDbPoint
 10
81.74821267165842
 20
109.227277803815
 30
0.0
  0
ENDBLK
  5
46E6
330
46E4
100
AcDbEntity
  8
0
100
AcDbBlockEnd
  0
BLOCK
  5
4709
330
4708
100
AcDbEntity
  8
0
100
AcDbBlockBegin
  2
*D44
 70
     1
 10
0.0
 20
0.0
 30
0.0
  3
*D44
  1

  0
LINE
  5
48EB
330
4708
100
AcDbEntity
  8
寸法
440
 16777216
100
AcDbLine
 10
85.24821267165883
 20
127.7272778038151
 30
0.0
 11
105.6405504272524
 21
127.7272778038151
 31
0.0
  0
LINE
  5
48EC
330
4708
100
AcDbEntity
  8
寸法
440
 16777216
100
AcDbLine
 10
85.24821267165883
 20
102.7272778038151
 30
0.0
 11
105.6405504272524
 21
102.727277803815
 31
0.0
  0
LINE
  5
48ED
330
4708
100
AcDbEntity
  8
寸法
440
 16777216
100
AcDbLine
 10
104.6405504272524
 20
125.7272778038151
 30
0.0
 11
104.6405504272524
 21
104.727277803815
 31
0.0
  0
SOLID
  5
48EE
330
4708
100
AcDbEntity
  8
寸法
440
 16777216
100
AcDbTrace
 10
104.3072170939191
 20
125.7272778038151
 30
0.0
 11
104.9738837605858
 21
125.7272778038151
 31
0.0
 12
104.6405504272524
 22
127.7272778038151
 32
0.0
 13
104.6405504272524
 23
127.7272778038151
 33
0.0
  0
SOLID
  5
48EF
330
4708
100
AcDbEntity
  8
寸法
440
 16777216
100
AcDbTrace
 10
104.3072170939191
 20
104.727277803815
 30
0.0
 11
104.9738837605858
 21
104.727277803815
 31
0.0
 12
104.6405504272524
 22
102.727277803815
 32
0.0
 13
104.6405504272524
 23
102.727277803815
 33
0.0
  0
MTEXT
  5
48F0
330
4708
100
AcDbEntity
  8
寸法
440
 16777216
100
AcDbMText
 10
102.3905504272524
 20
118.8491289320566
 30
0.0
 40
2.5
 41
0.0
 46
0.0
 71
     5
 72
     1
  1
\A1;25
 11
0.0000000000000001
 21
1.0
 31
0.0
 73
     1
 44
1.0
  0
POINT
  5
48F1
330
4708
100
AcDbEntity
  8
Defpoints
 62
     0
440
 16777216
100
AcDbPoint
 10
84.24821267165883
 20
127.7272778038151
 30
0.0
  0
POINT
  5
48F2
330
4708
100
AcDbEntity
  8
Defpoints
 62
     0
440
 16777216
100
AcDbPoint
 10
84.24821267165883
 20
102.7272778038151
 30
0.0
  0
POINT
  5
48F3
330
4708
100
AcDbEntity
  8
Defpoints
 62
     0
440
 16777216
100
AcDbPoint
 10
104.6405504272524
 20
102.727277803815
 30
0.0
  0
ENDBLK
  5
470A
330
4708
100
AcDbEntity
  8
0
100
AcDbBlockEnd
  0
BLOCK
  5
4745
330
4744
100
AcDbEntity
  8
0
100
AcDbBlockBegin
  2
*D45
 70
     1
 10
0.0
 20
0.0
 30
0.0
  3
*D45
  1

  0
LINE
  5
4753
330
4744
100
AcDbEntity
  8
寸法
440
 16777216
100
AcDbLine
 10
78.24821267165884
 20
121.2272778038151
 30
0.0
 11
64.45248975981809
 21
121.2272778038151
 31
0.0
  0
LINE
  5
4754
330
4744
100
AcDbEntity
  8
寸法
440
 16777216
100
AcDbLine
 10
69.03887750040428
 20
115.2272778038151
 30
0.0
 11
64.45248975981809
 21
115.2272778038151
 31
0.0
  0
LINE
  5
4755
330
4744
100
AcDbEntity
  8
寸法
440
 16777216
100
AcDbLine
 10
65.45248975981809
 20
123.2272778038151
 30
0.0
 11
65.45248975981809
 21
125.2272778038151
 31
0.0
  0
LINE
  5
4756
330
4744
100
AcDbEntity
  8
寸法
440
 16777216
100
AcDbLine
 10
65.45248975981809
 20
113.2272778038151
 30
0.0
 11
65.45248975981809
 21
111.2272778038151
 31
0.0
  0
LINE
  5
4757
330
4744
100
AcDbEntity
  8
寸法
440
 16777216
100
AcDbLine
 10
65.45248975981809
 20
121.2272778038151
 30
0.0
 11
65.45248975981809
 21
115.2272778038151
 31
0.0
  0
SOLID
  5
4758
330
4744
100
AcDbEntity
  8
寸法
440
 16777216
100
AcDbTrace
 10
65.11915642648476
 20
123.2272778038151
 30
0.0
 11
65.78582309315142
 21
123.2272778038151
 31
0.0
 12
65.45248975981809
 22
121.2272778038151
 32
0.0
 13
65.45248975981809
 23
121.2272778038151
 33
0.0
  0
SOLID
  5
4759
330
4744
100
AcDbEntity
  8
寸法
440
 16777216
100
AcDbTrace
 10
65.11915642648476
 20
113.2272778038151
 30
0.0
 11
65.78582309315142
 21
113.2272778038151
 31
0.0
 12
65.45248975981809
 22
115.2272778038151
 32
0.0
 13
65.45248975981809
 23
115.2272778038151
 33
0.0
  0
MTEXT
  5
475A
330
4744
100
AcDbEntity
  8
寸法
440
 16777216
100
AcDbMText
 10
63.20248975981807
 20
118.2272778038151
 30
0.0
 40
2.5
 41
0.0
 46
0.0
 71
     5
 72
     1
  1
\A1;6
 11
0.0000000000000001
 21
1.0
 31
0.0
 73
     1
 44
1.0
  0
POINT
  5
475B
330
4744
100
AcDbEntity
  8
Defpoints
 62
     0
440
 16777216
100
AcDbPoint
 10
79.24821267165883
 20
121.2272778038151
 30
0.0
  0
POINT
  5
475C
330
4744
100
AcDbEntity
  8
Defpoints
 62
     0
440
 16777216
100
AcDbPoint
 10
70.03887750040428
 20
115.2272778038151
 30
0.0
  0
POINT
  5
475D
330
4744
100
AcDbEntity
  8
Defpoints
 62
     0
440
 16777216
100
AcDbPoint
 10
65.45248975981809
 20
115.2272778038151
 30
0.0
  0
ENDBLK
  5
4746
330
4744
100
AcDbEntity
  8
0
100
AcDbBlockEnd
  0
BLOCK
  5
4761
330
4760
100
AcDbEntity
  8
0
100
AcDbBlockBegin
  2
*D46
 70
     1
 10
0.0
 20
0.0
 30
0.0
  3
*D46
  1

  0
LINE
  5
476F
330
4760
100
AcDbEntity
  8
寸法
440
 16777216
100
AcDbLine
 10
78.24821267165884
 20
109.2272778038151
 30
0.0
 11
64.45248975981809
 21
109.2272778038151
 31
0.0
  0
LINE
  5
4770
330
4760
100
AcDbEntity
  8
寸法
440
 16777216
100
AcDbLine
 10
69.03887750040428
 20
115.2272778038151
 30
0.0
 11
64.45248975981809
 21
115.2272778038151
 31
0.0
  0
LINE
  5
4771
330
4760
100
AcDbEntity
  8
寸法
440
 16777216
100
AcDbLine
 10
65.45248975981809
 20
107.2272778038151
 30
0.0
 11
65.45248975981809
 21
105.2272778038151
 31
0.0
  0
LINE
  5
4772
330
4760
100
AcDbEntity
  8
寸法
440
 16777216
100
AcDbLine
 10
65.45248975981809
 20
117.2272778038151
 30
0.0
 11
65.45248975981809
 21
119.2272778038151
 31
0.0
  0
LINE
  5
4773
330
4760
100
AcDbEntity
  8
寸法
440
 16777216
100
AcDbLine
 10
65.45248975981809
 20
109.2272778038151
 30
0.0
 11
65.45248975981809
 21
115.2272778038151
 31
0.0
  0
SOLID
  5
4774
330
4760
100
AcDbEntity
  8
寸法
440
 16777216
100
AcDbTrace
 10
65.11915642648476
 20
107.2272778038151
 30
0.0
 11
65.78582309315142
 21
107.2272778038151
 31
0.0
 12
65.45248975981809
 22
109.2272778038151
 32
0.0
 13
65.45248975981809
 23
109.2272778038151
 33
0.0
  0
SOLID
  5
4775
330
4760
100
AcDbEntity
  8
寸法
440
 16777216
100
AcDbTrace
 10
65.11915642648476
 20
117.2272778038151
 30
0.0
 11
65.78582309315142
 21
117.2272778038151
 31
0.0
 12
65.45248975981809
 22
115.2272778038151
 32
0.0
 13
65.45248975981809
 23
115.2272778038151
 33
0.0
  0
MTEXT
  5
4776
330
4760
100
AcDbEntity
  8
寸法
440
 16777216
100
AcDbMText
 10
63.20248975981807
 20
112.2272778038151
 30
0.0
 40
2.5
 41
0.0
 46
0.0
 71
     5
 72
     1
  1
\A1;6
 11
0.0000000000000001
 21
1.0
 31
0.0
 73
     1
 44
1.0
  0
POINT
  5
4777
330
4760
100
AcDbEntity
  8
Defpoints
 62
     0
440
 16777216
100
AcDbPoint
 10
79.24821267165883
 20
109.2272778038151
 30
0.0
  0
POINT
  5
4778
330
4760
100
AcDbEntity
  8
Defpoints
 62
     0
440
 16777216
100
AcDbPoint
 10
70.03887750040428
 20
115.2272778038151
 30
0.0
  0
POINT
  5
4779
330
4760
100
AcDbEntity
  8
Defpoints
 62
     0
440
 16777216
100
AcDbPoint
 10
65.45248975981809
 20
115.2272778038151
 30
0.0
  0
ENDBLK
  5
4762
330
4760
100
AcDbEntity
  8
0
100
AcDbBlockEnd
  0
ENDSEC
  0
SECTION
  2
ENTITIES
  0
LINE
  5
3972
330
1F
100
AcDbEntity
  8
中心線
100
AcDbLine
 10
120.2594300852445
 20
183.2949190292453
 30
0.0
 11
120.2482126716588
 21
67.98614136796247
 31
0.0
  0
LINE
  5
3974
102
{ACAD_REACTORS
330
453B
102
}
330
1F
100
AcDbEntity
  8
中心線
100
AcDbLine
 10
130.2594300852445
 20
80.22727780381512
 30
0.0
 11
135.2594300852445
 21
80.22727780381512
 31
0.0
  0
CIRCLE
  5
3975
330
1F
100
AcDbEntity
  8
外形１
100
AcDbCircle
 10
132.7594300852445
 20
80.22727780381512
 30
0.0
 40
1.6
  0
CIRCLE
  5
3978
102
{ACAD_REACTORS
330
4513
102
}
330
1F
100
AcDbEntity
  8
外形１
100
AcDbCircle
 10
107.7594300852445
 20
150.2272778038151
 30
0.0
 40
1.6
  0
LINE
  5
397A
102
{ACAD_REACTORS
330
4565
102
}
330
1F
100
AcDbEntity
  8
中心線
100
AcDbLine
 10
132.7594300852445
 20
77.72727780381512
 30
0.0
 11
132.7594300852445
 21
82.72727780381512
 31
0.0
  0
LINE
  5
397B
102
{ACAD_REACTORS
330
4287
330
426B
330
475E
330
477A
102
}
330
1F
100
AcDbEntity
  8
中心線
100
AcDbLine
 10
70.03887750040428
 20
115.2272778038151
 30
0.0
 11
227.093409717063
 21
115.2272778038151
 31
0.0
  0
LINE
  5
397C
102
{ACAD_REACTORS
330
4610
102
}
330
1F
100
AcDbEntity
  8
外形１
100
AcDbLine
 10
103.7594300852445
 20
76.7272778038151
 30
0.0
 11
103.7594300852445
 21
94.22727780381512
 31
0.0
  0
LINE
  5
397D
330
1F
100
AcDbEntity
  8
外形１
100
AcDbLine
 10
103.7594300852445
 20
136.2272778038151
 30
0.0
 11
103.7594300852445
 21
153.7272778038151
 31
0.0
  0
LINE
  5
397E
102
{ACAD_REACTORS
330
4304
330
4393
102
}
330
1F
100
AcDbEntity
  8
外形１
100
AcDbLine
 10
135.7594300852445
 20
154.7272778038151
 30
0.0
 11
104.7594300852445
 21
154.7272778038151
 31
0.0
  0
LINE
  5
397F
102
{ACAD_REACTORS
330
4610
102
}
330
1F
100
AcDbEntity
  8
外形１
100
AcDbLine
 10
136.7594300852445
 20
76.72727780381511
 30
0.0
 11
136.7594300852445
 21
94.22727780381512
 31
0.0
  0
LINE
  5
3980
330
1F
100
AcDbEntity
  8
外形１
100
AcDbLine
 10
136.7594300852445
 20
136.2272778038151
 30
0.0
 11
136.7594300852445
 21
153.7272778038151
 31
0.0
  0
LINE
  5
3981
102
{ACAD_REACTORS
330
4334
330
4393
102
}
330
1F
100
AcDbEntity
  8
外形１
100
AcDbLine
 10
104.7594300852445
 20
75.7272778038151
 30
0.0
 11
135.7594300852445
 21
75.72727780381511
 31
0.0
  0
LINE
  5
3982
330
1F
100
AcDbEntity
  8
隠れ線
  6
HIDDEN2
100
AcDbLine
 10
152.7482126716588
 20
94.22727780381512
 30
0.0
 11
152.7482126716588
 21
136.2272778038151
 31
0.0
  0
LINE
  5
3983
330
1F
100
AcDbEntity
  8
隠れ線
  6
HIDDEN2
100
AcDbLine
 10
87.74821267165883
 20
94.22727780381512
 30
0.0
 11
87.74821267165883
 21
136.2272778038151
 31
0.0
  0
LINE
  5
3984
330
1F
100
AcDbEntity
  8
外形１
100
AcDbLine
 10
87.74821267165883
 20
136.2272778038151
 30
0.0
 11
103.7594300852445
 21
136.2272778038151
 31
0.0
  0
LINE
  5
3985
330
1F
100
AcDbEntity
  8
外形１
100
AcDbLine
 10
87.74821267165883
 20
94.22727780381512
 30
0.0
 11
103.7594300852445
 21
94.22727780381512
 31
0.0
  0
LINE
  5
3986
330
1F
100
AcDbEntity
  8
外形１
100
AcDbLine
 10
152.7482126716588
 20
136.2272778038151
 30
0.0
 11
136.7594300852445
 21
136.2272778038151
 31
0.0
  0
LINE
  5
3987
102
{ACAD_REACTORS
330
4628
330
4640
102
}
330
1F
100
AcDbEntity
  8
外形１
100
AcDbLine
 10
152.7482126716588
 20
94.22727780381512
 30
0.0
 11
136.7594300852445
 21
94.22727780381512
 31
0.0
  0
LINE
  5
3988
330
1F
100
AcDbEntity
  8
外形１
100
AcDbLine
 10
88.74821267165883
 20
94.22727780381512
 30
0.0
 11
88.74821267165883
 21
136.2272778038151
 31
0.0
  0
LINE
  5
3989
102
{ACAD_REACTORS
330
4287
330
426B
102
}
330
1F
100
AcDbEntity
  8
外形１
100
AcDbLine
 10
151.7482126716588
 20
94.22727780381512
 30
0.0
 11
151.7482126716588
 21
136.2272778038151
 31
0.0
  0
LINE
  5
398A
330
1F
100
AcDbEntity
  8
中心線
100
AcDbLine
 10
81.74821267165883
 20
131.3474864539484
 30
0.0
 11
81.74821267165841
 21
99.23806269792423
 31
0.0
  0
LINE
  5
398B
102
{ACAD_REACTORS
330
477A
102
}
330
1F
100
AcDbEntity
  8
中心線
100
AcDbLine
 10
84.24821267165883
 20
109.2272778038151
 30
0.0
 11
79.24821267165883
 21
109.2272778038151
 31
0.0
  0
ARC
  5
3990
102
{ACAD_REACTORS
330
46E2
102
}
330
1F
100
AcDbEntity
  8
外形１
100
AcDbCircle
 10
81.74821267165883
 20
115.2272778038151
 30
0.0
 40
3.5
100
AcDbArc
 50
306.869897645834
 51
53.13010235415086
  0
ARC
  5
3991
330
1F
100
AcDbEntity
  8
外形１
100
AcDbCircle
 10
81.74821267165883
 20
115.2272778038151
 30
0.0
 40
3.5
100
AcDbArc
 50
126.869897645834
 51
233.1301023541497
  0
ARC
  5
3992
102
{ACAD_REACTORS
330
46F4
102
}
330
1F
100
AcDbEntity
  8
外形１
100
AcDbCircle
 10
81.74821267165841
 20
109.2272778038151
 30
0.0
 40
2.1
100
AcDbArc
 50
180.0
 51
0.0
  0
LINE
  5
3993
330
1F
100
AcDbEntity
  8
外形１
100
AcDbLine
 10
79.64821267165849
 20
109.2272778038151
 30
0.0
 11
79.64821267165849
 21
112.4272778038154
 31
0.0
  0
LINE
  5
3994
330
1F
100
AcDbEntity
  8
外形１
100
AcDbLine
 10
83.84821267165875
 20
109.2272778038151
 30
0.0
 11
83.84821267165875
 21
112.4272778038149
 31
0.0
  0
ARC
  5
399B
102
{ACAD_REACTORS
330
46D0
102
}
330
1F
100
AcDbEntity
  8
外形１
100
AcDbCircle
 10
81.74821267165883
 20
121.2272778038151
 30
0.0
 40
2.1
100
AcDbArc
 50
0.0
 51
180.0
  0
LINE
  5
399C
330
1F
100
AcDbEntity
  8
外形１
100
AcDbLine
 10
79.64821267165894
 20
121.2272778038151
 30
0.0
 11
79.64821267165894
 21
118.0272778038153
 31
0.0
  0
LINE
  5
399D
330
1F
100
AcDbEntity
  8
外形１
100
AcDbLine
 10
83.84821267165875
 20
121.2272778038151
 30
0.0
 11
83.8482126716592
 21
118.0272778038148
 31
0.0
  0
LINE
  5
399E
102
{ACAD_REACTORS
330
475E
102
}
330
1F
100
AcDbEntity
  8
中心線
100
AcDbLine
 10
84.24821267165883
 20
121.2272778038151
 30
0.0
 11
79.24821267165883
 21
121.2272778038151
 31
0.0
  0
LINE
  5
39A6
102
{ACAD_REACTORS
330
40FA
102
}
330
1F
100
AcDbEntity
  8
中心線
100
AcDbLine
 10
158.7482126716588
 20
131.117171873777
 30
0.0
 11
158.7482126716584
 21
98.8583348586801
 31
0.0
  0
LINE
  5
39A7
102
{ACAD_REACTORS
330
4287
102
}
330
1F
100
AcDbEntity
  8
中心線
100
AcDbLine
 10
161.2482126716588
 20
109.2272778038154
 30
0.0
 11
156.2482126716588
 21
109.2272778038154
 31
0.0
  0
ARC
  5
39AC
102
{ACAD_REACTORS
330
3C7F
102
}
330
1F
100
AcDbEntity
  8
外形１
100
AcDbCircle
 10
158.7482126716588
 20
115.2272778038154
 30
0.0
 40
3.5
100
AcDbArc
 50
306.869897645834
 51
53.13010235415086
  0
ARC
  5
39AD
330
1F
100
AcDbEntity
  8
外形１
100
AcDbCircle
 10
158.7482126716588
 20
115.2272778038154
 30
0.0
 40
3.5
100
AcDbArc
 50
126.869897645834
 51
233.1301023541509
  0
ARC
  5
39AE
102
{ACAD_REACTORS
330
3C91
102
}
330
1F
100
AcDbEntity
  8
外形１
100
AcDbCircle
 10
158.7482126716584
 20
109.2272778038154
 30
0.0
 40
2.1
100
AcDbArc
 50
180.0
 51
0.0
  0
LINE
  5
39AF
330
1F
100
AcDbEntity
  8
外形１
100
AcDbLine
 10
156.6482126716585
 20
109.2272778038154
 30
0.0
 11
156.6482126716585
 21
112.4272778038156
 31
0.0
  0
LINE
  5
39B0
330
1F
100
AcDbEntity
  8
外形１
100
AcDbLine
 10
160.8482126716588
 20
109.2272778038154
 30
0.0
 11
160.8482126716588
 21
112.4272778038152
 31
0.0
  0
ARC
  5
39B7
102
{ACAD_REACTORS
330
3C6D
102
}
330
1F
100
AcDbEntity
  8
外形１
100
AcDbCircle
 10
158.7482126716588
 20
121.2272778038154
 30
0.0
 40
2.1
100
AcDbArc
 50
0.0
 51
180.0
  0
LINE
  5
39B8
330
1F
100
AcDbEntity
  8
外形１
100
AcDbLine
 10
156.6482126716589
 20
121.2272778038154
 30
0.0
 11
156.6482126716589
 21
118.0272778038156
 31
0.0
  0
LINE
  5
39B9
330
1F
100
AcDbEntity
  8
外形１
100
AcDbLine
 10
160.8482126716588
 20
121.2272778038154
 30
0.0
 11
160.8482126716592
 21
118.0272778038151
 31
0.0
  0
LINE
  5
39BA
102
{ACAD_REACTORS
330
426B
102
}
330
1F
100
AcDbEntity
  8
中心線
100
AcDbLine
 10
161.2482126716588
 20
121.2272778038154
 30
0.0
 11
156.2482126716588
 21
121.2272778038154
 31
0.0
  0
LINE
  5
39C1
102
{ACAD_REACTORS
330
4304
330
431C
102
}
330
1F
100
AcDbEntity
  8
外形１
100
AcDbLine
 10
152.7482126716588
 20
136.2272778038151
 30
0.0
 11
163.7482126716588
 21
136.2272778038151
 31
0.0
  0
LINE
  5
39C2
102
{ACAD_REACTORS
330
40FA
330
4628
330
4670
102
}
330
1F
100
AcDbEntity
  8
外形１
100
AcDbLine
 10
164.7482126716588
 20
95.22727780381515
 30
0.0
 11
164.7482126716588
 21
135.2272778038151
 31
0.0
  0
LINE
  5
39C3
102
{ACAD_REACTORS
330
431C
330
4334
102
}
330
1F
100
AcDbEntity
  8
外形１
100
AcDbLine
 10
152.7482126716588
 20
94.22727780381512
 30
0.0
 11
163.7482126716588
 21
94.22727780381515
 31
0.0
  0
LINE
  5
39D1
330
1F
100
AcDbEntity
  8
外形１
100
AcDbLine
 10
87.74821267165883
 20
136.2272778038151
 30
0.0
 11
76.74821267165883
 21
136.2272778038151
 31
0.0
  0
LINE
  5
39D2
102
{ACAD_REACTORS
330
4658
330
4670
102
}
330
1F
100
AcDbEntity
  8
外形１
100
AcDbLine
 10
75.74821267165884
 20
135.2272778038151
 30
0.0
 11
75.74821267165884
 21
95.2272778038151
 31
0.0
  0
LINE
  5
39D3
102
{ACAD_REACTORS
330
4640
330
4658
102
}
330
1F
100
AcDbEntity
  8
外形１
100
AcDbLine
 10
87.74821267165883
 20
94.22727780381512
 30
0.0
 11
76.74821267165883
 21
94.2272778038151
 31
0.0
  0
LINE
  5
39F5
330
1F
100
AcDbEntity
  8
外形１
100
AcDbLine
 10
75.74821267165884
 20
172.0752045247938
 30
0.0
 11
88.74821267165883
 21
172.0752045247938
 31
0.0
  0
LINE
  5
39F6
330
1F
100
AcDbEntity
  8
外形１
100
AcDbLine
 10
151.7482126716588
 20
172.0752045247938
 30
0.0
 11
164.7482126716588
 21
172.0752045247938
 31
0.0
  0
LINE
  5
39F7
330
1F
100
AcDbEntity
  8
外形１
100
AcDbLine
 10
164.7482126716588
 20
172.0752045247938
 30
0.0
 11
164.7482126716588
 21
173.0752045247938
 31
0.0
  0
LINE
  5
39F8
330
1F
100
AcDbEntity
  8
外形１
100
AcDbLine
 10
164.7482126716588
 20
173.0752045247938
 30
0.0
 11
152.7482126716588
 21
173.0752045247938
 31
0.0
  0
LINE
  5
39F9
330
1F
100
AcDbEntity
  8
外形１
100
AcDbLine
 10
87.74821267165883
 20
173.0752045247938
 30
0.0
 11
75.74821267165884
 21
173.0752045247938
 31
0.0
  0
LINE
  5
39FA
330
1F
100
AcDbEntity
  8
外形１
100
AcDbLine
 10
75.74821267165884
 20
173.0752045247938
 30
0.0
 11
75.74821267165884
 21
172.0752045247938
 31
0.0
  0
LINE
  5
39FB
330
1F
100
AcDbEntity
  8
外形１
100
AcDbLine
 10
88.74821267165883
 20
172.0752045247938
 30
0.0
 11
88.74821267165883
 21
176.0752045247938
 31
0.0
  0
LINE
  5
39FC
330
1F
100
AcDbEntity
  8
外形１
100
AcDbLine
 10
151.7482126716588
 20
172.0752045247938
 30
0.0
 11
151.7482126716588
 21
176.0752045247938
 31
0.0
  0
LINE
  5
39FD
330
1F
100
AcDbEntity
  8
外形１
100
AcDbLine
 10
152.7482126716588
 20
177.0752045247938
 30
0.0
 11
87.74821267165883
 21
177.0752045247938
 31
0.0
  0
LINE
  5
39FE
330
1F
100
AcDbEntity
  8
外形１
100
AcDbLine
 10
87.74821267165883
 20
173.0752045247938
 30
0.0
 11
87.74821267165883
 21
177.0752045247938
 31
0.0
  0
LINE
  5
3A05
330
1F
100
AcDbEntity
  8
隠れ線
100
AcDbLine
 10
78.24821267165884
 20
172.0752045247938
 30
0.0
 11
78.24821267165884
 21
173.0752045247938
 31
0.0
  0
LINE
  5
3A06
330
1F
100
AcDbEntity
  8
隠れ線
100
AcDbLine
 10
85.24821267165883
 20
172.0752045247938
 30
0.0
 11
85.24821267165883
 21
173.0752045247938
 31
0.0
  0
LINE
  5
3A07
330
1F
100
AcDbEntity
  8
隠れ線
100
AcDbLine
 10
155.2482126716588
 20
172.0752045247938
 30
0.0
 11
155.2482126716588
 21
173.0752045247938
 31
0.0
  0
LINE
  5
3A08
330
1F
100
AcDbEntity
  8
隠れ線
100
AcDbLine
 10
162.2482126716588
 20
172.0752045247938
 30
0.0
 11
162.2482126716588
 21
173.0752045247938
 31
0.0
  0
LINE
  5
3A0D
330
1F
100
AcDbEntity
  8
外形１
100
AcDbLine
 10
152.7482126716588
 20
173.0752045247938
 30
0.0
 11
152.7482126716588
 21
177.0752045247938
 31
0.0
  0
LINE
  5
3A0E
330
1F
100
AcDbEntity
  8
外形１
100
AcDbLine
 10
88.74821267165883
 20
176.0752045247938
 30
0.0
 11
151.7482126716588
 21
176.0752045247938
 31
0.0
  0
LINE
  5
3A0F
330
1F
100
AcDbEntity
  8
隠れ線
100
AcDbLine
 10
106.1594300852446
 20
176.0752045247938
 30
0.0
 11
106.1594300852446
 21
177.0752045247938
 31
0.0
  0
LINE
  5
3A10
330
1F
100
AcDbEntity
  8
隠れ線
100
AcDbLine
 10
109.3594300852444
 20
176.0752045247938
 30
0.0
 11
109.3594300852444
 21
177.0752045247938
 31
0.0
  0
CIRCLE
  5
3A13
102
{ACAD_REACTORS
330
46AE
102
}
330
1F
100
AcDbEntity
  8
外形１
100
AcDbCircle
 10
81.74821267165883
 20
127.7272778038151
 30
0.0
 40
2.0
  0
CIRCLE
  5
3A14
330
1F
100
AcDbEntity
  8
外形１
100
AcDbCircle
 10
81.74821267165883
 20
102.7272778038151
 30
0.0
 40
2.0
  0
CIRCLE
  5
3A15
330
1F
100
AcDbEntity
  8
外形１
100
AcDbCircle
 10
158.7482126716588
 20
127.7272778038151
 30
0.0
 40
2.0
  0
CIRCLE
  5
3A16
330
1F
100
AcDbEntity
  8
外形１
100
AcDbCircle
 10
158.7482126716588
 20
102.7272778038151
 30
0.0
 40
2.0
  0
LINE
  5
3A1D
330
1F
100
AcDbEntity
  8
隠れ線
100
AcDbLine
 10
131.1594300852446
 20
176.0752045247938
 30
0.0
 11
131.1594300852446
 21
177.0752045247938
 31
0.0
  0
LINE
  5
3A1E
330
1F
100
AcDbEntity
  8
隠れ線
100
AcDbLine
 10
134.3594300852444
 20
176.0752045247938
 30
0.0
 11
134.3594300852444
 21
177.0752045247938
 31
0.0
  0
LINE
  5
3A1F
330
1F
100
AcDbEntity
  8
隠れ線
100
AcDbLine
 10
79.74821267165883
 20
172.0752045247938
 30
0.0
 11
79.74821267165883
 21
173.0752045247938
 31
0.0
  0
LINE
  5
3A20
330
1F
100
AcDbEntity
  8
隠れ線
100
AcDbLine
 10
156.7482126716588
 20
172.0752045247938
 30
0.0
 11
156.7482126716588
 21
173.0752045247938
 31
0.0
  0
LINE
  5
3A21
330
1F
100
AcDbEntity
  8
隠れ線
100
AcDbLine
 10
160.7482126716588
 20
172.0752045247938
 30
0.0
 11
160.7482126716588
 21
173.0752045247938
 31
0.0
  0
LINE
  5
3A30
330
1F
100
AcDbEntity
  8
外形１
100
AcDbLine
 10
103.7594300852445
 20
176.0752045247938
 30
0.0
 11
103.7594300852445
 21
177.0752045247938
 31
0.0
  0
LINE
  5
3A31
330
1F
100
AcDbEntity
  8
外形１
100
AcDbLine
 10
136.7594300852445
 20
176.0752045247938
 30
0.0
 11
136.7594300852445
 21
177.0752045247938
 31
0.0
  0
LINE
  5
3C26
102
{ACAD_REACTORS
330
3CC1
102
}
330
1F
100
AcDbEntity
  8
中心線
100
AcDbLine
 10
161.2482126716588
 20
127.7272778038151
 30
0.0
 11
156.2482126716588
 21
127.7272778038151
 31
0.0
  0
LINE
  5
3C27
102
{ACAD_REACTORS
330
3CC1
102
}
330
1F
100
AcDbEntity
  8
中心線
100
AcDbLine
 10
161.2482126716588
 20
102.7272778038151
 30
0.0
 11
156.2482126716588
 21
102.7272778038151
 31
0.0
  0
LINE
  5
3C28
102
{ACAD_REACTORS
330
453B
102
}
330
1F
100
AcDbEntity
  8
中心線
100
AcDbLine
 10
110.2594300852445
 20
150.2272778038151
 30
0.0
 11
105.2594300852445
 21
150.2272778038151
 31
0.0
  0
LINE
  5
3C29
102
{ACAD_REACTORS
330
471E
102
}
330
1F
100
AcDbEntity
  8
中心線
100
AcDbLine
 10
84.24821267165883
 20
127.7272778038151
 30
0.0
 11
79.24821267165883
 21
127.7272778038151
 31
0.0
  0
LINE
  5
3C2A
102
{ACAD_REACTORS
330
471E
102
}
330
1F
100
AcDbEntity
  8
中心線
100
AcDbLine
 10
84.24821267165883
 20
102.7272778038151
 30
0.0
 11
79.24821267165883
 21
102.7272778038151
 31
0.0
  0
LINE
  5
3C2B
102
{ACAD_REACTORS
330
4565
102
}
330
1F
100
AcDbEntity
  8
中心線
100
AcDbLine
 10
107.7594300852445
 20
152.7272778038151
 30
0.0
 11
107.7594300852445
 21
147.7272778038151
 31
0.0
  0
LINE
  5
3C2C
330
1F
100
AcDbEntity
  8
隠れ線
100
AcDbLine
 10
85.24821267165883
 20
172.0752045247938
 30
0.0
 11
85.24821267165883
 21
173.0752045247938
 31
0.0
  0
LINE
  5
3C2F
330
1F
100
AcDbEntity
  8
隠れ線
100
AcDbLine
 10
78.24821267165884
 20
172.0752045247938
 30
0.0
 11
78.24821267165884
 21
173.0752045247938
 31
0.0
  0
LINE
  5
3C30
330
1F
100
AcDbEntity
  8
隠れ線
100
AcDbLine
 10
79.74821267165883
 20
172.0752045247938
 30
0.0
 11
79.74821267165883
 21
173.0752045247938
 31
0.0
  0
LINE
  5
3C31
330
1F
100
AcDbEntity
  8
隠れ線
100
AcDbLine
 10
83.74821267165884
 20
172.0752045247938
 30
0.0
 11
83.74821267165884
 21
173.0752045247938
 31
0.0
  0
LINE
  5
3C32
102
{ACAD_REACTORS
330
44FA
102
}
330
1F
100
AcDbEntity
  8
外形１
100
AcDbLine
 10
135.7594300852445
 20
154.7272778038151
 30
0.0
 11
136.7594300852445
 21
153.7272778038151
 31
0.0
  0
LINE
  5
3C33
330
1F
100
AcDbEntity
  8
外形１
100
AcDbLine
 10
104.7594300852445
 20
154.7272778038151
 30
0.0
 11
103.7594300852445
 21
153.7272778038151
 31
0.0
  0
LINE
  5
3C34
330
1F
100
AcDbEntity
  8
外形１
100
AcDbLine
 10
76.74821267165883
 20
136.2272778038151
 30
0.0
 11
75.74821267165884
 21
135.2272778038151
 31
0.0
  0
LINE
  5
3C35
330
1F
100
AcDbEntity
  8
外形１
100
AcDbLine
 10
75.74821267165884
 20
95.2272778038151
 30
0.0
 11
76.74821267165883
 21
94.2272778038151
 31
0.0
  0
LINE
  5
3C36
330
1F
100
AcDbEntity
  8
外形１
100
AcDbLine
 10
103.7594300852445
 20
76.7272778038151
 30
0.0
 11
104.7594300852445
 21
75.7272778038151
 31
0.0
  0
LINE
  5
3C37
330
1F
100
AcDbEntity
  8
外形１
100
AcDbLine
 10
135.7594300852445
 20
75.72727780381511
 30
0.0
 11
136.7594300852445
 21
76.72727780381511
 31
0.0
  0
LINE
  5
3C38
330
1F
100
AcDbEntity
  8
外形１
100
AcDbLine
 10
163.7482126716588
 20
94.22727780381515
 30
0.0
 11
164.7482126716588
 21
95.22727780381515
 31
0.0
  0
LINE
  5
3C39
330
1F
100
AcDbEntity
  8
外形１
100
AcDbLine
 10
164.7482126716588
 20
135.2272778038151
 30
0.0
 11
163.7482126716588
 21
136.2272778038151
 31
0.0
  0
LINE
  5
3C3A
330
1F
100
AcDbEntity
  8
外形１
100
AcDbLine
 10
163.7482126716589
 20
172.0752045247938
 30
0.0
 11
163.7482126716589
 21
173.0752045247938
 31
0.0
  0
LINE
  5
3C3B
330
1F
100
AcDbEntity
  8
外形１
100
AcDbLine
 10
104.7594300852445
 20
176.0752045247938
 30
0.0
 11
104.7594300852445
 21
177.0752045247939
 31
0.0
  0
LINE
  5
3C3C
330
1F
100
AcDbEntity
  8
外形１
100
AcDbLine
 10
135.7594300852445
 20
176.0752045247939
 30
0.0
 11
135.7594300852445
 21
177.0752045247938
 31
0.0
  0
LINE
  5
3C3D
330
1F
100
AcDbEntity
  8
外形１
100
AcDbLine
 10
76.74821267165883
 20
172.0752045247938
 30
0.0
 11
76.74821267165883
 21
173.0752045247938
 31
0.0
  0
LINE
  5
3C44
102
{ACAD_REACTORS
330
4427
102
}
330
1F
100
AcDbEntity
  8
外形１
100
AcDbLine
 10
217.4921566366921
 20
75.72727780381511
 30
0.0
 11
217.4921566366921
 21
94.22727780381508
 31
0.0
  0
LINE
  5
3C45
330
1F
100
AcDbEntity
  8
外形１
100
AcDbLine
 10
217.4921566366921
 20
136.2272778038151
 30
0.0
 11
217.4921566366921
 21
154.7272778038151
 31
0.0
  0
LINE
  5
3C46
330
1F
100
AcDbEntity
  8
外形１
100
AcDbLine
 10
217.4921566366921
 20
154.7272778038151
 30
0.0
 11
218.4921566366921
 21
154.7272778038151
 31
0.0
  0
LINE
  5
3C47
330
1F
100
AcDbEntity
  8
外形１
100
AcDbLine
 10
217.4921566366921
 20
153.7272778038151
 30
0.0
 11
218.4921566366921
 21
153.7272778038151
 31
0.0
  0
LINE
  5
3C48
102
{ACAD_REACTORS
330
4427
330
4443
102
}
330
1F
100
AcDbEntity
  8
外形１
100
AcDbLine
 10
218.4921566366921
 20
154.7272778038151
 30
0.0
 11
218.4921566366921
 21
75.72727780381511
 31
0.0
  0
LINE
  5
3C49
330
1F
100
AcDbEntity
  8
外形１
100
AcDbLine
 10
218.4921566366921
 20
75.72727780381511
 30
0.0
 11
217.4921566366921
 21
75.72727780381511
 31
0.0
  0
LINE
  5
3C4A
330
1F
100
AcDbEntity
  8
外形１
100
AcDbLine
 10
218.4921566366921
 20
76.72727780381511
 30
0.0
 11
217.4921566366921
 21
76.72727780381511
 31
0.0
  0
LINE
  5
3C4B
330
1F
100
AcDbEntity
  8
外形１
100
AcDbLine
 10
213.4921566366921
 20
94.2272778038151
 30
0.0
 11
217.4921566366921
 21
94.22727780381508
 31
0.0
  0
LINE
  5
3C4C
330
1F
100
AcDbEntity
  8
外形１
100
AcDbLine
 10
213.4921566366921
 20
95.2272778038151
 30
0.0
 11
214.4921566366921
 21
95.2272778038151
 31
0.0
  0
LINE
  5
3C4D
102
{ACAD_REACTORS
330
4443
102
}
330
1F
100
AcDbEntity
  8
外形１
100
AcDbLine
 10
213.4921566366921
 20
94.2272778038151
 30
0.0
 11
213.4921566366921
 21
136.2272778038151
 31
0.0
  0
LINE
  5
3C4E
330
1F
100
AcDbEntity
  8
外形１
100
AcDbLine
 10
213.4921566366921
 20
136.2272778038151
 30
0.0
 11
217.4921566366921
 21
136.2272778038151
 31
0.0
  0
LINE
  5
3C4F
330
1F
100
AcDbEntity
  8
外形１
100
AcDbLine
 10
213.4921566366921
 20
135.2272778038151
 30
0.0
 11
214.4921566366921
 21
135.2272778038151
 31
0.0
  0
LINE
  5
3C50
330
1F
100
AcDbEntity
  8
隠れ線
  6
HIDDEN2
100
AcDbLine
 10
217.4921566366921
 20
136.2272778038151
 30
0.0
 11
217.4921566366921
 21
94.22727780381508
 31
0.0
  0
LINE
  5
3C51
330
1F
100
AcDbEntity
  8
外形１
100
AcDbLine
 10
214.4921566366921
 20
136.2272778038151
 30
0.0
 11
214.4921566366921
 21
94.2272778038151
 31
0.0
  0
LINE
  5
3C52
330
1F
100
AcDbEntity
  8
隠れ線
100
AcDbLine
 10
213.4921566366921
 20
123.3272778038151
 30
0.0
 11
214.4921566366921
 21
123.3272778038151
 31
0.0
  0
LINE
  5
3C53
330
1F
100
AcDbEntity
  8
隠れ線
100
AcDbLine
 10
213.4921566366921
 20
107.1272778038151
 30
0.0
 11
214.4921566366921
 21
107.1272778038151
 31
0.0
  0
LINE
  5
3C54
330
1F
100
AcDbEntity
  8
隠れ線
100
AcDbLine
 10
217.4921566366921
 20
78.62727780381513
 30
0.0
 11
218.4921566366921
 21
78.62727780381513
 31
0.0
  0
LINE
  5
3C55
330
1F
100
AcDbEntity
  8
隠れ線
100
AcDbLine
 10
217.4921566366921
 20
81.82727780381512
 30
0.0
 11
218.4921566366921
 21
81.82727780381512
 31
0.0
  0
LINE
  5
3C56
330
1F
100
AcDbEntity
  8
隠れ線
100
AcDbLine
 10
217.4921566366921
 20
148.6272778038151
 30
0.0
 11
218.4921566366921
 21
148.6272778038151
 31
0.0
  0
LINE
  5
3C57
330
1F
100
AcDbEntity
  8
隠れ線
100
AcDbLine
 10
217.4921566366921
 20
151.8272778038151
 30
0.0
 11
218.4921566366921
 21
151.8272778038151
 31
0.0
  0
LINE
  5
3C58
330
1F
100
AcDbEntity
  8
隠れ線
100
AcDbLine
 10
213.4921566366921
 20
125.7272778038151
 30
0.0
 11
214.4921566366921
 21
125.7272778038151
 31
0.0
  0
LINE
  5
3C59
330
1F
100
AcDbEntity
  8
隠れ線
100
AcDbLine
 10
213.4921566366921
 20
129.7272778038151
 30
0.0
 11
214.4921566366921
 21
129.7272778038151
 31
0.0
  0
LINE
  5
3C5A
330
1F
100
AcDbEntity
  8
隠れ線
100
AcDbLine
 10
213.4921566366921
 20
100.7272778038151
 30
0.0
 11
214.4921566366921
 21
100.7272778038151
 31
0.0
  0
LINE
  5
3C5B
330
1F
100
AcDbEntity
  8
隠れ線
100
AcDbLine
 10
213.4921566366921
 20
104.7272778038151
 30
0.0
 11
214.4921566366921
 21
104.7272778038151
 31
0.0
  0
DIMENSION
  5
3C5C
102
{ACAD_XDICTIONARY
360
3C66
102
}
102
{ACAD_REACTORS
330
3C6D
102
}
330
1F
100
AcDbEntity
  8
寸法
100
AcDbDimension
280
     0
  2
*D19
 10
158.7482126716587
 20
121.2272778038153
 30
0.0
 11
171.4535411729504
 21
126.8150155585311
 31
0.0
 70
   164
 71
     5
 42
2.100000000000108
 73
     0
 74
     0
 75
     0
  3
LINEEYE
100
AcDbRadialDimension
 15
160.6705196018531
 25
122.0726984483037
 35
0.0
 40
0.0
1001
ACAD
1000
DSTYLE
1002
{
1070
   288
1070
     1
1002
}
1001
ACAD_DSTYLE_DIMRADIAL_EXTENSION
1070
   387
1070
     1
1070
   388
1040
0.0
1070
   390
1040
3.141592653589793
  0
DIMENSION
  5
3C6E
102
{ACAD_XDICTIONARY
360
3C78
102
}
102
{ACAD_REACTORS
330
3C7F
102
}
330
1F
100
AcDbEntity
  8
寸法
100
AcDbDimension
280
     0
  2
*D20
 10
158.7482126716587
 20
115.2272778038152
 30
0.0
 11
171.2858764371756
 21
109.1678347940952
 31
0.0
 70
   164
 71
     5
 42
3.500000000000071
 73
     0
 74
     0
 75
     0
  3
LINEEYE
100
AcDbRadialDimension
 15
161.8994761350437
 25
113.704274657287
 35
0.0
 40
0.0
1001
ACAD
1000
DSTYLE
1002
{
1070
   288
1070
     1
1002
}
1001
ACAD_DSTYLE_DIMRADIAL_EXTENSION
1070
   387
1070
     1
1070
   388
1040
5.355890089177798
1070
   390
1040
0.9272952180015229
  0
DIMENSION
  5
3C80
102
{ACAD_XDICTIONARY
360
3C8A
102
}
102
{ACAD_REACTORS
330
3C91
102
}
330
1F
100
AcDbEntity
  8
寸法
100
AcDbDimension
280
     0
  2
*D21
 10
158.7482126716583
 20
109.2272778038152
 30
0.0
 11
170.5028751031346
 21
101.9159041873296
 31
0.0
 70
   164
 71
     5
 42
2.099999999999965
 73
     0
 74
     0
 75
     0
  3
LINEEYE
100
AcDbRadialDimension
 15
160.5314110622574
 25
108.1181324121896
 35
0.0
 40
0.0
1001
ACAD
1000
DSTYLE
1002
{
1070
   288
1070
     1
1002
}
1001
ACAD_DSTYLE_DIMRADIAL_EXTENSION
1070
   387
1070
     1
1070
   388
1040
3.141592653589793
1070
   390
1040
0.0
  0
DIMENSION
  5
3CAA
102
{ACAD_XDICTIONARY
360
3CB7
102
}
102
{ACAD_REACTORS
330
3CC1
102
}
330
1F
100
AcDbEntity
  8
寸法
100
AcDbDimension
280
     0
  2
*D22
 10
135.1686843123137
 20
102.7272778038151
 30
0.0
 11
135.1686843123137
 21
118.4160650697533
 31
0.0
 70
   160
 71
     5
 42
25.0
 73
     0
 74
     0
 75
     0
  3
LINEEYE
100
AcDbAlignedDimension
 13
156.2482126716588
 23
127.7272778038151
 33
0.0
 14
156.2482126716588
 24
102.7272778038151
 34
0.0
 50
90.0
100
AcDbRotatedDimension
  0
DIMENSION
  5
40E3
102
{ACAD_XDICTIONARY
360
40F0
102
}
102
{ACAD_REACTORS
330
40FA
102
}
330
1F
100
AcDbEntity
  8
寸法
100
AcDbDimension
280
     0
  2
*D23
 10
158.7482126716588
 20
146.2636923921321
 30
0.0
 11
161.7482126716588
 21
148.5136923921321
 31
0.0
 70
    32
 71
     5
 42
6.000000000000028
 73
     0
 74
     1
 75
     1
  3
LINEEYE
100
AcDbAlignedDimension
 13
164.7482126716588
 23
135.2272778038151
 33
0.0
 14
158.7482126716588
 24
131.117171873777
 34
0.0
100
AcDbRotatedDimension
  0
DIMENSION
  5
4254
102
{ACAD_XDICTIONARY
360
4261
102
}
102
{ACAD_REACTORS
330
426B
102
}
330
1F
100
AcDbEntity
  8
寸法
100
AcDbDimension
280
     0
  2
*D24
 10
143.1769157133214
 20
115.2272778038151
 30
0.0
 11
140.9269157133214
 21
118.2272778038152
 31
0.0
 70
    32
 71
     5
 42
6.000000000000298
 73
     0
 74
     1
 75
     1
  3
LINEEYE
100
AcDbAlignedDimension
 13
156.2482126716588
 23
121.2272778038154
 33
0.0
 14
151.7482126716588
 24
115.2272778038151
 34
0.0
 50
90.0
100
AcDbRotatedDimension
  0
DIMENSION
  5
426C
102
{ACAD_XDICTIONARY
360
427B
102
}
102
{ACAD_REACTORS
330
4287
102
}
330
1F
100
AcDbEntity
  8
寸法
100
AcDbDimension
280
     0
  2
*D25
 10
143.1769157133214
 20
115.2272778038151
 30
0.0
 11
140.9269157133214
 21
112.2272778038152
 31
0.0
 70
    32
 71
     5
 42
5.999999999999701
 73
     0
 74
     0
 75
     0
  3
LINEEYE
100
AcDbAlignedDimension
 13
156.2482126716588
 23
109.2272778038154
 33
0.0
 14
151.7482126716588
 24
115.2272778038151
 34
0.0
 50
90.0
100
AcDbRotatedDimension
  0
DIMENSION
  5
42ED
102
{ACAD_XDICTIONARY
360
42FA
102
}
102
{ACAD_REACTORS
330
4304
102
}
330
1F
100
AcDbEntity
  8
寸法
100
AcDbDimension
280
     0
  2
*D26
 10
184.7482126716588
 20
136.2272778038151
 30
0.0
 11
182.4982126716588
 21
145.4772778038151
 31
0.0
 70
    32
 71
     5
 42
18.5
 73
     0
 74
     0
 75
     0
  3
LINEEYE
100
AcDbAlignedDimension
 13
135.7594300852445
 23
154.7272778038151
 33
0.0
 14
163.7482126716588
 24
136.2272778038151
 34
0.0
 50
90.0
100
AcDbRotatedDimension
  0
DIMENSION
  5
4305
102
{ACAD_XDICTIONARY
360
4312
102
}
102
{ACAD_REACTORS
330
431C
102
}
330
1F
100
AcDbEntity
  8
寸法
100
AcDbDimension
280
     0
  2
*D27
 10
184.7482126716588
 20
94.22727780381515
 30
0.0
 11
184.7482126716588
 21
118.306769425687
 31
0.0
 70
   160
 71
     5
 42
41.99999999999993
 73
     0
 74
     0
 75
     0
  3
LINEEYE
100
AcDbAlignedDimension
 13
163.7482126716588
 23
136.2272778038151
 33
0.0
 14
163.7482126716588
 24
94.22727780381515
 34
0.0
 50
90.0
100
AcDbRotatedDimension
1001
ACAD
1000
DSTYLE
1002
{
1070
   279
1070
     1
1002
}
  0
DIMENSION
  5
431D
102
{ACAD_XDICTIONARY
360
432A
102
}
102
{ACAD_REACTORS
330
4334
102
}
330
1F
100
AcDbEntity
  8
寸法
100
AcDbDimension
280
     0
  2
*D28
 10
184.7482126716588
 20
75.7272778038151
 30
0.0
 11
182.4982126716588
 21
84.97727780381515
 31
0.0
 70
    32
 71
     5
 42
18.50000000000006
 73
     0
 74
     0
 75
     0
  3
LINEEYE
100
AcDbAlignedDimension
 13
163.7482126716588
 23
94.22727780381515
 33
0.0
 14
135.7594300852445
 24
75.72727780381511
 34
0.0
 50
90.0
100
AcDbRotatedDimension
1001
ACAD
1000
DSTYLE
1002
{
1070
   279
1070
     1
1002
}
  0
DIMENSION
  5
437C
102
{ACAD_XDICTIONARY
360
4389
102
}
102
{ACAD_REACTORS
330
4393
102
}
330
1F
100
AcDbEntity
  8
寸法
100
AcDbDimension
280
     0
  2
*D29
 10
194.7482126716588
 20
75.7272778038151
 30
0.0
 11
191.855663762568
 21
119.8425745306413
 31
0.0
 70
   160
  1
(<>)
 71
     5
 42
78.99999999999998
 73
     0
 74
     0
 75
     0
  3
LINEEYE
100
AcDbAlignedDimension
 13
135.7594300852445
 23
154.7272778038151
 33
0.0
 14
135.7594300852445
 24
75.72727780381511
 34
0.0
 50
90.0
100
AcDbRotatedDimension
1001
ACAD
1000
DSTYLE
1002
{
1070
   279
1070
     2
1002
}
  0
DIMENSION
  5
440C
102
{ACAD_XDICTIONARY
360
441B
102
}
102
{ACAD_REACTORS
330
4427
102
}
330
1F
100
AcDbEntity
  8
寸法
100
AcDbDimension
280
     0
  2
*D30
 10
217.4921566366921
 20
60.72727780381511
 30
0.0
 11
208.4213176073911
 21
60.72727780381511
 31
0.0
 70
   160
 71
     5
 73
     0
 74
     0
 75
     0
  3
LINEEYE
100
AcDbAlignedDimension
 13
218.4921566366921
 23
75.72727780381511
 33
0.0
 14
217.4921566366921
 24
75.72727780381511
 34
0.0
100
AcDbRotatedDimension
  0
DIMENSION
  5
4428
102
{ACAD_XDICTIONARY
360
4437
102
}
102
{ACAD_REACTORS
330
4443
102
}
330
1F
100
AcDbEntity
  8
寸法
100
AcDbDimension
280
     0
  2
*D31
 10
213.4921566366921
 20
50.72727780381511
 30
0.0
 11
215.9921566366922
 21
52.97727780381511
 31
0.0
 70
    32
 71
     5
 42
5.0
 73
     0
 74
     0
 75
     0
  3
LINEEYE
100
AcDbAlignedDimension
 13
218.4921566366921
 23
75.72727780381511
 33
0.0
 14
213.4921566366921
 24
94.2272778038151
 34
0.0
100
AcDbRotatedDimension
  0
MULTILEADER
  5
44F8
102
{ACAD_XDICTIONARY
360
44F9
102
}
102
{ACAD_REACTORS
330
44FA
102
}
330
1F
100
AcDbEntity
  8
寸法
160
               632
310
78020000170000000C00000016000000000000C00C00000033000000000000000C00000013000000993A0000C000000026000000D215BD0357BD6140A8EDEA3DF0126440000000000000000000000000000000000000000000000000000000000000F03FCD3B7F669EA0E63FCD3B7F669EA0E63F000000000000000038002D
310
00430031000000000004000000010000000000000000000440000000000000F03F0000000000000000000000000000F03F000000000000000000000000000000000000000000000000000000000100000000000000000000007400780074002E007300680078000000000000000C00000033000000000000000C0000001000
310
0000030000000C00000016000000000000C00C00000012000000FF7F00000C00000013000000010000000C00000014000000010000005400000007000000030000005EF5965C193D61407C4E6F39FC6C63400000000000000000287752404D086140C3CF19DC454763400000000000000000E1F5A79D032E6140F94D5EF811
310
7C634000000000000000000C00000013000000891300003C0000000600000002000000A0751F7D8E3561403BCEE618877463400000000000000000F7562316669B614092AFEAB15EDA634000000000000000000C00000013000000112700000C00000016000000000000C00C00000012000000FF7F00000C00000017000000
310
000000000C000000130000009A3A00003C0000000600000002000000F7562316669B614092AFEAB15EDA634000000000000000000CCF9B2537856240A72763C12FC4644000000000000000000C00000016000000000000C00C00000012000000FF7F00000C00000017000000FFFFFFFF0C0000003300000000000000
100
AcDbMLeader
270
     2
300
CONTEXT_DATA{
 40
1.0
 10
140.8562117281178
 20
158.8240594466884
 30
0.0
 41
2.5
140
2.0
145
2.0
174
     5
175
     8
176
     0
177
     0
290
     1
304
8-C1
 11
0.0
 21
0.0
 31
1.0
340
11
 12
140.1491049469313
 22
162.3595933526211
 32
0.0
 13
0.7071067811865476
 23
0.7071067811865476
 33
0.0
 42
0.7853981633974483
 43
0.0
 44
0.0
 45
1.0
170
     1
 90
-1073741824
171
     1
172
     5
 91
-1073741824
141
0.0
 92
        0
291
     0
292
     0
173
     0
293
     0
142
0.0
143
0.0
294
     0
295
     0
296
     0
110
136.2594300852445
120
154.2272778038151
130
0.0
111
1.0
121
0.0
131
0.0
112
0.0
122
1.0
132
0.0
297
     0
302
LEADER{
290
     1
291
     1
 10
132.8562117281178
 20
158.8240594466884
 30
0.0
 11
1.0
 21
0.0
 31
0.0
 90
        0
 40
8.0
304
LEADER_LINE{
 10
136.2594300852445
 20
154.2272778038151
 30
0.0
 91
        0
305
}
271
     0
303
}
272
     9
273
     9
301
}
340
36FA
 90
   345664
170
     1
 91
-1056964608
341
14
171
    -2
290
     1
291
     0
 41
8.0
 42
2.0
172
     2
343
11
173
     5
 95
        8
174
     0
175
     0
 92
-1056964608
292
     0
 93
-1056964608
 10
1.0
 20
1.0
 30
1.0
 43
0.0
176
     0
293
     0
294
     0
178
     0
179
     1
 45
1.0
271
     0
272
     9
273
     9
295
     0
  0
DIMENSION
  5
44FE
102
{ACAD_XDICTIONARY
360
450A
102
}
102
{ACAD_REACTORS
330
4513
102
}
330
1F
100
AcDbEntity
  8
寸法
100
AcDbDimension
280
     0
  2
*D32
 10
109.2648419679854
 20
149.6853044988428
 30
0.0
 11
92.47712944961495
 21
155.7291600979765
 31
0.0
 70
    35
  1
2-<> {\fMS PGothic|b0|i0|c128|p50;穴}
 71
     5
 42
3.200000000000009
 73
     0
 74
     0
 75
     0
  3
LINEEYE
100
AcDbDiametricDimension
 15
106.2540182025036
 25
150.7692511087873
 35
0.0
 40
0.0
1001
ACAD_DSTYLE_DIMRADIAL_EXTENSION
1070
   387
1070
     1
1070
   388
1040
0.0
1070
   390
1040
0.0
1001
ACAD
1000
DSTYLE
1002
{
1070
   288
1070
     1
1002
}
  0
DIMENSION
  5
4524
102
{ACAD_XDICTIONARY
360
4531
102
}
102
{ACAD_REACTORS
330
453B
102
}
330
1F
100
AcDbEntity
  8
寸法
100
AcDbDimension
280
     0
  2
*D33
 10
116.9193180395643
 20
80.22727780381512
 30
0.0
 11
116.9193180395643
 21
118.1028375772069
 31
0.0
 70
   160
 71
     5
 42
69.99999999999999
 73
     0
 74
     0
 75
     0
  3
LINEEYE
100
AcDbAlignedDimension
 13
110.2594300852445
 23
150.2272778038151
 33
0.0
 14
130.2594300852445
 24
80.22727780381512
 34
0.0
 50
90.0
100
AcDbRotatedDimension
  0
DIMENSION
  5
454E
102
{ACAD_XDICTIONARY
360
455B
102
}
102
{ACAD_REACTORS
330
4565
102
}
330
1F
100
AcDbEntity
  8
寸法
100
AcDbDimension
280
     0
  2
*D34
 10
132.7594300852445
 20
93.01332287154501
 30
0.0
 11
123.4007658112642
 21
93.01332287154501
 31
0.0
 70
   160
 71
     5
 42
25.0
 73
     0
 74
     0
 75
     0
  3
LINEEYE
100
AcDbAlignedDimension
 13
107.7594300852445
 23
147.7272778038151
 33
0.0
 14
132.7594300852445
 24
82.72727780381512
 34
0.0
100
AcDbRotatedDimension
  0
DIMENSION
  5
45F9
102
{ACAD_XDICTIONARY
360
4606
102
}
102
{ACAD_REACTORS
330
4610
102
}
330
1F
100
AcDbEntity
  8
寸法
100
AcDbDimension
280
     0
  2
*D35
 10
103.7594300852445
 20
60.72727780381511
 30
0.0
 11
120.2594300852445
 21
62.97727780381511
 31
0.0
 70
    32
 71
     5
 42
33.00000000000002
 73
     0
 74
     0
 75
     0
  3
LINEEYE
100
AcDbAlignedDimension
 13
136.7594300852445
 23
76.72727780381511
 33
0.0
 14
103.7594300852445
 24
76.7272778038151
 34
0.0
100
AcDbRotatedDimension
  0
DIMENSION
  5
4611
102
{ACAD_XDICTIONARY
360
461E
102
}
102
{ACAD_REACTORS
330
4628
102
}
330
1F
100
AcDbEntity
  8
寸法
100
AcDbDimension
280
     0
  2
*D36
 10
152.7482126716588
 20
50.72727780381511
 30
0.0
 11
158.7482126716588
 21
52.97727780381511
 31
0.0
 70
    32
 71
     5
 42
12.0
 73
     0
 74
     0
 75
     0
  3
LINEEYE
100
AcDbAlignedDimension
 13
164.7482126716588
 23
95.22727780381515
 33
0.0
 14
152.7482126716588
 24
94.22727780381512
 34
0.0
100
AcDbRotatedDimension
  0
DIMENSION
  5
4629
102
{ACAD_XDICTIONARY
360
4636
102
}
102
{ACAD_REACTORS
330
4640
102
}
330
1F
100
AcDbEntity
  8
寸法
100
AcDbDimension
280
     0
  2
*D37
 10
87.74821267165883
 20
50.72727780381511
 30
0.0
 11
120.2482126716588
 21
52.97727780381511
 31
0.0
 70
    32
 71
     5
 42
64.99999999999999
 73
     0
 74
     0
 75
     0
  3
LINEEYE
100
AcDbAlignedDimension
 13
152.7482126716588
 23
94.22727780381512
 33
0.0
 14
87.74821267165883
 24
94.22727780381512
 34
0.0
100
AcDbRotatedDimension
1001
ACAD
1000
DSTYLE
1002
{
1070
   279
1070
     1
1002
}
  0
DIMENSION
  5
4641
102
{ACAD_XDICTIONARY
360
464E
102
}
102
{ACAD_REACTORS
330
4658
102
}
330
1F
100
AcDbEntity
  8
寸法
100
AcDbDimension
280
     0
  2
*D38
 10
75.74821267165884
 20
50.72727780381511
 30
0.0
 11
81.74821267165883
 21
52.97727780381511
 31
0.0
 70
    32
 71
     5
 42
12.0
 73
     0
 74
     0
 75
     0
  3
LINEEYE
100
AcDbAlignedDimension
 13
87.74821267165883
 23
94.22727780381512
 33
0.0
 14
75.74821267165884
 24
95.2272778038151
 34
0.0
100
AcDbRotatedDimension
1001
ACAD
1000
DSTYLE
1002
{
1070
   279
1070
     1
1002
}
  0
DIMENSION
  5
4659
102
{ACAD_XDICTIONARY
360
4666
102
}
102
{ACAD_REACTORS
330
4670
102
}
330
1F
100
AcDbEntity
  8
寸法
100
AcDbDimension
280
     0
  2
*D39
 10
164.7482126716588
 20
40.72727780381511
 30
0.0
 11
120.2482126716588
 21
42.97727780381511
 31
0.0
 70
    32
  1
(<>)
 71
     5
 42
88.99999999999998
 73
     0
 74
     0
 75
     0
  3
LINEEYE
100
AcDbAlignedDimension
 13
75.74821267165884
 23
95.2272778038151
 33
0.0
 14
164.7482126716588
 24
95.22727780381515
 34
0.0
100
AcDbRotatedDimension
  0
DIMENSION
  5
4699
102
{ACAD_XDICTIONARY
360
46A5
102
}
102
{ACAD_REACTORS
330
46AE
102
}
330
1F
100
AcDbEntity
  8
寸法
100
AcDbDimension
280
     0
  2
*D40
 10
82.90430478768366
 20
126.0952695258749
 30
0.0
 11
70.95356816005386
 21
142.9656389656714
 31
0.0
 70
   163
  1
4-<> {\fMS PGothic|b0|i0|c128|p50;穴}
 71
     5
 42
3.999999999999978
 73
     0
 74
     0
 75
     0
  3
LINEEYE
100
AcDbDiametricDimension
 15
80.59212055563405
 25
129.3592860817552
 35
0.0
 40
0.0
1001
ACAD
1000
DSTYLE
1002
{
1070
   288
1070
     1
1002
}
1001
ACAD_DSTYLE_DIMRADIAL_EXTENSION
1070
   387
1070
     1
1070
   388
1040
0.0
1070
   390
1040
0.0
  0
DIMENSION
  5
46BF
102
{ACAD_XDICTIONARY
360
46C9
102
}
102
{ACAD_REACTORS
330
46D0
102
}
330
1F
100
AcDbEntity
  8
寸法
100
AcDbDimension
280
     0
  2
*D41
 10
81.7482126716588
 20
121.2272778038151
 30
0.0
 11
70.37775108901522
 21
125.4493207317812
 31
0.0
 70
   164
 71
     5
 42
2.09999999999998
 73
     0
 74
     0
 75
     0
  3
LINEEYE
100
AcDbRadialDimension
 15
79.77954776177255
 25
121.9582760750733
 35
0.0
 40
0.0
1001
ACAD
1000
DSTYLE
1002
{
1070
   288
1070
     1
1002
}
1001
ACAD_DSTYLE_DIMRADIAL_EXTENSION
1070
   387
1070
     1
1070
   388
1040
0.0
1070
   390
1040
3.141592653589793
  0
DIMENSION
  5
46D1
102
{ACAD_XDICTIONARY
360
46DB
102
}
102
{ACAD_REACTORS
330
46E2
102
}
330
1F
100
AcDbEntity
  8
寸法
100
AcDbDimension
280
     0
  2
*D42
 10
81.74821267165899
 20
115.2272778038151
 30
0.0
 11
95.41888494123822
 21
108.4626283277918
 31
0.0
 70
   164
 71
     5
 42
3.499999999999872
 73
     0
 74
     0
 75
     0
  3
LINEEYE
100
AcDbRadialDimension
 15
84.88516902423889
 25
113.6750198220325
 35
0.0
 40
0.0
1001
ACAD
1000
DSTYLE
1002
{
1070
   288
1070
     1
1002
}
1001
ACAD_DSTYLE_DIMRADIAL_EXTENSION
1070
   387
1070
     1
1070
   388
1040
5.355890089177798
1070
   390
1040
0.9272952180015229
  0
DIMENSION
  5
46E3
102
{ACAD_XDICTIONARY
360
46ED
102
}
102
{ACAD_REACTORS
330
46F4
102
}
330
1F
100
AcDbEntity
  8
寸法
100
AcDbDimension
280
     0
  2
*D43
 10
81.74821267165842
 20
109.227277803815
 30
0.0
 11
71.24551331604729
 21
102.2631056663692
 31
0.0
 70
   164
 71
     5
 42
2.099999999999937
 73
     0
 74
     0
 75
     0
  3
LINEEYE
100
AcDbRadialDimension
 15
79.99801845076214
 25
108.0667519793971
 35
0.0
 40
0.0
1001
ACAD
1000
DSTYLE
1002
{
1070
   288
1070
     1
1002
}
1001
ACAD_DSTYLE_DIMRADIAL_EXTENSION
1070
   387
1070
     1
1070
   388
1040
3.141592653589793
1070
   390
1040
0.0
  0
DIMENSION
  5
4707
102
{ACAD_XDICTIONARY
360
4714
102
}
102
{ACAD_REACTORS
330
471E
102
}
330
1F
100
AcDbEntity
  8
寸法
100
AcDbDimension
280
     0
  2
*D44
 10
104.6405504272524
 20
102.727277803815
 30
0.0
 11
104.6405504272524
 21
118.8491289320566
 31
0.0
 70
   160
 71
     5
 42
25.0
 73
     0
 74
     0
 75
     0
  3
LINEEYE
100
AcDbAlignedDimension
 13
84.24821267165883
 23
127.7272778038151
 33
0.0
 14
84.24821267165883
 24
102.7272778038151
 34
0.0
 50
90.0
100
AcDbRotatedDimension
  0
DIMENSION
  5
4743
102
{ACAD_XDICTIONARY
360
4752
102
}
102
{ACAD_REACTORS
330
475E
102
}
330
1F
100
AcDbEntity
  8
寸法
100
AcDbDimension
280
     0
  2
*D45
 10
65.45248975981809
 20
115.2272778038151
 30
0.0
 11
63.20248975981807
 21
118.2272778038151
 31
0.0
 70
    32
 71
     5
 42
6.0
 73
     0
 74
     0
 75
     0
  3
LINEEYE
100
AcDbAlignedDimension
 13
79.24821267165883
 23
121.2272778038151
 33
0.0
 14
70.03887750040428
 24
115.2272778038151
 34
0.0
 50
90.0
100
AcDbRotatedDimension
  0
DIMENSION
  5
475F
102
{ACAD_XDICTIONARY
360
476E
102
}
102
{ACAD_REACTORS
330
477A
102
}
330
1F
100
AcDbEntity
  8
寸法
100
AcDbDimension
280
     0
  2
*D46
 10
65.45248975981809
 20
115.2272778038151
 30
0.0
 11
63.20248975981807
 21
112.2272778038151
 31
0.0
 70
    32
 71
     5
 42
6.0
 73
     0
 74
     0
 75
     0
  3
LINEEYE
100
AcDbAlignedDimension
 13
79.24821267165883
 23
109.2272778038151
 33
0.0
 14
70.03887750040428
 24
115.2272778038151
 34
0.0
 50
90.0
100
AcDbRotatedDimension
  0
LINE
  5
48F4
330
1F
100
AcDbEntity
  8
中心線
100
AcDbLine
 10
216.4921566366921
 20
150.2272778038151
 30
0.0
 11
219.4921566366921
 21
150.2272778038151
 31
0.0
  0
LINE
  5
48F5
330
1F
100
AcDbEntity
  8
中心線
100
AcDbLine
 10
212.4921566366921
 20
127.7272778038151
 30
0.0
 11
215.4921566366922
 21
127.727277803815
 31
0.0
  0
LINE
  5
48F7
330
1F
100
AcDbEntity
  8
中心線
100
AcDbLine
 10
212.4921566366921
 20
102.7272778038151
 30
0.0
 11
215.4921566366922
 21
102.7272778038151
 31
0.0
  0
LINE
  5
48F8
330
1F
100
AcDbEntity
  8
中心線
100
AcDbLine
 10
216.4921566366921
 20
80.22727780381512
 30
0.0
 11
219.4921566366921
 21
80.22727780381512
 31
0.0
  0
LINE
  5
48F9
330
1F
100
AcDbEntity
  8
中心線
100
AcDbLine
 10
81.74821267165883
 20
171.0752045247938
 30
0.0
 11
81.74821267165883
 21
174.0752045247938
 31
0.0
  0
LINE
  5
48FA
330
1F
100
AcDbEntity
  8
中心線
100
AcDbLine
 10
107.7594300852445
 20
175.0752045247938
 30
0.0
 11
107.7594300852445
 21
178.0752045247938
 31
0.0
  0
LINE
  5
48FB
330
1F
100
AcDbEntity
  8
中心線
100
AcDbLine
 10
132.7594300852445
 20
175.0752045247938
 30
0.0
 11
132.7594300852445
 21
178.0752045247939
 31
0.0
  0
LINE
  5
48FC
330
1F
100
AcDbEntity
  8
中心線
100
AcDbLine
 10
158.7482126716588
 20
171.0752045247938
 30
0.0
 11
158.7482126716588
 21
174.0752045247938
 31
0.0
  0
VIEWPORT
  5
467
330
1B
100
AcDbEntity
 67
     1
  8
0
348
36DF
100
AcDbViewport
 10
143.667994993731
 20
129.6185908723003
 30
0.0
 40
397.7623524505894
 41
264.015551904803
 68
     1
 69
     1
 12
143.667994993731
 22
129.6185908723003
 13
0.0
 23
0.0
 14
10.0
 24
10.0
 15
10.0
 25
10.0
 16
0.0
 26
0.0
 36
1.0
 17
0.0
 27
0.0
 37
0.0
 42
50.0
 43
0.0
 44
0.0
 45
264.015551904803
 50
0.0
 51
0.0
 72
   100
 90
    32800
  1

281
     0
 71
     1
 74
     0
110
0.0
120
0.0
130
0.0
111
1.0
121
0.0
131
0.0
112
0.0
122
1.0
132
0.0
 79
     0
146
0.0
170
     0
 61
     5
348
36DF
292
     1
282
     1
141
0.0
142
0.0
361
36FF
  0
VIEWPORT
  5
469
102
{ACAD_XDICTIONARY
360
3BFB
102
}
330
1B
100
AcDbEntity
 67
     1
  8
0
348
36DF
100
AcDbViewport
 10
148.1378897606556
 20
99.00850465465111
 30
0.0
 40
257.5080359132773
 41
160.0
 68
     2
 69
     2
 12
0.0
 22
0.0
 13
0.0
 23
0.0
 14
10.0
 24
10.0
 15
10.0
 25
10.0
 16
0.0
 26
0.0
 36
360.9134062678996
 17
141.6442671288977
 27
110.5461266022469
 37
0.0
 42
50.0
 43
0.0
 44
0.0
 45
159.9999997763288
 50
0.0
 51
0.0
 72
   100
 90
    32864
  1

281
     0
 71
     1
 74
     0
110
0.0
120
0.0
130
0.0
111
1.0
121
0.0
131
0.0
112
0.0
122
1.0
132
0.0
 79
     0
146
0.0
170
     0
 61
     5
348
36DF
292
     1
282
     1
141
0.0
142
0.0
  0
LINE
  5
3C06
330
1B
100
AcDbEntity
 67
     1
  8
GAIKEI
100
AcDbLine
 10
-0.6161281959830376
 20
-0.9914953453488806
 30
0.0
 11
296.8919077172943
 21
-0.9914953453488806
 31
0.0
  0
LINE
  5
3C07
330
1B
100
AcDbEntity
 67
     1
  8
GAIKEI
100
AcDbLine
 10
296.8919077172943
 20
-0.9914953453488806
 30
0.0
 11
296.8919077172943
 21
209.0085046546511
 31
0.0
  0
LINE
  5
3C08
330
1B
100
AcDbEntity
 67
     1
  8
GAIKEI
100
AcDbLine
 10
296.8919077172943
 20
209.0085046546511
 30
0.0
 11
-0.6161281959830376
 21
209.0085046546511
 31
0.0
  0
LINE
  5
3C09
330
1B
100
AcDbEntity
 67
     1
  8
GAIKEI
100
AcDbLine
 10
-0.6161281959830376
 20
209.0085046546511
 30
0.0
 11
-0.6161281959830376
 21
-0.9914953453488806
 31
0.0
  0
MTEXT
  5
3C1C
330
1B
100
AcDbEntity
 67
     1
  8
0
100
AcDbMText
 10
22.09387197189744
 20
194.2347715348862
 30
0.0
 40
4.0
 41
113.6736322822726
 46
7.006666666666667
 71
     1
 72
     5
  1
{\fMS UI Gothic|b0|i0|c128|p50;SI用壁取付金具外形図\P型番 ： SI-WM1}
 73
     1
 44
1.0
1001
ACAD
1000
ACAD_MTEXT_DEFINED_HEIGHT_BEGIN
1070
    46
1040
7.006666666666667
1000
ACAD_MTEXT_DEFINED_HEIGHT_END
  0
MTEXT
  5
3C1D
102
{ACAD_XDICTIONARY
360
3C1E
102
}
330
1B
100
AcDbEntity
 67
     1
  8
文字
100
AcDbMText
 10
223.9823266110419
 20
194.2347715348862
 30
0.0
 40
4.0
 41
43.80805967065966
 46
11.93936756140624
 71
     1
 72
     5
  1
{\fMS UI Gothic|b0|i0|c128|p50;株式会社ラインアイ\P\pi17.831;単位 ： mm}
 73
     1
 44
1.0
  0
ENDSEC
  0
SECTION
  2
OBJECTS
  0
DICTIONARY
  5
C
330
0
100
AcDbDictionary
281
     1
  3
ACAD_CIP_PREVIOUS_PRODUCT_INFO
350
3BBF
  3
ACAD_COLOR
350
371B
  3
ACAD_DETAILVIEWSTYLE
350
3BAC
  3
ACAD_GROUP
350
D
  3
ACAD_IMAGE_VARS
350
36FD
  3
ACAD_LAYOUT
350
1A
  3
ACAD_MATERIAL
350
36F3
  3
ACAD_MLEADERSTYLE
350
36F9
  3
ACAD_MLINESTYLE
350
17
  3
ACAD_PLOTSETTINGS
350
19
  3
ACAD_PLOTSTYLENAME
350
E
  3
ACAD_SCALELIST
350
36B8
  3
ACAD_SECTIONVIEWSTYLE
350
3BAD
  3
ACAD_TABLESTYLE
350
36F7
  3
ACAD_VISUALSTYLE
350
36DA
  3
ACDB_RECOMPOSE_DATA
350
4928
  3
AcDbVariableDictionary
350
193
  3
APPDATA
350
36FB
  0
SUN
  5
36FC
330
36B7
100
AcDbSun
 90
        1
290
     1
 63
     7
421
 16777215
 40
1.0
291
     1
 91
  2455826
 92
 54000000
292
     0
 70
     0
 71
   256
280
     1
  0
DICTIONARY
  5
396B
330
2
100
AcDbDictionary
280
     1
281
     1
  3
ACAD_LAYERSTATES
360
396C
  0
DICTIONARY
  5
370E
330
370D
100
AcDbDictionary
280
     1
281
     1
  3
ADSK_XREC_LAYER_RECONCILED
360
370F
  0
DICTIONARY
  5
F87
330
1F
100
AcDbDictionary
280
     1
281
     1
  3
ACAD_SORTENTS
360
F88
  0
DICTIONARY
  5
3C0A
330
1B
100
AcDbDictionary
280
     1
281
     1
  3
ACAD_SORTENTS
360
3C0B
  0
DICTIONARY
  5
2775
330
2774
100
AcDbDictionary
280
     1
281
     1
  3
ACAD_DIMASSOC
360
2776
  0
DICTIONARY
  5
2778
330
2777
100
AcDbDictionary
280
     1
281
     1
  3
ACAD_DIMASSOC
360
2779
  0
DICTIONARY
  5
277B
330
277A
100
AcDbDictionary
280
     1
281
     1
  3
ACAD_DIMASSOC
360
277C
  0
DICTIONARY
  5
278C
330
278B
100
AcDbDictionary
280
     1
281
     1
  3
ACAD_DIMASSOC
360
278D
  0
DICTIONARY
  5
2797
330
2796
100
AcDbDictionary
280
     1
281
     1
  3
ACAD_DIMASSOC
360
2798
  0
DICTIONARY
  5
279B
330
279A
100
AcDbDictionary
280
     1
281
     1
  3
ACAD_DIMASSOC
360
279C
  0
DICTIONARY
  5
27AD
330
27AC
100
AcDbDictionary
280
     1
281
     1
  3
ACAD_DIMASSOC
360
27AE
  0
DICTIONARY
  5
27B0
330
27AF
100
AcDbDictionary
280
     1
281
     1
  3
ACAD_DIMASSOC
360
27B1
  0
DICTIONARY
  5
27B3
330
27B2
100
AcDbDictionary
280
     1
281
     1
  3
ACAD_DIMASSOC
360
27B4
  0
DICTIONARY
  5
27CF
330
27CE
100
AcDbDictionary
280
     1
281
     1
  3
ACAD_DIMASSOC
360
27D0
  0
DICTIONARY
  5
27DD
330
27DC
100
AcDbDictionary
280
     1
281
     1
  3
ACAD_DIMASSOC
360
27DE
  0
DICTIONARY
  5
27E0
330
27DF
100
AcDbDictionary
280
     1
281
     1
  3
ACAD_DIMASSOC
360
27E1
  0
DICTIONARY
  5
27E5
330
27E4
100
AcDbDictionary
280
     1
281
     1
  3
ACAD_DIMASSOC
360
27E6
  0
DICTIONARY
  5
3C66
330
3C5C
100
AcDbDictionary
280
     1
281
     1
  3
ACAD_DIMASSOC
360
3C6D
  0
DICTIONARY
  5
3C78
330
3C6E
100
AcDbDictionary
280
     1
281
     1
  3
ACAD_DIMASSOC
360
3C7F
  0
DICTIONARY
  5
3C8A
330
3C80
100
AcDbDictionary
280
     1
281
     1
  3
ACAD_DIMASSOC
360
3C91
  0
DICTIONARY
  5
3CB7
330
3CAA
100
AcDbDictionary
280
     1
281
     1
  3
ACAD_DIMASSOC
360
3CC1
  0
DICTIONARY
  5
40F0
330
40E3
100
AcDbDictionary
280
     1
281
     1
  3
ACAD_DIMASSOC
360
40FA
  0
DICTIONARY
  5
4261
330
4254
100
AcDbDictionary
280
     1
281
     1
  3
ACAD_DIMASSOC
360
426B
  0
DICTIONARY
  5
427B
330
426C
100
AcDbDictionary
280
     1
281
     1
  3
ACAD_DIMASSOC
360
4287
  0
DICTIONARY
  5
42FA
330
42ED
100
AcDbDictionary
280
     1
281
     1
  3
ACAD_DIMASSOC
360
4304
  0
DICTIONARY
  5
4312
330
4305
100
AcDbDictionary
280
     1
281
     1
  3
ACAD_DIMASSOC
360
431C
  0
DICTIONARY
  5
432A
330
431D
100
AcDbDictionary
280
     1
281
     1
  3
ACAD_DIMASSOC
360
4334
  0
DICTIONARY
  5
4389
330
437C
100
AcDbDictionary
280
     1
281
     1
  3
ACAD_DIMASSOC
360
4393
  0
DICTIONARY
  5
441B
330
440C
100
AcDbDictionary
280
     1
281
     1
  3
ACAD_DIMASSOC
360
4427
  0
DICTIONARY
  5
4437
330
4428
100
AcDbDictionary
280
     1
281
     1
  3
ACAD_DIMASSOC
360
4443
  0
DICTIONARY
  5
44F9
330
44F8
100
AcDbDictionary
280
     1
281
     1
  3
ACAD_DIMASSOC
360
44FA
  0
DICTIONARY
  5
450A
330
44FE
100
AcDbDictionary
280
     1
281
     1
  3
ACAD_DIMASSOC
360
4513
  0
DICTIONARY
  5
4531
330
4524
100
AcDbDictionary
280
     1
281
     1
  3
ACAD_DIMASSOC
360
453B
  0
DICTIONARY
  5
455B
330
454E
100
AcDbDictionary
280
     1
281
     1
  3
ACAD_DIMASSOC
360
4565
  0
DICTIONARY
  5
4606
330
45F9
100
AcDbDictionary
280
     1
281
     1
  3
ACAD_DIMASSOC
360
4610
  0
DICTIONARY
  5
461E
330
4611
100
AcDbDictionary
280
     1
281
     1
  3
ACAD_DIMASSOC
360
4628
  0
DICTIONARY
  5
4636
330
4629
100
AcDbDictionary
280
     1
281
     1
  3
ACAD_DIMASSOC
360
4640
  0
DICTIONARY
  5
464E
330
4641
100
AcDbDictionary
280
     1
281
     1
  3
ACAD_DIMASSOC
360
4658
  0
DICTIONARY
  5
4666
330
4659
100
AcDbDictionary
280
     1
281
     1
  3
ACAD_DIMASSOC
360
4670
  0
DICTIONARY
  5
46A5
330
4699
100
AcDbDictionary
280
     1
281
     1
  3
ACAD_DIMASSOC
360
46AE
  0
DICTIONARY
  5
46C9
330
46BF
100
AcDbDictionary
280
     1
281
     1
  3
ACAD_DIMASSOC
360
46D0
  0
DICTIONARY
  5
46DB
330
46D1
100
AcDbDictionary
280
     1
281
     1
  3
ACAD_DIMASSOC
360
46E2
  0
DICTIONARY
  5
46ED
330
46E3
100
AcDbDictionary
280
     1
281
     1
  3
ACAD_DIMASSOC
360
46F4
  0
DICTIONARY
  5
4714
330
4707
100
AcDbDictionary
280
     1
281
     1
  3
ACAD_DIMASSOC
360
471E
  0
DICTIONARY
  5
4752
330
4743
100
AcDbDictionary
280
     1
281
     1
  3
ACAD_DIMASSOC
360
475E
  0
DICTIONARY
  5
476E
330
475F
100
AcDbDictionary
280
     1
281
     1
  3
ACAD_DIMASSOC
360
477A
  0
SUN
  5
36FF
330
467
100
AcDbSun
 90
        1
290
     1
 63
     7
421
 16777215
 40
1.0
291
     1
 91
  2455826
 92
 54000000
292
     0
 70
     0
 71
   256
280
     1
  0
DICTIONARY
  5
3BFB
330
469
100
AcDbDictionary
280
     1
281
     1
  3
ASDK_XREC_ANNOTATION_SCALE_INFO
360
3BFC
  0
DICTIONARY
  5
3C1E
330
3C1D
100
AcDbDictionary
280
     1
281
     1
  3
ACAD_MTEXT_2008_RT
360
4927
  0
XRECORD
  5
3BBF
102
{ACAD_REACTORS
330
C
102
}
330
C
100
AcDbXrecord
280
     1
300
ACDLT
300
2013
300
ACDLT_F_S
  0
DICTIONARY
  5
371B
102
{ACAD_REACTORS
330
C
102
}
330
C
100
AcDbDictionary
281
     1
  0
DICTIONARY
  5
3BAC
102
{ACAD_REACTORS
330
C
102
}
330
C
100
AcDbDictionary
281
     1
  3
Metric50
350
3BBA
  0
DICTIONARY
  5
D
102
{ACAD_REACTORS
330
C
102
}
330
C
100
AcDbDictionary
281
     1
  0
RASTERVARIABLES
  5
36FD
102
{ACAD_REACTORS
330
C
102
}
330
C
100
AcDbRasterVariables
 90
        0
 70
     1
 71
     1
 72
     1
  0
DICTIONARY
  5
1A
102
{ACAD_REACTORS
330
C
102
}
330
C
100
AcDbDictionary
281
     1
  3
Model
350
22
  3
ﾚｲｱｳﾄ1
350
1E
  0
DICTIONARY
  5
36F3
102
{ACAD_REACTORS
330
C
102
}
330
C
100
AcDbDictionary
281
     1
  3
ByBlock
350
36F5
  3
ByLayer
350
36F4
  3
Global
350
36F6
  0
DICTIONARY
  5
36F9
102
{ACAD_REACTORS
330
C
102
}
330
C
100
AcDbDictionary
281
     1
  3
Standard
350
36FA
  0
DICTIONARY
  5
17
102
{ACAD_REACTORS
330
C
102
}
330
C
100
AcDbDictionary
281
     1
  3
Standard
350
18
  0
DICTIONARY
  5
19
102
{ACAD_REACTORS
330
C
102
}
330
C
100
AcDbDictionary
281
     1
  0
ACDBDICTIONARYWDFLT
  5
E
102
{ACAD_REACTORS
330
C
102
}
330
C
100
AcDbDictionary
281
     1
  3
Normal
350
F
100
AcDbDictionaryWithDefault
340
F
  0
DICTIONARY
  5
36B8
102
{ACAD_REACTORS
330
C
102
}
330
C
100
AcDbDictionary
281
     1
  3
A0
350
36B9
  3
A1
350
36BA
  3
A2
350
36BB
  3
A3
350
36BC
  3
A4
350
36BD
  3
A5
350
36BE
  3
A6
350
36BF
  3
A7
350
36C0
  3
A8
350
36C1
  3
A9
350
36C2
  3
B0
350
36C3
  3
B1
350
36C4
  3
B2
350
36C5
  3
B3
350
36C6
  3
B4
350
36C7
  3
B5
350
36C8
  3
B6
350
36C9
  3
B7
350
36CA
  3
B8
350
36CB
  3
B9
350
36CC
  3
C0
350
36CD
  3
C1
350
36CE
  3
C2
350
36CF
  3
C3
350
36D0
  3
C4
350
36D1
  3
C5
350
36D2
  3
C6
350
36D3
  3
C7
350
36D4
  3
C8
350
36D5
  3
C9
350
36D6
  3
D0
350
36D7
  3
D1
350
36D8
  3
D2
350
36D9
  0
DICTIONARY
  5
3BAD
102
{ACAD_REACTORS
330
C
102
}
330
C
100
AcDbDictionary
281
     1
  3
Metric50
350
3BB9
  0
DICTIONARY
  5
36F7
102
{ACAD_REACTORS
330
C
102
}
330
C
100
AcDbDictionary
281
     1
  3
Standard
350
36F8
  0
DICTIONARY
  5
36DA
102
{ACAD_REACTORS
330
C
102
}
330
C
100
AcDbDictionary
281
     1
  3
2dWireframe
350
36DF
  3
Basic
350
36E2
  3
Brighten
350
36E6
  3
ColorChange
350
36EA
  3
Conceptual
350
36E4
  3
Dim
350
36E5
  3
EdgeColorOff
350
36ED
  3
Facepattern
350
36E9
  3
Flat
350
36DB
  3
FlatWithEdges
350
36DC
  3
Gouraud
350
36DD
  3
GouraudWithEdges
350
36DE
  3
Hidden
350
36E1
  3
JitterOff
350
36EB
  3
Linepattern
350
36E8
  3
OverhangOff
350
36EC
  3
Realistic
350
36E3
  3
Shaded
350
36F2
  3
Shaded with edges
350
36F1
  3
Shades of Gray
350
36EE
  3
Sketchy
350
36EF
  3
Thicken
350
36E7
  3
Wireframe
350
36E0
  3
X-Ray
350
36F0
  0
XRECORD
  5
4928
102
{ACAD_REACTORS
330
C
102
}
330
C
100
AcDbXrecord
280
     1
 90
        1
330
36F8
330
3C1D
330
437C
  0
DICTIONARY
  5
193
102
{ACAD_REACTORS
330
C
102
}
330
C
100
AcDbDictionary
281
     1
  3
CANNOSCALE
350
3BA8
  3
CMLEADERSTYLE
350
3BAA
  3
CTABLESTYLE
350
3BA9
  3
CVIEWDETAILSTYLE
350
3BC3
  3
CVIEWSECTIONSTYLE
350
3BC4
  3
DIMASSOC
350
195
  3
HIDETEXT
350
194
  3
MSLTSCALE
350
3BAB
  3
SORTENTS
350
FE8
  0
DICTIONARY
  5
36FB
102
{ACAD_REACTORS
330
C
102
}
330
C
100
AcDbDictionary
281
     1
  0
DICTIONARY
  5
396C
102
{ACAD_REACTORS
330
396B
102
}
330
396B
100
AcDbDictionary
281
     1
  0
XRECORD
  5
370F
102
{ACAD_REACTORS
330
370E
102
}
330
370E
100
AcDbXrecord
280
     1
290
     1
  0
SORTENTSTABLE
  5
F88
102
{ACAD_REACTORS
330
F87
102
}
330
F87
100
AcDbSortentsTable
330
1F
331
397E
  5
397F
331
397A
  5
397A
331
3A14
  5
3C46
331
3A10
  5
3C44
331
3972
  5
3972
331
3C26
  5
3C50
331
3A08
  5
3C3D
331
4428
  5
46BF
331
39AD
  5
39E8
331
3C59
  5
44FE
331
39FC
  5
3C36
331
3C55
  5
44F8
331
39F8
  5
3C2A
331
3C51
  5
4473
331
431D
  5
4641
331
440C
  5
4699
331
48F9
  5
4904
331
48F5
  5
4901
331
399D
  5
39D3
331
3C4D
  5
440A
331
3C49
  5
431D
331
3991
  5
39C1
331
3C45
  5
426C
331
3C80
  5
45AF
331
40E3
  5
45F9
331
46D1
  5
48FB
331
3989
  5
39B7
331
3985
  5
39AD
331
3C3D
  5
3D21
331
3A1F
  5
3C4B
331
3C39
  5
3A1D
331
4305
  5
4629
331
3981
  5
3984
331
3C35
  5
3A30
331
437C
  5
4659
331
39B8
  5
3A13
331
44FE
  5
46E3
331
3C31
  5
3CAA
331
397D
  5
397D
331
3A13
  5
3C45
331
3975
  5
3975
331
3A0F
  5
3C43
331
3C29
  5
3C57
331
39B0
  5
3A0F
331
42ED
  5
4611
331
475F
  5
48FF
331
39AC
  5
39E7
331
3A07
  5
3C3C
331
3C5C
  5
45AD
331
3C58
  5
4591
331
39FB
  5
3C35
331
3C54
  5
44CB
331
3C50
  5
4472
331
48FC
  5
4907
331
4743
  5
48FE
331
48F8
  5
4903
331
48F4
  5
4900
331
4699
  5
48F9
331
399C
  5
39D2
331
39F7
  5
3C29
331
3C4C
  5
3C52
331
3994
  5
39D0
331
3C48
  5
42ED
331
39D3
  5
3A2F
331
3990
  5
39BA
331
3C44
  5
40E3
331
39C3
  5
3A20
331
3988
  5
39B0
331
3984
  5
39AC
331
3C3C
  5
3CF3
331
3A1E
  5
3C4A
331
3C38
  5
3A1F
331
3980
  5
3982
331
3C34
  5
3A2E
331
3C30
  5
3C80
331
4707
  5
48FD
331
397C
  5
397C
331
3A16
  5
3C48
331
3978
  5
3978
331
39B7
  5
3A10
331
3974
  5
3974
331
3C2C
  5
3C5C
331
3A0E
  5
3C41
331
3C28
  5
3C51
331
3CAA
  5
45B0
331
39AF
  5
3A0E
331
3A06
  5
3C3B
331
39A7
  5
39E6
331
3C5B
  5
45AC
331
39FE
  5
3C39
331
39FA
  5
3C34
331
3C57
  5
454E
331
4524
  5
4707
331
3C53
  5
4428
331
4659
  5
48F8
331
46E3
  5
48FC
331
48FB
  5
4906
331
48F7
  5
4902
331
399B
  5
39D1
331
39F6
  5
3C27
331
3C4F
  5
3C5B
331
3993
  5
39C3
331
3C4B
  5
43BA
331
39D2
  5
3A2D
331
3A31
  5
3C4E
331
3C47
  5
42D2
331
4641
  5
48F7
331
398B
  5
39B9
331
3987
  5
39AF
331
39C2
  5
3A1E
331
3A21
  5
3C4C
331
3983
  5
39A7
331
3A1D
  5
3C49
331
3C3B
  5
3CF2
331
39BA
  5
3A15
331
426C
  5
45AE
331
3C37
  5
3981
331
3C33
  5
397E
331
3C6E
  5
45AB
331
44F8
  5
46D1
331
46BF
  5
48FA
331
397F
  5
3980
331
397B
  5
397B
331
3A15
  5
3C47
331
3C2F
  5
3C6E
331
3A0D
  5
3C40
331
3C2B
  5
3C58
331
3C27
  5
3C4F
331
4254
  5
4590
331
4629
  5
48F5
331
39AE
  5
39E9
331
3A05
  5
3C3A
331
39A6
  5
39E5
331
39FD
  5
3C37
331
3C5A
  5
4592
331
39F9
  5
3C32
331
3C56
  5
4524
331
3C52
  5
440C
331
48FA
  5
4905
331
4611
  5
48F4
331
399E
  5
39E4
331
39F5
  5
3A31
331
3C4E
  5
43BB
331
3992
  5
39C2
331
3C4A
  5
437C
331
39D1
  5
3A2C
331
3A30
  5
3C4D
331
3C46
  5
42B9
331
398A
  5
39B8
331
3986
  5
39AE
331
39C1
  5
3A16
331
3982
  5
39A6
331
3C3A
  5
3CDA
331
39B9
  5
3A14
331
454E
  5
4743
331
3C36
  5
399E
331
3C32
  5
3983
331
45F9
  5
475F
  0
SORTENTSTABLE
  5
3C0B
102
{ACAD_REACTORS
330
3C0A
102
}
330
3C0A
100
AcDbSortentsTable
330
1B
331
3C06
  5
3C06
331
3C07
  5
3C08
331
467
  5
467
331
3C08
  5
3C0D
331
3C09
  5
3C0F
331
469
  5
469
  0
DIMASSOC
  5
2776
102
{ACAD_REACTORS
330
2775
102
}
330
2775
100
AcDbDimAssoc
330
2774
 90
        2
 70
     0
 71
     0
  1
AcDbOsnapPointRef
 72
     3
331
27CA
 73
     2
 91
        0
 40
0.0
 10
207.0799496199761
 20
165.2438128573029
 30
0.0
 75
     0
  0
DIMASSOC
  5
2779
102
{ACAD_REACTORS
330
2778
102
}
330
2778
100
AcDbDimAssoc
330
2777
 90
        1
 70
     0
 71
     0
  1
AcDbOsnapPointRef
 72
    13
331
27EA
 73
     2
 91
        0
 40
0.0
 10
216.0799496199762
 20
185.7438128573028
 30
0.0
 75
     0
  0
DIMASSOC
  5
277C
102
{ACAD_REACTORS
330
277B
102
}
330
277B
100
AcDbDimAssoc
330
277A
 90
        3
 70
     0
 71
     0
  1
AcDbOsnapPointRef
 72
    13
331
2787
 73
     2
 91
        0
 40
0.0
 10
133.5799496199762
 20
194.2438128573029
 30
0.0
 75
     0
  1
AcDbOsnapPointRef
 72
     1
331
2787
 73
     2
 91
        0
 40
1.0
 10
210.5799496199761
 20
194.2438128573029
 30
0.0
 75
     0
  0
DIMASSOC
  5
278D
102
{ACAD_REACTORS
330
278C
102
}
330
278C
100
AcDbDimAssoc
330
278B
 90
        3
 70
     0
 71
     0
  1
AcDbOsnapPointRef
 72
     6
331
278A
 73
     2
 91
        0
 40
0.5
 10
172.079949619976
 20
147.0243708573029
 30
0.0
332
27A2
 74
     2
 92
        0
 75
     0
  1
AcDbOsnapPointRef
 72
     6
331
2799
 73
     2
 91
        0
 40
0.4084507042253521
 10
172.079949619976
 20
144.5243708573029
 30
0.0
332
27A2
 74
     2
 92
        0
 75
     0
  0
DIMASSOC
  5
2798
102
{ACAD_REACTORS
330
2797
102
}
330
2797
100
AcDbDimAssoc
330
2796
 90
        3
 70
     0
 71
     0
  1
AcDbOsnapPointRef
 72
     1
331
278E
 73
     2
 91
        0
 40
1.0
 10
157.5799496199761
 20
139.0243708573029
 30
0.0
 75
     0
  1
AcDbOsnapPointRef
 72
    13
331
2784
 73
     2
 91
        0
 40
0.0
 10
193.079949619976
 20
139.0243708573029
 30
0.0
 75
     0
  0
DIMASSOC
  5
279C
102
{ACAD_REACTORS
330
279B
102
}
330
279B
100
AcDbDimAssoc
330
279A
 90
        2
 70
     0
 71
     0
  1
AcDbOsnapPointRef
 72
     1
331
27A2
 73
     2
 91
        0
 40
1.0
 10
172.079949619976
 20
143.5243708573029
 30
0.0
 75
     0
  0
DIMASSOC
  5
27AE
102
{ACAD_REACTORS
330
27AD
102
}
330
27AD
100
AcDbDimAssoc
330
27AC
 90
        3
 70
     0
 71
     0
  1
AcDbOsnapPointRef
 72
    13
331
27BD
 73
     2
 91
        0
 40
0.0
 10
137.0799496199762
 20
194.2438128573029
 30
0.0
 75
     0
  1
AcDbOsnapPointRef
 72
    13
331
27CD
 73
     2
 91
        0
 40
0.0
 10
207.0799496199761
 20
194.2438128573029
 30
0.0
 75
     0
  0
DIMASSOC
  5
27B1
102
{ACAD_REACTORS
330
27B0
102
}
330
27B0
100
AcDbDimAssoc
330
27AF
 90
        3
 70
     0
 71
     0
  1
AcDbOsnapPointRef
 72
     1
331
27BB
 73
     2
 91
        0
 40
1.0
 10
133.0799496199762
 20
190.2438128573029
 30
0.0
 75
     0
  1
AcDbOsnapPointRef
 72
     1
331
27B8
 73
     2
 91
        0
 40
1.0
 10
133.0799496199762
 20
165.2438128573029
 30
0.0
 75
     0
  0
DIMASSOC
  5
27B4
102
{ACAD_REACTORS
330
27B3
102
}
330
27B3
100
AcDbDimAssoc
330
27B2
 90
        2
 70
     0
 71
     0
  1
AcDbOsnapPointRef
 72
    13
331
2788
 73
     2
 91
        0
 40
0.0
 10
133.5799496199762
 20
161.2438128573029
 30
0.0
 75
     0
  0
DIMASSOC
  5
27D0
102
{ACAD_REACTORS
330
27CF
102
}
330
27CF
100
AcDbDimAssoc
330
27CE
 90
        3
 70
     0
 71
     0
  1
AcDbOsnapPointRef
 72
    13
331
27D4
 73
     2
 91
        0
 40
0.0
 10
215.5799496199761
 20
144.5243708573029
 30
0.0
 75
     0
  1
AcDbOsnapPointRef
 72
     1
331
27D4
 73
     2
 91
        0
 40
1.0
 10
215.5799496199761
 20
140.5243708573029
 30
0.0
 75
     0
  0
DIMASSOC
  5
27DE
102
{ACAD_REACTORS
330
27DD
102
}
330
27DD
100
AcDbDimAssoc
330
27DC
 90
        1
 70
     0
 71
     0
  1
AcDbOsnapPointRef
 72
    13
331
2804
 73
     2
 91
        0
 40
0.0
 10
237.9562856199762
 20
193.2438128573029
 30
0.0
 75
     0
  0
DIMASSOC
  5
27E1
102
{ACAD_REACTORS
330
27E0
102
}
330
27E0
100
AcDbDimAssoc
330
27DF
 90
        3
 70
     0
 71
     0
  1
AcDbOsnapPointRef
 72
    13
331
27E9
 73
     2
 91
        0
 40
0.0
 10
233.9562856199762
 20
194.2438128573029
 30
0.0
 75
     0
  1
AcDbOsnapPointRef
 72
     1
331
2800
 73
     2
 91
        0
 40
1.0
 10
241.9562856199762
 20
194.2438128573029
 30
0.0
 75
     0
  0
DIMASSOC
  5
27E6
102
{ACAD_REACTORS
330
27E5
102
}
330
27E5
100
AcDbDimAssoc
330
27E4
 90
        3
 70
     0
 71
     0
  1
AcDbOsnapPointRef
 72
     1
331
27FD
 73
     2
 91
        0
 40
1.0
 10
215.5799496199761
 20
186.2438128573029
 30
0.0
 75
     0
  1
AcDbOsnapPointRef
 72
     1
331
27EC
 73
     2
 91
        0
 40
1.0
 10
215.5799496199761
 20
169.2438128573029
 30
0.0
 75
     0
  0
DIMASSOC
  5
3C6D
102
{ACAD_REACTORS
330
3C66
102
}
330
3C66
100
AcDbDimAssoc
330
3C5C
 90
        2
 70
     0
 71
     0
  1
AcDbOsnapPointRef
 72
     3
331
39B7
 73
     2
 91
        0
 40
0.0
 10
0.0
 20
0.0
 30
0.0
 75
     0
  0
DIMASSOC
  5
3C7F
102
{ACAD_REACTORS
330
3C78
102
}
330
3C78
100
AcDbDimAssoc
330
3C6E
 90
        2
 70
     0
 71
     0
  1
AcDbOsnapPointRef
 72
     3
331
39AC
 73
     2
 91
        0
 40
0.0
 10
0.0
 20
0.0
 30
0.0
 75
     0
  0
DIMASSOC
  5
3C91
102
{ACAD_REACTORS
330
3C8A
102
}
330
3C8A
100
AcDbDimAssoc
330
3C80
 90
        2
 70
     0
 71
     0
  1
AcDbOsnapPointRef
 72
     3
331
39AE
 73
     2
 91
        0
 40
0.0
 10
0.0
 20
0.0
 30
0.0
 75
     0
  0
DIMASSOC
  5
3CC1
102
{ACAD_REACTORS
330
3CB7
102
}
330
3CB7
100
AcDbDimAssoc
330
3CAA
 90
        3
 70
     0
 71
     0
  1
AcDbOsnapPointRef
 72
     1
331
3C26
 73
     2
 91
        0
 40
1.0
 10
0.0
 20
0.0
 30
2.000000000000000E+50
 75
     0
  1
AcDbOsnapPointRef
 72
     1
331
3C27
 73
     2
 91
        0
 40
1.0
 10
0.0
 20
0.0
 30
2.000000000000000E+50
 75
     0
  0
DIMASSOC
  5
40FA
102
{ACAD_REACTORS
330
40F0
102
}
330
40F0
100
AcDbDimAssoc
330
40E3
 90
        3
 70
     0
 71
     0
  1
AcDbOsnapPointRef
 72
     1
331
39C2
 73
     2
 91
        0
 40
1.0
 10
0.0
 20
0.0
 30
2.000000000000000E+50
 75
     0
  1
AcDbOsnapPointRef
 72
    13
331
39A6
 73
     2
 91
        0
 40
0.0
 10
0.0
 20
0.0
 30
2.000000000000000E+50
 75
     0
  0
DIMASSOC
  5
426B
102
{ACAD_REACTORS
330
4261
102
}
330
4261
100
AcDbDimAssoc
330
4254
 90
        3
 70
     0
 71
     0
  1
AcDbOsnapPointRef
 72
     1
331
39BA
 73
     2
 91
        0
 40
1.0
 10
0.0
 20
0.0
 30
2.000000000000000E+50
 75
     0
  1
AcDbOsnapPointRef
 72
     6
331
397B
 73
     2
 91
        0
 40
0.5049357044388812
 10
0.0
 20
0.0
 30
0.0
332
3989
 74
     2
 92
        0
 75
     0
  0
DIMASSOC
  5
4287
102
{ACAD_REACTORS
330
427B
102
}
330
427B
100
AcDbDimAssoc
330
426C
 90
        3
 70
     0
 71
     0
  1
AcDbOsnapPointRef
 72
     1
331
39A7
 73
     2
 91
        0
 40
1.0
 10
0.0
 20
0.0
 30
2.000000000000000E+50
 75
     0
  1
AcDbOsnapPointRef
 72
     6
331
397B
 73
     2
 91
        0
 40
0.5049357044388812
 10
0.0
 20
0.0
 30
0.0
332
3989
 74
     2
 92
        0
 75
     0
  0
DIMASSOC
  5
4304
102
{ACAD_REACTORS
330
42FA
102
}
330
42FA
100
AcDbDimAssoc
330
42ED
 90
        3
 70
     0
 71
     0
  1
AcDbOsnapPointRef
 72
    13
331
397E
 73
     2
 91
        0
 40
0.0
 10
0.0
 20
0.0
 30
2.000000000000000E+50
 75
     0
  1
AcDbOsnapPointRef
 72
     1
331
39C1
 73
     2
 91
        0
 40
1.0
 10
0.0
 20
0.0
 30
2.000000000000000E+50
 75
     0
  0
DIMASSOC
  5
431C
102
{ACAD_REACTORS
330
4312
102
}
330
4312
100
AcDbDimAssoc
330
4305
 90
        3
 70
     0
 71
     0
  1
AcDbOsnapPointRef
 72
     1
331
39C1
 73
     2
 91
        0
 40
1.0
 10
0.0
 20
0.0
 30
2.000000000000000E+50
 75
     0
  1
AcDbOsnapPointRef
 72
     1
331
39C3
 73
     2
 91
        0
 40
1.0
 10
0.0
 20
0.0
 30
2.000000000000000E+50
 75
     0
  0
DIMASSOC
  5
4334
102
{ACAD_REACTORS
330
432A
102
}
330
432A
100
AcDbDimAssoc
330
431D
 90
        3
 70
     0
 71
     0
  1
AcDbOsnapPointRef
 72
     1
331
39C3
 73
     2
 91
        0
 40
1.0
 10
0.0
 20
0.0
 30
2.000000000000000E+50
 75
     0
  1
AcDbOsnapPointRef
 72
     1
331
3981
 73
     2
 91
        0
 40
1.0
 10
0.0
 20
0.0
 30
2.000000000000000E+50
 75
     0
  0
DIMASSOC
  5
4393
102
{ACAD_REACTORS
330
4389
102
}
330
4389
100
AcDbDimAssoc
330
437C
 90
        3
 70
     0
 71
     0
  1
AcDbOsnapPointRef
 72
    13
331
397E
 73
     2
 91
        0
 40
0.0
 10
0.0
 20
0.0
 30
2.000000000000000E+50
 75
     0
  1
AcDbOsnapPointRef
 72
     1
331
3981
 73
     2
 91
        0
 40
1.0
 10
0.0
 20
0.0
 30
2.000000000000000E+50
 75
     0
  0
DIMASSOC
  5
4427
102
{ACAD_REACTORS
330
441B
102
}
330
441B
100
AcDbDimAssoc
330
440C
 90
        3
 70
     0
 71
     0
  1
AcDbOsnapPointRef
 72
     1
331
3C48
 73
     2
 91
        0
 40
1.0
 10
0.0
 20
0.0
 30
2.000000000000000E+50
 75
     0
  1
AcDbOsnapPointRef
 72
    13
331
3C44
 73
     2
 91
        0
 40
0.0
 10
0.0
 20
0.0
 30
2.000000000000000E+50
 75
     0
  0
DIMASSOC
  5
4443
102
{ACAD_REACTORS
330
4437
102
}
330
4437
100
AcDbDimAssoc
330
4428
 90
        3
 70
     0
 71
     0
  1
AcDbOsnapPointRef
 72
     1
331
3C48
 73
     2
 91
        0
 40
1.0
 10
0.0
 20
0.0
 30
2.000000000000000E+50
 75
     0
  1
AcDbOsnapPointRef
 72
    13
331
3C4D
 73
     2
 91
        0
 40
0.0
 10
0.0
 20
0.0
 30
2.000000000000000E+50
 75
     0
  0
DIMASSOC
  5
44FA
102
{ACAD_REACTORS
330
44F9
102
}
330
44F9
100
AcDbDimAssoc
330
44F8
 90
        1
 70
     0
 71
     0
  1
AcDbOsnapPointRef
 72
     2
331
3C32
 73
     2
 91
        0
 40
0.5
 10
0.0
 20
0.0
 30
0.0
 75
     0
  0
DIMASSOC
  5
4513
102
{ACAD_REACTORS
330
450A
102
}
330
450A
100
AcDbDimAssoc
330
44FE
 90
        2
 70
     0
 71
     0
  1
AcDbOsnapPointRef
 72
     3
331
3978
 73
     2
 91
        0
 40
0.0
 10
0.0
 20
0.0
 30
0.0
 75
     0
  0
DIMASSOC
  5
453B
102
{ACAD_REACTORS
330
4531
102
}
330
4531
100
AcDbDimAssoc
330
4524
 90
        3
 70
     0
 71
     0
  1
AcDbOsnapPointRef
 72
    13
331
3C28
 73
     2
 91
        0
 40
0.0
 10
0.0
 20
0.0
 30
2.000000000000000E+50
 75
     0
  1
AcDbOsnapPointRef
 72
    13
331
3974
 73
     2
 91
        0
 40
0.0
 10
0.0
 20
0.0
 30
2.000000000000000E+50
 75
     0
  0
DIMASSOC
  5
4565
102
{ACAD_REACTORS
330
455B
102
}
330
455B
100
AcDbDimAssoc
330
454E
 90
        3
 70
     0
 71
     0
  1
AcDbOsnapPointRef
 72
     1
331
3C2B
 73
     2
 91
        0
 40
1.0
 10
0.0
 20
0.0
 30
2.000000000000000E+50
 75
     0
  1
AcDbOsnapPointRef
 72
     1
331
397A
 73
     2
 91
        0
 40
1.0
 10
0.0
 20
0.0
 30
2.000000000000000E+50
 75
     0
  0
DIMASSOC
  5
4610
102
{ACAD_REACTORS
330
4606
102
}
330
4606
100
AcDbDimAssoc
330
45F9
 90
        3
 70
     0
 71
     0
  1
AcDbOsnapPointRef
 72
    13
331
397F
 73
     2
 91
        0
 40
0.0
 10
0.0
 20
0.0
 30
2.000000000000000E+50
 75
     0
  1
AcDbOsnapPointRef
 72
    13
331
397C
 73
     2
 91
        0
 40
0.0
 10
0.0
 20
0.0
 30
2.000000000000000E+50
 75
     0
  0
DIMASSOC
  5
4628
102
{ACAD_REACTORS
330
461E
102
}
330
461E
100
AcDbDimAssoc
330
4611
 90
        3
 70
     0
 71
     0
  1
AcDbOsnapPointRef
 72
    13
331
39C2
 73
     2
 91
        0
 40
0.0
 10
0.0
 20
0.0
 30
2.000000000000000E+50
 75
     0
  1
AcDbOsnapPointRef
 72
    13
331
3987
 73
     2
 91
        0
 40
0.0
 10
0.0
 20
0.0
 30
2.000000000000000E+50
 75
     0
  0
DIMASSOC
  5
4640
102
{ACAD_REACTORS
330
4636
102
}
330
4636
100
AcDbDimAssoc
330
4629
 90
        3
 70
     0
 71
     0
  1
AcDbOsnapPointRef
 72
    13
331
3987
 73
     2
 91
        0
 40
0.0
 10
0.0
 20
0.0
 30
2.000000000000000E+50
 75
     0
  1
AcDbOsnapPointRef
 72
    13
331
39D3
 73
     2
 91
        0
 40
0.0
 10
0.0
 20
0.0
 30
2.000000000000000E+50
 75
     0
  0
DIMASSOC
  5
4658
102
{ACAD_REACTORS
330
464E
102
}
330
464E
100
AcDbDimAssoc
330
4641
 90
        3
 70
     0
 71
     0
  1
AcDbOsnapPointRef
 72
    13
331
39D3
 73
     2
 91
        0
 40
0.0
 10
0.0
 20
0.0
 30
2.000000000000000E+50
 75
     0
  1
AcDbOsnapPointRef
 72
     1
331
39D2
 73
     2
 91
        0
 40
1.0
 10
0.0
 20
0.0
 30
2.000000000000000E+50
 75
     0
  0
DIMASSOC
  5
4670
102
{ACAD_REACTORS
330
4666
102
}
330
4666
100
AcDbDimAssoc
330
4659
 90
        3
 70
     0
 71
     0
  1
AcDbOsnapPointRef
 72
     1
331
39D2
 73
     2
 91
        0
 40
1.0
 10
0.0
 20
0.0
 30
2.000000000000000E+50
 75
     0
  1
AcDbOsnapPointRef
 72
    13
331
39C2
 73
     2
 91
        0
 40
0.0
 10
0.0
 20
0.0
 30
2.000000000000000E+50
 75
     0
  0
DIMASSOC
  5
46AE
102
{ACAD_REACTORS
330
46A5
102
}
330
46A5
100
AcDbDimAssoc
330
4699
 90
        2
 70
     0
 71
     0
  1
AcDbOsnapPointRef
 72
     3
331
3A13
 73
     2
 91
        0
 40
0.0
 10
0.0
 20
0.0
 30
0.0
 75
     0
  0
DIMASSOC
  5
46D0
102
{ACAD_REACTORS
330
46C9
102
}
330
46C9
100
AcDbDimAssoc
330
46BF
 90
        2
 70
     0
 71
     0
  1
AcDbOsnapPointRef
 72
     3
331
399B
 73
     2
 91
        0
 40
0.0
 10
0.0
 20
0.0
 30
0.0
 75
     0
  0
DIMASSOC
  5
46E2
102
{ACAD_REACTORS
330
46DB
102
}
330
46DB
100
AcDbDimAssoc
330
46D1
 90
        2
 70
     0
 71
     0
  1
AcDbOsnapPointRef
 72
     3
331
3990
 73
     2
 91
        0
 40
0.0
 10
0.0
 20
0.0
 30
0.0
 75
     0
  0
DIMASSOC
  5
46F4
102
{ACAD_REACTORS
330
46ED
102
}
330
46ED
100
AcDbDimAssoc
330
46E3
 90
        2
 70
     0
 71
     0
  1
AcDbOsnapPointRef
 72
     3
331
3992
 73
     2
 91
        0
 40
0.0
 10
0.0
 20
0.0
 30
0.0
 75
     0
  0
DIMASSOC
  5
471E
102
{ACAD_REACTORS
330
4714
102
}
330
4714
100
AcDbDimAssoc
330
4707
 90
        3
 70
     0
 71
     0
  1
AcDbOsnapPointRef
 72
    13
331
3C29
 73
     2
 91
        0
 40
0.0
 10
0.0
 20
0.0
 30
2.000000000000000E+50
 75
     0
  1
AcDbOsnapPointRef
 72
    13
331
3C2A
 73
     2
 91
        0
 40
0.0
 10
0.0
 20
0.0
 30
2.000000000000000E+50
 75
     0
  0
DIMASSOC
  5
475E
102
{ACAD_REACTORS
330
4752
102
}
330
4752
100
AcDbDimAssoc
330
4743
 90
        3
 70
     0
 71
     0
  1
AcDbOsnapPointRef
 72
     1
331
399E
 73
     2
 91
        0
 40
1.0
 10
0.0
 20
0.0
 30
2.000000000000000E+50
 75
     0
  1
AcDbOsnapPointRef
 72
    13
331
397B
 73
     2
 91
        0
 40
0.0
 10
0.0
 20
0.0
 30
2.000000000000000E+50
 75
     0
  0
DIMASSOC
  5
477A
102
{ACAD_REACTORS
330
476E
102
}
330
476E
100
AcDbDimAssoc
330
475F
 90
        3
 70
     0
 71
     0
  1
AcDbOsnapPointRef
 72
     1
331
398B
 73
     2
 91
        0
 40
1.0
 10
0.0
 20
0.0
 30
2.000000000000000E+50
 75
     0
  1
AcDbOsnapPointRef
 72
    13
331
397B
 73
     2
 91
        0
 40
0.0
 10
0.0
 20
0.0
 30
2.000000000000000E+50
 75
     0
  0
XRECORD
  5
3BFC
102
{ACAD_REACTORS
330
3BFB
102
}
330
3BFB
100
AcDbXrecord
280
     1
 90
        1
340
36B9
  0
XRECORD
  5
4927
102
{ACAD_REACTORS
330
3C1E
102
}
330
3C1E
100
AcDbXrecord
280
     1
 40
11789949.0
  1
{\fMS UI Gothic|b0|i0|c128|p50;株式会社ラインアイ\P\pxqr;単位 ： mm}
  0
ACDBDETAILVIEWSTYLE
  5
3BBA
102
{ACAD_REACTORS
330
3BAC
102
}
330
3BAC
100
AcDbModelDocViewStyle
 70
     0
  3
Metric50
290
     0
100
AcDbDetailViewStyle
 70
     0
 71
     0
 90
        3
 71
     1
340
11
 62
   256
 40
5.0
340
0
 62
   256
 40
5.0
300

 40
0.0
280
     1
 71
     2
340
16
 90
       25
 62
   256
 71
     3
340
11
 62
   256
 40
5.0
 90
        0
 40
15.0
 90
        1
300
%<\AcVar ViewDetailId>% (%<\AcVar ViewScale \f "%sn">%)
 71
     4
340
16
 90
       25
 62
   256
340
16
 90
       25
 62
   256
280
     0
  0
LAYOUT
  5
22
102
{ACAD_REACTORS
330
1A
102
}
330
1A
100
AcDbPlotSettings
  1

  2
Acrobat PDFWriter
  4
A4
  6

 40
7.143749999999998
 41
7.143741
 42
7.143767999999998
 43
7.143753
 44
297.053009
 45
209.973328
 46
25.48
 47
0.0
 48
1435.704606
 49
1108.925252
140
1540.197795
141
1197.136093
142
1.0
143
0.4507778575326002
 70
 28340
 72
     1
 73
     0
 74
     4
  7
Grayscale.ctb
 75
     0
147
2.218387578914476
 76
     0
 77
     2
 78
   300
148
-1435.704606
149
-1108.925252
100
AcDbLayout
  1
Model
 70
     1
 71
     0
 10
0.0
 20
0.0
 11
12.0
 21
9.0
 12
0.0
 22
0.0
 32
0.0
 14
0.0
 24
0.0
 34
0.0
 15
0.0
 25
0.0
 35
0.0
146
0.0
 13
0.0
 23
0.0
 33
0.0
 16
1.0
 26
0.0
 36
0.0
 17
0.0
 27
1.0
 37
0.0
 76
     0
330
1F
331
36B7
  0
LAYOUT
  5
1E
102
{ACAD_REACTORS
330
1A
102
}
330
1A
100
AcDbPlotSettings
  1

  2
DWG To PDF.pc3
  4
ISO_full_bleed_A4_(297.00_x_210.00_MM)
  6

 40
0.7937499880790711
 41
0.7937499880790711
 42
0.79376220703125
 43
0.7937469482421875
 44
297.0
 45
210.0
 46
0.0
 47
0.0
 48
0.0
 49
0.0
140
0.0
141
0.0
142
1.0
143
1.0
 70
   688
 72
     1
 73
     0
 74
     5
  7
monochrome.ctb
 75
    16
147
1.0
 76
     0
 77
     2
 78
   300
148
0.0
149
0.0
100
AcDbLayout
  1
ﾚｲｱｳﾄ1
 70
     1
 71
     1
 10
-0.7937499880790711
 20
-0.7937499880790711
 11
296.2062500119209
 21
209.2062500119209
 12
0.0
 22
0.0
 32
0.0
 14
-0.6161281959830376
 24
-0.9914953453488806
 34
0.0
 15
296.8919077172943
 25
209.0085046546511
 35
0.0
146
0.0
 13
0.0
 23
0.0
 33
0.0
 16
1.0
 26
0.0
 36
0.0
 17
0.0
 27
1.0
 37
0.0
 76
     0
330
1B
331
467
1001
ACAD_PSEXT
1000
DWG To PDF.pc3
1000
DWG To PDF
1000
ファイル
1000

1070
     0
  0
MATERIAL
  5
36F5
102
{ACAD_REACTORS
330
36F3
102
}
330
36F3
100
AcDbMaterial
  1
ByBlock
  0
MATERIAL
  5
36F4
102
{ACAD_REACTORS
330
36F3
102
}
330
36F3
100
AcDbMaterial
  1
ByLayer
  0
MATERIAL
  5
36F6
102
{ACAD_REACTORS
330
36F3
102
}
330
36F3
100
AcDbMaterial
  1
Global
  0
MLEADERSTYLE
  5
36FA
102
{ACAD_REACTORS
330
36F9
330
44F8
102
}
330
36F9
100
AcDbMLeaderStyle
179
     2
170
     2
171
     1
172
     0
 90
        2
 40
0.0
 41
0.0
173
     1
 91
-1056964608
340
14
 92
       -2
290
     1
 42
2.0
291
     1
 43
8.0
  3
Standard
 44
2.0
300

342
11
174
     5
178
     8
175
     0
176
     0
 93
-1056964608
 45
2.5
292
     0
297
     0
 46
4.0
 94
-1056964608
 47
1.0
 49
1.0
140
1.0
293
     1
141
0.0
294
     1
177
     0
142
1.0
295
     1
296
     0
143
3.75
271
     0
272
     9
273
     9
298
     0
  0
MLINESTYLE
  5
18
102
{ACAD_REACTORS
330
17
102
}
330
17
100
AcDbMlineStyle
  2
STANDARD
 70
     0
  3

 62
   256
 51
90.0
 52
90.0
 71
     2
 49
0.5
 62
   256
  6
BYLAYER
 49
-0.5
 62
   256
  6
BYLAYER
  0
ACDBPLACEHOLDER
  5
F
102
{ACAD_REACTORS
330
E
102
}
330
E
  0
SCALE
  5
36B9
102
{ACAD_REACTORS
330
36B8
102
}
330
36B8
100
AcDbScale
 70
     0
300
1:1
140
1.0
141
1.0
290
     1
  0
SCALE
  5
36BA
102
{ACAD_REACTORS
330
36B8
102
}
330
36B8
100
AcDbScale
 70
     0
300
1:2
140
1.0
141
2.0
290
     0
  0
SCALE
  5
36BB
102
{ACAD_REACTORS
330
36B8
102
}
330
36B8
100
AcDbScale
 70
     0
300
1:4
140
1.0
141
4.0
290
     0
  0
SCALE
  5
36BC
102
{ACAD_REACTORS
330
36B8
102
}
330
36B8
100
AcDbScale
 70
     0
300
1:5
140
1.0
141
5.0
290
     0
  0
SCALE
  5
36BD
102
{ACAD_REACTORS
330
36B8
102
}
330
36B8
100
AcDbScale
 70
     0
300
1:8
140
1.0
141
8.0
290
     0
  0
SCALE
  5
36BE
102
{ACAD_REACTORS
330
36B8
102
}
330
36B8
100
AcDbScale
 70
     0
300
1:10
140
1.0
141
10.0
290
     0
  0
SCALE
  5
36BF
102
{ACAD_REACTORS
330
36B8
102
}
330
36B8
100
AcDbScale
 70
     0
300
1:16
140
1.0
141
16.0
290
     0
  0
SCALE
  5
36C0
102
{ACAD_REACTORS
330
36B8
102
}
330
36B8
100
AcDbScale
 70
     0
300
1:20
140
1.0
141
20.0
290
     0
  0
SCALE
  5
36C1
102
{ACAD_REACTORS
330
36B8
102
}
330
36B8
100
AcDbScale
 70
     0
300
1:30
140
1.0
141
30.0
290
     0
  0
SCALE
  5
36C2
102
{ACAD_REACTORS
330
36B8
102
}
330
36B8
100
AcDbScale
 70
     0
300
1:40
140
1.0
141
40.0
290
     0
  0
SCALE
  5
36C3
102
{ACAD_REACTORS
330
36B8
102
}
330
36B8
100
AcDbScale
 70
     0
300
1:50
140
1.0
141
50.0
290
     0
  0
SCALE
  5
36C4
102
{ACAD_REACTORS
330
36B8
102
}
330
36B8
100
AcDbScale
 70
     0
300
1:100
140
1.0
141
100.0
290
     0
  0
SCALE
  5
36C5
102
{ACAD_REACTORS
330
36B8
102
}
330
36B8
100
AcDbScale
 70
     0
300
2:1
140
2.0
141
1.0
290
     0
  0
SCALE
  5
36C6
102
{ACAD_REACTORS
330
36B8
102
}
330
36B8
100
AcDbScale
 70
     0
300
4:1
140
4.0
141
1.0
290
     0
  0
SCALE
  5
36C7
102
{ACAD_REACTORS
330
36B8
102
}
330
36B8
100
AcDbScale
 70
     0
300
8:1
140
8.0
141
1.0
290
     0
  0
SCALE
  5
36C8
102
{ACAD_REACTORS
330
36B8
102
}
330
36B8
100
AcDbScale
 70
     0
300
10:1
140
10.0
141
1.0
290
     0
  0
SCALE
  5
36C9
102
{ACAD_REACTORS
330
36B8
102
}
330
36B8
100
AcDbScale
 70
     0
300
100:1
140
100.0
141
1.0
290
     0
  0
SCALE
  5
36CA
102
{ACAD_REACTORS
330
36B8
102
}
330
36B8
100
AcDbScale
 70
     0
300
1/128" = 1'-0"
140
0.0078125
141
12.0
290
     0
  0
SCALE
  5
36CB
102
{ACAD_REACTORS
330
36B8
102
}
330
36B8
100
AcDbScale
 70
     0
300
1/64" = 1'-0"
140
0.015625
141
12.0
290
     0
  0
SCALE
  5
36CC
102
{ACAD_REACTORS
330
36B8
102
}
330
36B8
100
AcDbScale
 70
     0
300
1/32" = 1'-0"
140
0.03125
141
12.0
290
     0
  0
SCALE
  5
36CD
102
{ACAD_REACTORS
330
36B8
102
}
330
36B8
100
AcDbScale
 70
     0
300
1/16" = 1'-0"
140
0.0625
141
12.0
290
     0
  0
SCALE
  5
36CE
102
{ACAD_REACTORS
330
36B8
102
}
330
36B8
100
AcDbScale
 70
     0
300
3/32" = 1'-0"
140
0.09375
141
12.0
290
     0
  0
SCALE
  5
36CF
102
{ACAD_REACTORS
330
36B8
102
}
330
36B8
100
AcDbScale
 70
     0
300
1/8" = 1'-0"
140
0.125
141
12.0
290
     0
  0
SCALE
  5
36D0
102
{ACAD_REACTORS
330
36B8
102
}
330
36B8
100
AcDbScale
 70
     0
300
3/16" = 1'-0"
140
0.1875
141
12.0
290
     0
  0
SCALE
  5
36D1
102
{ACAD_REACTORS
330
36B8
102
}
330
36B8
100
AcDbScale
 70
     0
300
1/4" = 1'-0"
140
0.25
141
12.0
290
     0
  0
SCALE
  5
36D2
102
{ACAD_REACTORS
330
36B8
102
}
330
36B8
100
AcDbScale
 70
     0
300
3/8" = 1'-0"
140
0.375
141
12.0
290
     0
  0
SCALE
  5
36D3
102
{ACAD_REACTORS
330
36B8
102
}
330
36B8
100
AcDbScale
 70
     0
300
1/2" = 1'-0"
140
0.5
141
12.0
290
     0
  0
SCALE
  5
36D4
102
{ACAD_REACTORS
330
36B8
102
}
330
36B8
100
AcDbScale
 70
     0
300
3/4" = 1'-0"
140
0.75
141
12.0
290
     0
  0
SCALE
  5
36D5
102
{ACAD_REACTORS
330
36B8
102
}
330
36B8
100
AcDbScale
 70
     0
300
1" = 1'-0"
140
1.0
141
12.0
290
     0
  0
SCALE
  5
36D6
102
{ACAD_REACTORS
330
36B8
102
}
330
36B8
100
AcDbScale
 70
     0
300
1-1/2" = 1'-0"
140
1.5
141
12.0
290
     0
  0
SCALE
  5
36D7
102
{ACAD_REACTORS
330
36B8
102
}
330
36B8
100
AcDbScale
 70
     0
300
3" = 1'-0"
140
3.0
141
12.0
290
     0
  0
SCALE
  5
36D8
102
{ACAD_REACTORS
330
36B8
102
}
330
36B8
100
AcDbScale
 70
     0
300
6" = 1'-0"
140
6.0
141
12.0
290
     0
  0
SCALE
  5
36D9
102
{ACAD_REACTORS
330
36B8
102
}
330
36B8
100
AcDbScale
 70
     0
300
1'-0" = 1'-0"
140
12.0
141
12.0
290
     0
  0
ACDBSECTIONVIEWSTYLE
  5
3BB9
102
{ACAD_REACTORS
330
3BAD
102
}
330
3BAD
100
AcDbModelDocViewStyle
 70
     0
  3
Metric50
290
     0
100
AcDbSectionViewStyle
 70
     0
 71
     0
 90
      102
 71
     1
340
11
 62
   256
 40
5.0
340
0
340
0
 62
   256
 40
5.0
300
I, O, Q, S, X, Z
 40
10.0
 90
        0
 40
2.5
 90
        0
 71
     2
340
16
 90
       25
 62
   256
340
16
 90
       50
 62
   256
 40
5.0
 40
2.5
 40
5.0
 71
     3
340
11
 62
   256
 40
5.0
 90
        0
 40
15.0
 90
        1
300
%<\AcVar ViewSectionStartId>%-%<\AcVar ViewSectionEndId>% (%<\AcVar ViewScale \f "%sn">%)
 71
     4
 62
   256
 62
   257
300
ANSI31
 40
1.0
 90
        0
290
     0
290
     0
 90
        6
 40
0.0
 40
1.570796326794896
 40
0.2617993877991494
 40
1.308996938995747
 40
-0.2617993877991494
 40
1.832595714594046
  0
TABLESTYLE
  5
36F8
102
{ACAD_XDICTIONARY
360
3BB1
102
}
102
{ACAD_REACTORS
330
36F7
102
}
330
36F7
100
AcDbTableStyle
280
     0
  3
Standard
 70
     0
 71
     0
 40
1.5
 41
1.5
280
     0
281
     0
  7
Standard
140
4.5
170
     2
 62
     0
 63
     7
283
     0
 90
        4
 91
        0
  1

274
    -2
284
     1
 64
     0
275
    -2
285
     1
 65
     0
276
    -2
286
     1
 66
     0
277
    -2
287
     1
 67
     0
278
    -2
288
     1
 68
     0
279
    -2
289
     1
 69
     0
  7
Standard
140
6.0
170
     5
 62
     0
 63
     7
283
     0
 90
        4
 91
        0
  1

274
    -2
284
     1
 64
     0
275
    -2
285
     1
 65
     0
276
    -2
286
     1
 66
     0
277
    -2
287
     1
 67
     0
278
    -2
288
     1
 68
     0
279
    -2
289
     1
 69
     0
  7
Standard
140
4.5
170
     5
 62
     0
 63
     7
283
     0
 90
        4
 91
        0
  1

274
    -2
284
     1
 64
     0
275
    -2
285
     1
 65
     0
276
    -2
286
     1
 66
     0
277
    -2
287
     1
 67
     0
278
    -2
288
     1
 68
     0
279
    -2
289
     1
 69
     0
  0
VISUALSTYLE
  5
36DF
102
{ACAD_REACTORS
330
36DA
102
}
330
36DA
100
AcDbVisualStyle
  2
2dWireframe
 70
     4
177
     3
291
     0
 70
    58
 90
        0
176
     1
 90
        2
176
     1
 90
        0
176
     1
 90
        0
176
     1
 40
0.6
176
     1
 40
30.0
176
     1
 62
     7
420
 16777215
176
     1
 90
        1
176
     1
 90
        4
176
     1
 62
     7
176
     1
 62
   257
176
     1
 90
        1
176
     1
 90
        1
176
     1
 40
1.0
176
     1
 90
        0
176
     1
 62
   257
176
     1
 40
1.0
176
     1
 90
        1
176
     1
 90
        6
176
     1
 90
        2
176
     1
 62
     7
176
     1
 90
        5
176
     1
 90
        0
176
     1
 90
        0
176
     1
290
     0
176
     1
 90
        1
176
     1
 40
0.0
176
     1
 90
        0
176
     1
290
     1
176
     1
290
     1
176
     1
290
     0
176
     1
290
     0
176
     1
290
     0
176
     1
290
     0
176
     1
290
     0
176
     1
290
     0
176
     1
290
     0
176
     1
 90
       50
176
     1
 40
0.0
176
     1
 40
1.0
176
     1
 90
        0
176
     1
 62
    18
176
     1
 90
       50
176
     1
 90
        3
176
     1
 62
     5
420
      255
176
     1
290
     0
176
     1
 90
       50
176
     1
 90
       50
176
     1
 90
       50
176
     1
290
     0
176
     1
 90
       50
176
     1
 62
   256
176
     0
 40
1.0
176
     0
 90
        2
176
     1
  1
strokes_ogs.tif
176
     1
290
     0
176
     1
 40
1.0
176
     1
 40
1.0
176
     1
  0
VISUALSTYLE
  5
36E2
102
{ACAD_REACTORS
330
36DA
102
}
330
36DA
100
AcDbVisualStyle
  2
Basic
 70
     7
177
     3
291
     1
 70
    58
 90
        1
176
     1
 90
        0
176
     1
 90
        1
176
     1
 90
        0
176
     1
 40
0.6
176
     1
 40
30.0
176
     1
 62
     7
420
 16777215
176
     1
 90
        0
176
     1
 90
        4
176
     1
 62
     7
176
     1
 62
   257
176
     1
 90
        1
176
     1
 90
        1
176
     1
 40
1.0
176
     1
 90
        8
176
     1
 62
     7
176
     1
 40
1.0
176
     1
 90
        1
176
     1
 90
        6
176
     1
 90
        2
176
     1
 62
     7
176
     1
 90
        5
176
     1
 90
        0
176
     1
 90
        0
176
     1
290
     0
176
     1
 90
        1
176
     1
 40
0.0
176
     1
 90
        0
176
     1
290
     0
176
     1
290
     1
176
     1
290
     1
176
     1
290
     0
176
     1
290
     0
176
     1
290
     0
176
     1
290
     0
176
     1
290
     0
176
     1
290
     0
176
     1
 90
       50
176
     1
 40
0.0
176
     1
 40
1.0
176
     1
 90
        0
176
     1
 62
    18
176
     1
 90
       50
176
     1
 90
        3
176
     1
 62
     5
420
      255
176
     1
290
     0
176
     1
 90
       50
176
     1
 90
       50
176
     1
 90
       50
176
     1
290
     0
176
     1
 90
       50
176
     1
 62
   256
176
     0
 40
1.0
176
     0
 90
        2
176
     1
  1
strokes_ogs.tif
176
     1
290
     0
176
     1
 40
1.0
176
     1
 40
1.0
176
     1
  0
VISUALSTYLE
  5
36E6
102
{ACAD_REACTORS
330
36DA
102
}
330
36DA
100
AcDbVisualStyle
  2
Brighten
 70
    12
177
     3
291
     1
 70
    58
 90
        2
176
     1
 90
        2
176
     1
 90
        0
176
     1
 90
        0
176
     1
 40
0.6
176
     1
 40
30.0
176
     1
 62
     7
420
 16777215
176
     1
 90
        1
176
     1
 90
        4
176
     1
 62
     7
176
     1
 62
   257
176
     1
 90
        1
176
     1
 90
        1
176
     1
 40
1.0
176
     1
 90
        8
176
     1
 62
     7
176
     1
 40
1.0
176
     1
 90
        1
176
     1
 90
        6
176
     1
 90
        2
176
     1
 62
     7
176
     1
 90
        5
176
     1
 90
        0
176
     1
 90
        0
176
     1
290
     0
176
     1
 90
        1
176
     1
 40
50.0
176
     1
 90
        0
176
     1
290
     0
176
     1
290
     1
176
     1
290
     1
176
     1
290
     0
176
     1
290
     0
176
     1
290
     0
176
     1
290
     0
176
     1
290
     0
176
     1
290
     0
176
     1
 90
       50
176
     1
 40
0.0
176
     1
 40
1.0
176
     1
 90
        0
176
     1
 62
    18
176
     1
 90
       50
176
     1
 90
        3
176
     1
 62
     5
420
      255
176
     1
290
     0
176
     1
 90
       50
176
     1
 90
       50
176
     1
 90
       50
176
     1
290
     0
176
     1
 90
       50
176
     1
 62
   256
176
     0
 40
1.0
176
     0
 90
        2
176
     1
  1
strokes_ogs.tif
176
     1
290
     0
176
     1
 40
1.0
176
     1
 40
1.0
176
     1
  0
VISUALSTYLE
  5
36EA
102
{ACAD_REACTORS
330
36DA
102
}
330
36DA
100
AcDbVisualStyle
  2
ColorChange
 70
    16
177
     3
291
     1
 70
    58
 90
        2
176
     1
 90
        2
176
     1
 90
        3
176
     1
 90
        0
176
     1
 40
0.6
176
     1
 40
30.0
176
     1
 62
     8
420
  8421504
176
     1
 90
        1
176
     1
 90
        4
176
     1
 62
     7
176
     1
 62
   257
176
     1
 90
        1
176
     1
 90
        1
176
     1
 40
1.0
176
     1
 90
        8
176
     1
 62
     8
420
  8421504
176
     1
 40
1.0
176
     1
 90
        1
176
     1
 90
        6
176
     1
 90
        2
176
     1
 62
     7
176
     1
 90
        5
176
     1
 90
        0
176
     1
 90
        0
176
     1
290
     0
176
     1
 90
        1
176
     1
 40
0.0
176
     1
 90
        0
176
     1
290
     0
176
     1
290
     1
176
     1
290
     1
176
     1
290
     0
176
     1
290
     0
176
     1
290
     0
176
     1
290
     0
176
     1
290
     0
176
     1
290
     0
176
     1
 90
       50
176
     1
 40
0.0
176
     1
 40
1.0
176
     1
 90
        0
176
     1
 62
    18
176
     1
 90
       50
176
     1
 90
        3
176
     1
 62
     5
420
      255
176
     1
290
     0
176
     1
 90
       50
176
     1
 90
       50
176
     1
 90
       50
176
     1
290
     0
176
     1
 90
       50
176
     1
 62
   256
176
     0
 40
1.0
176
     0
 90
        2
176
     1
  1
strokes_ogs.tif
176
     1
290
     0
176
     1
 40
1.0
176
     1
 40
1.0
176
     1
  0
VISUALSTYLE
  5
36E4
102
{ACAD_REACTORS
330
36DA
102
}
330
36DA
100
AcDbVisualStyle
  2
Conceptual
 70
     9
177
     3
291
     0
 70
    58
 90
        3
176
     1
 90
        2
176
     1
 90
        0
176
     1
 90
        0
176
     1
 40
0.6
176
     1
 40
30.0
176
     1
 62
     7
420
 16777215
176
     1
 90
        2
176
     1
 90
        2
176
     1
 62
     7
176
     1
 62
   257
176
     1
 90
        1
176
     1
 90
        1
176
     1
 40
179.0
176
     1
 90
        8
176
     1
 62
     7
176
     1
 40
1.0
176
     1
 90
        1
176
     1
 90
        6
176
     1
 90
        2
176
     1
 62
     7
176
     1
 90
        3
176
     1
 90
        0
176
     1
 90
        0
176
     1
290
     0
176
     1
 90
        1
176
     1
 40
0.0
176
     1
 90
        0
176
     1
290
     0
176
     1
290
     1
176
     1
290
     1
176
     1
290
     0
176
     1
290
     0
176
     1
290
     0
176
     1
290
     0
176
     1
290
     0
176
     1
290
     0
176
     1
 90
       50
176
     1
 40
0.0
176
     1
 40
1.0
176
     1
 90
        0
176
     1
 62
    18
176
     1
 90
       50
176
     1
 90
        3
176
     1
 62
     5
420
      255
176
     1
290
     0
176
     1
 90
       50
176
     1
 90
       50
176
     1
 90
       50
176
     1
290
     0
176
     1
 90
       50
176
     1
 62
   256
176
     0
 40
1.0
176
     0
 90
        2
176
     1
  1
strokes_ogs.tif
176
     1
290
     0
176
     1
 40
1.0
176
     1
 40
1.0
176
     1
  0
VISUALSTYLE
  5
36E5
102
{ACAD_REACTORS
330
36DA
102
}
330
36DA
100
AcDbVisualStyle
  2
Dim
 70
    11
177
     3
291
     1
 70
    58
 90
        2
176
     1
 90
        2
176
     1
 90
        0
176
     1
 90
        0
176
     1
 40
0.6
176
     1
 40
30.0
176
     1
 62
     7
420
 16777215
176
     1
 90
        1
176
     1
 90
        4
176
     1
 62
     7
176
     1
 62
   257
176
     1
 90
        1
176
     1
 90
        1
176
     1
 40
1.0
176
     1
 90
        8
176
     1
 62
     7
176
     1
 40
1.0
176
     1
 90
        1
176
     1
 90
        6
176
     1
 90
        2
176
     1
 62
     7
176
     1
 90
        5
176
     1
 90
        0
176
     1
 90
        0
176
     1
290
     0
176
     1
 90
        1
176
     1
 40
-50.0
176
     1
 90
        0
176
     1
290
     0
176
     1
290
     1
176
     1
290
     1
176
     1
290
     0
176
     1
290
     0
176
     1
290
     0
176
     1
290
     0
176
     1
290
     0
176
     1
290
     0
176
     1
 90
       50
176
     1
 40
0.0
176
     1
 40
1.0
176
     1
 90
        0
176
     1
 62
    18
176
     1
 90
       50
176
     1
 90
        3
176
     1
 62
     5
420
      255
176
     1
290
     0
176
     1
 90
       50
176
     1
 90
       50
176
     1
 90
       50
176
     1
290
     0
176
     1
 90
       50
176
     1
 62
   256
176
     0
 40
1.0
176
     0
 90
        2
176
     1
  1
strokes_ogs.tif
176
     1
290
     0
176
     1
 40
1.0
176
     1
 40
1.0
176
     1
  0
VISUALSTYLE
  5
36ED
102
{ACAD_REACTORS
330
36DA
102
}
330
36DA
100
AcDbVisualStyle
  2
EdgeColorOff
 70
    22
177
     3
291
     1
 70
    58
 90
        2
176
     0
 90
        2
176
     0
 90
        0
176
     0
 90
        0
176
     0
 40
0.6
176
     0
 40
30.0
176
     0
 62
     7
420
 16777215
176
     0
 90
        1
176
     0
 90
        4
176
     0
 62
     7
176
     0
 62
   257
176
     0
 90
        1
176
     0
 90
        1
176
     0
 40
1.0
176
     0
 90
        8
176
     2
 62
     7
176
     0
 40
1.0
176
     0
 90
        1
176
     0
 90
        6
176
     0
 90
        2
176
     0
 62
     7
176
     0
 90
        5
176
     0
 90
        0
176
     0
 90
        0
176
     0
290
     0
176
     0
 90
        1
176
     0
 40
0.0
176
     0
 90
        0
176
     0
290
     0
176
     0
290
     1
176
     0
290
     1
176
     0
290
     0
176
     0
290
     0
176
     0
290
     0
176
     0
290
     0
176
     0
290
     0
176
     0
290
     0
176
     0
 90
       50
176
     0
 40
0.0
176
     0
 40
1.0
176
     0
 90
        0
176
     0
 62
    18
176
     0
 90
       50
176
     0
 90
        3
176
     0
 62
     5
420
      255
176
     0
290
     0
176
     0
 90
       50
176
     0
 90
       50
176
     0
 90
       50
176
     0
290
     0
176
     0
 90
       50
176
     0
 62
   256
176
     0
 40
1.0
176
     0
 90
        2
176
     0
  1
strokes_ogs.tif
176
     0
290
     0
176
     0
 40
1.0
176
     0
 40
1.0
176
     0
  0
VISUALSTYLE
  5
36E9
102
{ACAD_REACTORS
330
36DA
102
}
330
36DA
100
AcDbVisualStyle
  2
Facepattern
 70
    15
177
     3
291
     1
 70
    58
 90
        2
176
     1
 90
        2
176
     1
 90
        0
176
     1
 90
        0
176
     1
 40
0.6
176
     1
 40
30.0
176
     1
 62
     7
420
 16777215
176
     1
 90
        1
176
     1
 90
        4
176
     1
 62
     7
176
     1
 62
   257
176
     1
 90
        1
176
     1
 90
        1
176
     1
 40
1.0
176
     1
 90
        8
176
     1
 62
     7
176
     1
 40
1.0
176
     1
 90
        1
176
     1
 90
        6
176
     1
 90
        2
176
     1
 62
     7
176
     1
 90
        5
176
     1
 90
        0
176
     1
 90
        0
176
     1
290
     0
176
     1
 90
        1
176
     1
 40
0.0
176
     1
 90
        0
176
     1
290
     0
176
     1
290
     1
176
     1
290
     1
176
     1
290
     0
176
     1
290
     0
176
     1
290
     0
176
     1
290
     0
176
     1
290
     0
176
     1
290
     0
176
     1
 90
       50
176
     1
 40
0.0
176
     1
 40
1.0
176
     1
 90
        0
176
     1
 62
    18
176
     1
 90
       50
176
     1
 90
        3
176
     1
 62
     5
420
      255
176
     1
290
     0
176
     1
 90
       50
176
     1
 90
       50
176
     1
 90
       50
176
     1
290
     0
176
     1
 90
       50
176
     1
 62
   256
176
     0
 40
1.0
176
     0
 90
        2
176
     1
  1
strokes_ogs.tif
176
     1
290
     0
176
     1
 40
1.0
176
     1
 40
1.0
176
     1
  0
VISUALSTYLE
  5
36DB
102
{ACAD_REACTORS
330
36DA
102
}
330
36DA
100
AcDbVisualStyle
  2
Flat
 70
     0
177
     3
291
     1
 70
    58
 90
        2
176
     1
 90
        1
176
     1
 90
        1
176
     1
 90
        2
176
     1
 40
0.6
176
     1
 40
30.0
176
     1
 62
     7
420
 16777215
176
     1
 90
        0
176
     1
 90
        0
176
     1
 62
     7
176
     1
 62
   257
176
     1
 90
        1
176
     1
 90
        1
176
     1
 40
1.0
176
     1
 90
        8
176
     1
 62
     7
176
     1
 40
1.0
176
     1
 90
        1
176
     1
 90
        6
176
     1
 90
        2
176
     1
 62
     7
176
     1
 90
        5
176
     1
 90
        0
176
     1
 90
        0
176
     1
290
     0
176
     1
 90
       13
176
     1
 40
0.0
176
     1
 90
        0
176
     1
290
     0
176
     1
290
     1
176
     1
290
     1
176
     1
290
     0
176
     1
290
     0
176
     1
290
     0
176
     1
290
     0
176
     1
290
     0
176
     1
290
     0
176
     1
 90
       50
176
     1
 40
0.0
176
     1
 40
1.0
176
     1
 90
        0
176
     1
 62
    18
176
     1
 90
       50
176
     1
 90
        3
176
     1
 62
     5
420
      255
176
     1
290
     0
176
     1
 90
       50
176
     1
 90
       50
176
     1
 90
       50
176
     1
290
     0
176
     1
 90
       50
176
     1
 62
   256
176
     0
 40
1.0
176
     0
 90
        2
176
     1
  1
strokes_ogs.tif
176
     1
290
     0
176
     1
 40
1.0
176
     1
 40
1.0
176
     1
  0
VISUALSTYLE
  5
36DC
102
{ACAD_REACTORS
330
36DA
102
}
330
36DA
100
AcDbVisualStyle
  2
FlatWithEdges
 70
     1
177
     3
291
     1
 70
    58
 90
        2
176
     1
 90
        1
176
     1
 90
        1
176
     1
 90
        2
176
     1
 40
0.6
176
     1
 40
30.0
176
     1
 62
     7
420
 16777215
176
     1
 90
        1
176
     1
 90
        0
176
     1
 62
     7
176
     1
 62
   257
176
     1
 90
        1
176
     1
 90
        1
176
     1
 40
1.0
176
     1
 90
        0
176
     1
 62
   257
176
     1
 40
1.0
176
     1
 90
        1
176
     1
 90
        6
176
     1
 90
        2
176
     1
 62
     7
176
     1
 90
        5
176
     1
 90
        0
176
     1
 90
        0
176
     1
290
     0
176
     1
 90
       13
176
     1
 40
0.0
176
     1
 90
        0
176
     1
290
     0
176
     1
290
     1
176
     1
290
     1
176
     1
290
     0
176
     1
290
     0
176
     1
290
     0
176
     1
290
     0
176
     1
290
     0
176
     1
290
     0
176
     1
 90
       50
176
     1
 40
0.0
176
     1
 40
1.0
176
     1
 90
        0
176
     1
 62
    18
176
     1
 90
       50
176
     1
 90
        3
176
     1
 62
     5
420
      255
176
     1
290
     0
176
     1
 90
       50
176
     1
 90
       50
176
     1
 90
       50
176
     1
290
     0
176
     1
 90
       50
176
     1
 62
   256
176
     0
 40
1.0
176
     0
 90
        2
176
     1
  1
strokes_ogs.tif
176
     1
290
     0
176
     1
 40
1.0
176
     1
 40
1.0
176
     1
  0
VISUALSTYLE
  5
36DD
102
{ACAD_REACTORS
330
36DA
102
}
330
36DA
100
AcDbVisualStyle
  2
Gouraud
 70
     2
177
     3
291
     1
 70
    58
 90
        2
176
     1
 90
        2
176
     1
 90
        1
176
     1
 90
        2
176
     1
 40
0.6
176
     1
 40
30.0
176
     1
 62
     7
420
 16777215
176
     1
 90
        0
176
     1
 90
        0
176
     1
 62
     7
176
     1
 62
   257
176
     1
 90
        1
176
     1
 90
        1
176
     1
 40
1.0
176
     1
 90
        0
176
     1
 62
     7
176
     1
 40
1.0
176
     1
 90
        1
176
     1
 90
        6
176
     1
 90
        2
176
     1
 62
     7
176
     1
 90
        5
176
     1
 90
        0
176
     1
 90
        0
176
     1
290
     0
176
     1
 90
       13
176
     1
 40
0.0
176
     1
 90
        0
176
     1
290
     0
176
     1
290
     1
176
     1
290
     1
176
     1
290
     0
176
     1
290
     0
176
     1
290
     0
176
     1
290
     0
176
     1
290
     0
176
     1
290
     0
176
     1
 90
       50
176
     1
 40
0.0
176
     1
 40
1.0
176
     1
 90
        0
176
     1
 62
    18
176
     1
 90
       50
176
     1
 90
        3
176
     1
 62
     5
420
      255
176
     1
290
     0
176
     1
 90
       50
176
     1
 90
       50
176
     1
 90
       50
176
     1
290
     0
176
     1
 90
       50
176
     1
 62
   256
176
     0
 40
1.0
176
     0
 90
        2
176
     1
  1
strokes_ogs.tif
176
     1
290
     0
176
     1
 40
1.0
176
     1
 40
1.0
176
     1
  0
VISUALSTYLE
  5
36DE
102
{ACAD_REACTORS
330
36DA
102
}
330
36DA
100
AcDbVisualStyle
  2
GouraudWithEdges
 70
     3
177
     3
291
     1
 70
    58
 90
        2
176
     1
 90
        2
176
     1
 90
        1
176
     1
 90
        2
176
     1
 40
0.6
176
     1
 40
30.0
176
     1
 62
     7
420
 16777215
176
     1
 90
        1
176
     1
 90
        0
176
     1
 62
     7
176
     1
 62
   257
176
     1
 90
        1
176
     1
 90
        1
176
     1
 40
1.0
176
     1
 90
        0
176
     1
 62
   257
176
     1
 40
1.0
176
     1
 90
        1
176
     1
 90
        6
176
     1
 90
        2
176
     1
 62
     7
176
     1
 90
        5
176
     1
 90
        0
176
     1
 90
        0
176
     1
290
     0
176
     1
 90
       13
176
     1
 40
0.0
176
     1
 90
        0
176
     1
290
     0
176
     1
290
     1
176
     1
290
     1
176
     1
290
     0
176
     1
290
     0
176
     1
290
     0
176
     1
290
     0
176
     1
290
     0
176
     1
290
     0
176
     1
 90
       50
176
     1
 40
0.0
176
     1
 40
1.0
176
     1
 90
        0
176
     1
 62
    18
176
     1
 90
       50
176
     1
 90
        3
176
     1
 62
     5
420
      255
176
     1
290
     0
176
     1
 90
       50
176
     1
 90
       50
176
     1
 90
       50
176
     1
290
     0
176
     1
 90
       50
176
     1
 62
   256
176
     0
 40
1.0
176
     0
 90
        2
176
     1
  1
strokes_ogs.tif
176
     1
290
     0
176
     1
 40
1.0
176
     1
 40
1.0
176
     1
  0
VISUALSTYLE
  5
36E1
102
{ACAD_REACTORS
330
36DA
102
}
330
36DA
100
AcDbVisualStyle
  2
Hidden
 70
     6
177
     3
291
     0
 70
    58
 90
        1
176
     1
 90
        2
176
     1
 90
        2
176
     1
 90
        0
176
     1
 40
0.6
176
     1
 40
30.0
176
     1
 62
     7
420
 16777215
176
     1
 90
        2
176
     1
 90
        2
176
     1
 62
     7
176
     1
 62
   257
176
     1
 90
        2
176
     1
 90
        1
176
     1
 40
40.0
176
     1
 90
        0
176
     1
 62
   257
176
     1
 40
1.0
176
     1
 90
        1
176
     1
 90
        6
176
     1
 90
        2
176
     1
 62
     7
176
     1
 90
        3
176
     1
 90
        0
176
     1
 90
        0
176
     1
290
     0
176
     1
 90
        1
176
     1
 40
0.0
176
     1
 90
        0
176
     1
290
     0
176
     1
290
     1
176
     1
290
     1
176
     1
290
     0
176
     1
290
     0
176
     1
290
     0
176
     1
290
     0
176
     1
290
     0
176
     1
290
     0
176
     1
 90
       50
176
     1
 40
0.0
176
     1
 40
1.0
176
     1
 90
        0
176
     1
 62
    18
176
     1
 90
       50
176
     1
 90
        3
176
     1
 62
     5
420
      255
176
     1
290
     0
176
     1
 90
       50
176
     1
 90
       50
176
     1
 90
       50
176
     1
290
     0
176
     1
 90
       50
176
     1
 62
   256
176
     0
 40
1.0
176
     0
 90
        2
176
     1
  1
strokes_ogs.tif
176
     1
290
     0
176
     1
 40
1.0
176
     1
 40
1.0
176
     1
  0
VISUALSTYLE
  5
36EB
102
{ACAD_REACTORS
330
36DA
102
}
330
36DA
100
AcDbVisualStyle
  2
JitterOff
 70
    20
177
     3
291
     1
 70
    58
 90
        2
176
     0
 90
        2
176
     0
 90
        0
176
     0
 90
        0
176
     0
 40
0.6
176
     0
 40
30.0
176
     0
 62
     7
420
 16777215
176
     0
 90
        1
176
     0
 90
        4
176
     0
 62
     7
176
     0
 62
   257
176
     0
 90
        1
176
     0
 90
        1
176
     0
 40
1.0
176
     0
 90
       10
176
     2
 62
     7
176
     0
 40
1.0
176
     0
 90
        1
176
     0
 90
        6
176
     0
 90
        2
176
     0
 62
     7
176
     0
 90
        5
176
     0
 90
        0
176
     0
 90
        0
176
     0
290
     0
176
     0
 90
        1
176
     0
 40
0.0
176
     0
 90
        0
176
     0
290
     0
176
     0
290
     1
176
     0
290
     1
176
     0
290
     0
176
     0
290
     0
176
     0
290
     0
176
     0
290
     0
176
     0
290
     0
176
     0
290
     0
176
     0
 90
       50
176
     0
 40
0.0
176
     0
 40
1.0
176
     0
 90
        0
176
     0
 62
    18
176
     0
 90
       50
176
     0
 90
        3
176
     0
 62
     5
420
      255
176
     0
290
     0
176
     0
 90
       50
176
     0
 90
       50
176
     0
 90
       50
176
     0
290
     0
176
     0
 90
       50
176
     0
 62
   256
176
     0
 40
1.0
176
     0
 90
        2
176
     0
  1
strokes_ogs.tif
176
     0
290
     0
176
     0
 40
1.0
176
     0
 40
1.0
176
     0
  0
VISUALSTYLE
  5
36E8
102
{ACAD_REACTORS
330
36DA
102
}
330
36DA
100
AcDbVisualStyle
  2
Linepattern
 70
    14
177
     3
291
     1
 70
    58
 90
        2
176
     1
 90
        2
176
     1
 90
        0
176
     1
 90
        0
176
     1
 40
0.6
176
     1
 40
30.0
176
     1
 62
     7
420
 16777215
176
     1
 90
        1
176
     1
 90
        4
176
     1
 62
     7
176
     1
 62
   257
176
     1
 90
        7
176
     1
 90
        7
176
     1
 40
1.0
176
     1
 90
        8
176
     1
 62
     7
176
     1
 40
1.0
176
     1
 90
        1
176
     1
 90
        6
176
     1
 90
        2
176
     1
 62
     7
176
     1
 90
        5
176
     1
 90
        0
176
     1
 90
        0
176
     1
290
     0
176
     1
 90
        1
176
     1
 40
0.0
176
     1
 90
        0
176
     1
290
     0
176
     1
290
     1
176
     1
290
     1
176
     1
290
     0
176
     1
290
     0
176
     1
290
     0
176
     1
290
     0
176
     1
290
     0
176
     1
290
     0
176
     1
 90
       50
176
     1
 40
0.0
176
     1
 40
1.0
176
     1
 90
        0
176
     1
 62
    18
176
     1
 90
       50
176
     1
 90
        3
176
     1
 62
     5
420
      255
176
     1
290
     0
176
     1
 90
       50
176
     1
 90
       50
176
     1
 90
       50
176
     1
290
     0
176
     1
 90
       50
176
     1
 62
   256
176
     0
 40
1.0
176
     0
 90
        2
176
     1
  1
strokes_ogs.tif
176
     1
290
     0
176
     1
 40
1.0
176
     1
 40
1.0
176
     1
  0
VISUALSTYLE
  5
36EC
102
{ACAD_REACTORS
330
36DA
102
}
330
36DA
100
AcDbVisualStyle
  2
OverhangOff
 70
    21
177
     3
291
     1
 70
    58
 90
        2
176
     0
 90
        2
176
     0
 90
        0
176
     0
 90
        0
176
     0
 40
0.6
176
     0
 40
30.0
176
     0
 62
     7
420
 16777215
176
     0
 90
        1
176
     0
 90
        4
176
     0
 62
     7
176
     0
 62
   257
176
     0
 90
        1
176
     0
 90
        1
176
     0
 40
1.0
176
     0
 90
        9
176
     2
 62
     7
176
     0
 40
1.0
176
     0
 90
        1
176
     0
 90
        6
176
     0
 90
        2
176
     0
 62
     7
176
     0
 90
        5
176
     0
 90
        0
176
     0
 90
        0
176
     0
290
     0
176
     0
 90
        1
176
     0
 40
0.0
176
     0
 90
        0
176
     0
290
     0
176
     0
290
     1
176
     0
290
     1
176
     0
290
     0
176
     0
290
     0
176
     0
290
     0
176
     0
290
     0
176
     0
290
     0
176
     0
290
     0
176
     0
 90
       50
176
     0
 40
0.0
176
     0
 40
1.0
176
     0
 90
        0
176
     0
 62
    18
176
     0
 90
       50
176
     0
 90
        3
176
     0
 62
     5
420
      255
176
     0
290
     0
176
     0
 90
       50
176
     0
 90
       50
176
     0
 90
       50
176
     0
290
     0
176
     0
 90
       50
176
     0
 62
   256
176
     0
 40
1.0
176
     0
 90
        2
176
     0
  1
strokes_ogs.tif
176
     0
290
     0
176
     0
 40
1.0
176
     0
 40
1.0
176
     0
  0
VISUALSTYLE
  5
36E3
102
{ACAD_REACTORS
330
36DA
102
}
330
36DA
100
AcDbVisualStyle
  2
Realistic
 70
     8
177
     3
291
     0
 70
    58
 90
        2
176
     1
 90
        3
176
     1
 90
        0
176
     1
 90
        2
176
     1
 40
0.6
176
     1
 40
30.0
176
     1
 62
     7
420
 16777215
176
     1
 90
        0
176
     1
 90
        0
176
     1
 62
     7
176
     1
 62
   257
176
     1
 90
        1
176
     1
 90
        1
176
     1
 40
1.0
176
     1
 90
        8
176
     1
 62
   257
176
     1
 40
1.0
176
     1
 90
        1
176
     1
 90
        6
176
     1
 90
        2
176
     1
 62
     7
176
     1
 90
        3
176
     1
 90
        0
176
     1
 90
        0
176
     1
290
     0
176
     1
 90
       13
176
     1
 40
0.0
176
     1
 90
        0
176
     1
290
     0
176
     1
290
     1
176
     1
290
     1
176
     1
290
     0
176
     1
290
     0
176
     1
290
     0
176
     1
290
     0
176
     1
290
     0
176
     1
290
     0
176
     1
 90
       50
176
     1
 40
0.0
176
     1
 40
1.0
176
     1
 90
        0
176
     1
 62
    18
176
     1
 90
       50
176
     1
 90
        3
176
     1
 62
     5
420
      255
176
     1
290
     0
176
     1
 90
       50
176
     1
 90
       50
176
     1
 90
       50
176
     1
290
     0
176
     1
 90
       50
176
     1
 62
   256
176
     0
 40
1.0
176
     0
 90
        2
176
     1
  1
strokes_ogs.tif
176
     1
290
     0
176
     1
 40
1.0
176
     1
 40
1.0
176
     1
  0
VISUALSTYLE
  5
36F2
102
{ACAD_REACTORS
330
36DA
102
}
330
36DA
100
AcDbVisualStyle
  2
Shaded
 70
    27
177
     3
291
     0
 70
    58
 90
        2
176
     1
 90
        2
176
     1
 90
        1
176
     1
 90
        2
176
     1
 40
0.6
176
     1
 40
30.0
176
     1
 62
     7
420
 16777215
176
     1
 90
        0
176
     1
 90
        4
176
     1
 62
     7
176
     1
 62
   257
176
     1
 90
        1
176
     1
 90
        1
176
     1
 40
1.0
176
     1
 90
        8
176
     1
 62
   257
176
     1
 40
1.0
176
     1
 90
        1
176
     1
 90
        6
176
     1
 90
        2
176
     1
 62
     8
420
  7895160
176
     1
 90
        3
176
     1
 90
        0
176
     1
 90
        0
176
     1
290
     0
176
     1
 90
        5
176
     1
 40
0.0
176
     1
 90
        0
176
     1
290
     0
176
     1
290
     1
176
     1
290
     1
176
     1
290
     0
176
     1
290
     0
176
     1
290
     0
176
     1
290
     0
176
     1
290
     0
176
     1
290
     0
176
     1
 90
       50
176
     1
 40
0.0
176
     1
 40
1.0
176
     1
 90
        0
176
     1
 62
    18
176
     1
 90
       50
176
     1
 90
        3
176
     1
 62
     5
420
      255
176
     1
290
     0
176
     1
 90
       50
176
     1
 90
       50
176
     1
 90
       50
176
     1
290
     0
176
     1
 90
       50
176
     1
 62
   256
176
     0
 40
1.0
176
     0
 90
        2
176
     1
  1
strokes_ogs.tif
176
     1
290
     0
176
     1
 40
1.0
176
     1
 40
1.0
176
     1
  0
VISUALSTYLE
  5
36F1
102
{ACAD_REACTORS
330
36DA
102
}
330
36DA
100
AcDbVisualStyle
  2
Shaded with edges
 70
    26
177
     3
291
     0
 70
    58
 90
        2
176
     1
 90
        2
176
     1
 90
        1
176
     1
 90
        2
176
     1
 40
0.6
176
     1
 40
30.0
176
     1
 62
     7
420
 16777215
176
     1
 90
        1
176
     1
 90
       10
176
     1
 62
     7
176
     1
 62
   257
176
     1
 90
        2
176
     1
 90
        1
176
     1
 40
1.0
176
     1
 90
        8
176
     1
 62
   257
176
     1
 40
1.0
176
     1
 90
        1
176
     1
 90
        6
176
     1
 90
        2
176
     1
 62
     7
176
     1
 90
        3
176
     1
 90
        0
176
     1
 90
        0
176
     1
290
     0
176
     1
 90
        5
176
     1
 40
0.0
176
     1
 90
        0
176
     1
290
     0
176
     1
290
     1
176
     1
290
     1
176
     1
290
     0
176
     1
290
     0
176
     1
290
     0
176
     1
290
     0
176
     1
290
     0
176
     1
290
     0
176
     1
 90
       50
176
     1
 40
0.0
176
     1
 40
1.0
176
     1
 90
        0
176
     1
 62
    18
176
     1
 90
       50
176
     1
 90
        3
176
     1
 62
     5
420
      255
176
     1
290
     0
176
     1
 90
       50
176
     1
 90
       50
176
     1
 90
       50
176
     1
290
     0
176
     1
 90
       50
176
     1
 62
   256
176
     0
 40
1.0
176
     0
 90
        2
176
     1
  1
strokes_ogs.tif
176
     1
290
     0
176
     1
 40
1.0
176
     1
 40
1.0
176
     1
  0
VISUALSTYLE
  5
36EE
102
{ACAD_REACTORS
330
36DA
102
}
330
36DA
100
AcDbVisualStyle
  2
Shades of Gray
 70
    23
177
     3
291
     0
 70
    58
 90
        2
176
     1
 90
        2
176
     1
 90
        3
176
     1
 90
        0
176
     1
 40
0.6
176
     1
 40
30.0
176
     1
 62
     7
420
 16777215
176
     1
 90
        2
176
     1
 90
        2
176
     1
 62
     7
176
     1
 62
     7
176
     1
 90
        1
176
     1
 90
        1
176
     1
 40
40.0
176
     1
 90
        8
176
     1
 62
     7
176
     1
 40
1.0
176
     1
 90
        1
176
     1
 90
        6
176
     1
 90
        2
176
     1
 62
     7
176
     1
 90
        3
176
     1
 90
        0
176
     1
 90
        0
176
     1
290
     0
176
     1
 90
        1
176
     1
 40
0.0
176
     1
 90
        0
176
     1
290
     0
176
     1
290
     1
176
     1
290
     1
176
     1
290
     0
176
     1
290
     0
176
     1
290
     0
176
     1
290
     0
176
     1
290
     0
176
     1
290
     0
176
     1
 90
       50
176
     1
 40
0.0
176
     1
 40
1.0
176
     1
 90
        0
176
     1
 62
    18
176
     1
 90
       50
176
     1
 90
        3
176
     1
 62
     5
420
      255
176
     1
290
     0
176
     1
 90
       50
176
     1
 90
       50
176
     1
 90
       50
176
     1
290
     0
176
     1
 90
       50
176
     1
 62
   256
176
     0
 40
1.0
176
     0
 90
        2
176
     1
  1
strokes_ogs.tif
176
     1
290
     0
176
     1
 40
1.0
176
     1
 40
1.0
176
     1
  0
VISUALSTYLE
  5
36EF
102
{ACAD_REACTORS
330
36DA
102
}
330
36DA
100
AcDbVisualStyle
  2
Sketchy
 70
    24
177
     3
291
     0
 70
    58
 90
        1
176
     1
 90
        2
176
     1
 90
        2
176
     1
 90
        0
176
     1
 40
0.6
176
     1
 40
30.0
176
     1
 62
     7
420
 16777215
176
     1
 90
        2
176
     1
 90
        2
176
     1
 62
     7
176
     1
 62
     7
176
     1
 90
        1
176
     1
 90
        1
176
     1
 40
40.0
176
     1
 90
       11
176
     1
 62
     7
176
     1
 40
1.0
176
     1
 90
        1
176
     1
 90
        6
176
     1
 90
        2
176
     1
 62
     7
176
     1
 90
        6
176
     1
 90
        0
176
     1
 90
        0
176
     1
290
     0
176
     1
 90
        1
176
     1
 40
0.0
176
     1
 90
        0
176
     1
290
     0
176
     1
290
     1
176
     1
290
     1
176
     1
290
     0
176
     1
290
     0
176
     1
290
     0
176
     1
290
     0
176
     1
290
     0
176
     1
290
     0
176
     1
 90
       50
176
     1
 40
0.0
176
     1
 40
1.0
176
     1
 90
        0
176
     1
 62
    18
176
     1
 90
       50
176
     1
 90
        3
176
     1
 62
     5
420
      255
176
     1
290
     0
176
     1
 90
       50
176
     1
 90
       50
176
     1
 90
       50
176
     1
290
     0
176
     1
 90
       50
176
     1
 62
   256
176
     0
 40
1.0
176
     0
 90
        2
176
     1
  1
strokes_ogs.tif
176
     1
290
     0
176
     1
 40
1.0
176
     1
 40
1.0
176
     1
  0
VISUALSTYLE
  5
36E7
102
{ACAD_REACTORS
330
36DA
102
}
330
36DA
100
AcDbVisualStyle
  2
Thicken
 70
    13
177
     3
291
     1
 70
    58
 90
        2
176
     1
 90
        2
176
     1
 90
        0
176
     1
 90
        0
176
     1
 40
0.6
176
     1
 40
30.0
176
     1
 62
     7
420
 16777215
176
     1
 90
        1
176
     1
 90
        4
176
     1
 62
     7
176
     1
 62
   257
176
     1
 90
        1
176
     1
 90
        1
176
     1
 40
1.0
176
     1
 90
       12
176
     1
 62
     7
176
     1
 40
1.0
176
     1
 90
        1
176
     1
 90
        6
176
     1
 90
        2
176
     1
 62
     7
176
     1
 90
        5
176
     1
 90
        0
176
     1
 90
        0
176
     1
290
     0
176
     1
 90
        1
176
     1
 40
0.0
176
     1
 90
        0
176
     1
290
     0
176
     1
290
     1
176
     1
290
     1
176
     1
290
     0
176
     1
290
     0
176
     1
290
     0
176
     1
290
     0
176
     1
290
     0
176
     1
290
     0
176
     1
 90
       50
176
     1
 40
0.0
176
     1
 40
1.0
176
     1
 90
        0
176
     1
 62
    18
176
     1
 90
       50
176
     1
 90
        3
176
     1
 62
     5
420
      255
176
     1
290
     0
176
     1
 90
       50
176
     1
 90
       50
176
     1
 90
       50
176
     1
290
     0
176
     1
 90
       50
176
     1
 62
   256
176
     0
 40
1.0
176
     0
 90
        2
176
     1
  1
strokes_ogs.tif
176
     1
290
     0
176
     1
 40
1.0
176
     1
 40
1.0
176
     1
  0
VISUALSTYLE
  5
36E0
102
{ACAD_REACTORS
330
36DA
102
}
330
36DA
100
AcDbVisualStyle
  2
Wireframe
 70
     5
177
     3
291
     0
 70
    58
 90
        0
176
     1
 90
        2
176
     1
 90
        0
176
     1
 90
        0
176
     1
 40
0.6
176
     1
 40
30.0
176
     1
 62
     7
420
 16777215
176
     1
 90
        1
176
     1
 90
        4
176
     1
 62
     7
176
     1
 62
   257
176
     1
 90
        1
176
     1
 90
        1
176
     1
 40
1.0
176
     1
 90
        0
176
     1
 62
   257
176
     1
 40
1.0
176
     1
 90
        1
176
     1
 90
        6
176
     1
 90
        2
176
     1
 62
     7
176
     1
 90
        3
176
     1
 90
        0
176
     1
 90
        0
176
     1
290
     0
176
     1
 90
        1
176
     1
 40
0.0
176
     1
 90
        0
176
     1
290
     0
176
     1
290
     1
176
     1
290
     1
176
     1
290
     0
176
     1
290
     0
176
     1
290
     0
176
     1
290
     0
176
     1
290
     0
176
     1
290
     0
176
     1
 90
       50
176
     1
 40
0.0
176
     1
 40
1.0
176
     1
 90
        0
176
     1
 62
    18
176
     1
 90
       50
176
     1
 90
        3
176
     1
 62
     5
420
      255
176
     1
290
     0
176
     1
 90
       50
176
     1
 90
       50
176
     1
 90
       50
176
     1
290
     0
176
     1
 90
       50
176
     1
 62
   256
176
     0
 40
1.0
176
     0
 90
        2
176
     1
  1
strokes_ogs.tif
176
     1
290
     0
176
     1
 40
1.0
176
     1
 40
1.0
176
     1
  0
VISUALSTYLE
  5
36F0
102
{ACAD_REACTORS
330
36DA
102
}
330
36DA
100
AcDbVisualStyle
  2
X-Ray
 70
    25
177
     3
291
     0
 70
    58
 90
        2
176
     1
 90
        2
176
     1
 90
        1
176
     1
 90
        1
176
     1
 40
0.5
176
     1
 40
30.0
176
     1
 62
     7
420
 16777215
176
     1
 90
        1
176
     1
 90
        0
176
     1
 62
     7
176
     1
 62
   257
176
     1
 90
        1
176
     1
 90
        1
176
     1
 40
1.0
176
     1
 90
        8
176
     1
 62
     7
176
     1
 40
1.0
176
     1
 90
        1
176
     1
 90
        6
176
     1
 90
        2
176
     1
 62
     7
176
     1
 90
        3
176
     1
 90
        0
176
     1
 90
        0
176
     1
290
     0
176
     1
 90
       13
176
     1
 40
0.0
176
     1
 90
        0
176
     1
290
     0
176
     1
290
     1
176
     1
290
     1
176
     1
290
     0
176
     1
290
     0
176
     1
290
     0
176
     1
290
     0
176
     1
290
     0
176
     1
290
     0
176
     1
 90
       50
176
     1
 40
0.0
176
     1
 40
1.0
176
     1
 90
        0
176
     1
 62
    18
176
     1
 90
       50
176
     1
 90
        3
176
     1
 62
     5
420
      255
176
     1
290
     0
176
     1
 90
       50
176
     1
 90
       50
176
     1
 90
       50
176
     1
290
     0
176
     1
 90
       50
176
     1
 62
   256
176
     0
 40
1.0
176
     0
 90
        2
176
     1
  1
strokes_ogs.tif
176
     1
290
     0
176
     1
 40
1.0
176
     1
 40
1.0
176
     1
  0
DICTIONARYVAR
  5
3BA8
102
{ACAD_REACTORS
330
193
102
}
330
193
100
DictionaryVariables
280
     0
  1
1:1
  0
DICTIONARYVAR
  5
3BAA
102
{ACAD_REACTORS
330
193
102
}
330
193
100
DictionaryVariables
280
     0
  1
STANDARD
  0
DICTIONARYVAR
  5
3BA9
102
{ACAD_REACTORS
330
193
102
}
330
193
100
DictionaryVariables
280
     0
  1
STANDARD
  0
DICTIONARYVAR
  5
3BC3
102
{ACAD_REACTORS
330
193
102
}
330
193
100
DictionaryVariables
280
     0
  1
Metric50
  0
DICTIONARYVAR
  5
3BC4
102
{ACAD_REACTORS
330
193
102
}
330
193
100
DictionaryVariables
280
     0
  1
Metric50
  0
DICTIONARYVAR
  5
195
102
{ACAD_REACTORS
330
193
102
}
330
193
100
DictionaryVariables
280
     0
  1
2
  0
DICTIONARYVAR
  5
194
102
{ACAD_REACTORS
330
193
102
}
330
193
100
DictionaryVariables
280
     0
  1
1
  0
DICTIONARYVAR
  5
3BAB
102
{ACAD_REACTORS
330
193
102
}
330
193
100
DictionaryVariables
280
     0
  1
0
  0
DICTIONARYVAR
  5
FE8
102
{ACAD_REACTORS
330
193
102
}
330
193
100
DictionaryVariables
280
     0
  1
112
  0
DICTIONARY
  5
3BB1
330
36F8
100
AcDbDictionary
280
     1
281
     1
  3
ACAD_ROUNDTRIP_2008_TABLESTYLE_CELLSTYLEMAP
360
4926
  0
CELLSTYLEMAP
  5
4926
102
{ACAD_REACTORS
330
3BB1
102
}
330
3BB1
100
AcDbCellStyleMap
 90
        3
300
CELLSTYLE
  1
TABLEFORMAT_BEGIN
 90
        5
170
     1
 91
        0
 92
    32768
 62
   257
 93
        1
300
CONTENTFORMAT
  1
CONTENTFORMAT_BEGIN
 90
        0
 91
        0
 92
        4
 93
        0
300

 40
0.0
140
1.0
 94
        5
 62
     0
340
11
144
6.0
309
CONTENTFORMAT_END
171
     1
301
MARGIN
  1
CELLMARGIN_BEGIN
 40
1.5
 40
1.5
 40
1.5
 40
1.5
 40
0.18
 40
0.18
309
CELLMARGIN_END
 94
        6
 95
        1
302
GRIDFORMAT
  1
GRIDFORMAT_BEGIN
 90
        0
 91
        1
 62
     0
 92
       -2
340
14
 93
        0
 40
0.045
309
GRIDFORMAT_END
 95
        2
302
GRIDFORMAT
  1
GRIDFORMAT_BEGIN
 90
        0
 91
        1
 62
     0
 92
       -2
340
14
 93
        0
 40
0.045
309
GRIDFORMAT_END
 95
        4
302
GRIDFORMAT
  1
GRIDFORMAT_BEGIN
 90
        0
 91
        1
 62
     0
 92
       -2
340
14
 93
        0
 40
0.045
309
GRIDFORMAT_END
 95
        8
302
GRIDFORMAT
  1
GRIDFORMAT_BEGIN
 90
        0
 91
        1
 62
     0
 92
       -2
340
14
 93
        0
 40
0.045
309
GRIDFORMAT_END
 95
       16
302
GRIDFORMAT
  1
GRIDFORMAT_BEGIN
 90
        0
 91
        1
 62
     0
 92
       -2
340
14
 93
        0
 40
0.045
309
GRIDFORMAT_END
 95
       32
302
GRIDFORMAT
  1
GRIDFORMAT_BEGIN
 90
        0
 91
        1
 62
     0
 92
       -2
340
14
 93
        0
 40
0.045
309
GRIDFORMAT_END
309
TABLEFORMAT_END
  1
CELLSTYLE_BEGIN
 90
        1
 91
        1
300
_TITLE
309
CELLSTYLE_END
300
CELLSTYLE
  1
TABLEFORMAT_BEGIN
 90
        5
170
     1
 91
        0
 92
        0
 62
   257
 93
        1
300
CONTENTFORMAT
  1
CONTENTFORMAT_BEGIN
 90
        0
 91
        0
 92
        4
 93
        0
300

 40
0.0
140
1.0
 94
        5
 62
     0
340
11
144
4.5
309
CONTENTFORMAT_END
171
     1
301
MARGIN
  1
CELLMARGIN_BEGIN
 40
1.5
 40
1.5
 40
1.5
 40
1.5
 40
0.18
 40
0.18
309
CELLMARGIN_END
 94
        6
 95
        1
302
GRIDFORMAT
  1
GRIDFORMAT_BEGIN
 90
        0
 91
        1
 62
     0
 92
       -2
340
14
 93
        0
 40
0.045
309
GRIDFORMAT_END
 95
        2
302
GRIDFORMAT
  1
GRIDFORMAT_BEGIN
 90
        0
 91
        1
 62
     0
 92
       -2
340
14
 93
        0
 40
0.045
309
GRIDFORMAT_END
 95
        4
302
GRIDFORMAT
  1
GRIDFORMAT_BEGIN
 90
        0
 91
        1
 62
     0
 92
       -2
340
14
 93
        0
 40
0.045
309
GRIDFORMAT_END
 95
        8
302
GRIDFORMAT
  1
GRIDFORMAT_BEGIN
 90
        0
 91
        1
 62
     0
 92
       -2
340
14
 93
        0
 40
0.045
309
GRIDFORMAT_END
 95
       16
302
GRIDFORMAT
  1
GRIDFORMAT_BEGIN
 90
        0
 91
        1
 62
     0
 92
       -2
340
14
 93
        0
 40
0.045
309
GRIDFORMAT_END
 95
       32
302
GRIDFORMAT
  1
GRIDFORMAT_BEGIN
 90
        0
 91
        1
 62
     0
 92
       -2
340
14
 93
        0
 40
0.045
309
GRIDFORMAT_END
309
TABLEFORMAT_END
  1
CELLSTYLE_BEGIN
 90
        2
 91
        1
300
_HEADER
309
CELLSTYLE_END
300
CELLSTYLE
  1
TABLEFORMAT_BEGIN
 90
        5
170
     1
 91
        0
 92
        0
 62
   257
 93
        1
300
CONTENTFORMAT
  1
CONTENTFORMAT_BEGIN
 90
        0
 91
        0
 92
        4
 93
        0
300

 40
0.0
140
1.0
 94
        2
 62
     0
340
11
144
4.5
309
CONTENTFORMAT_END
171
     1
301
MARGIN
  1
CELLMARGIN_BEGIN
 40
1.5
 40
1.5
 40
1.5
 40
1.5
 40
0.18
 40
0.18
309
CELLMARGIN_END
 94
        6
 95
        1
302
GRIDFORMAT
  1
GRIDFORMAT_BEGIN
 90
        0
 91
        1
 62
     0
 92
       -2
340
14
 93
        0
 40
0.045
309
GRIDFORMAT_END
 95
        2
302
GRIDFORMAT
  1
GRIDFORMAT_BEGIN
 90
        0
 91
        1
 62
     0
 92
       -2
340
14
 93
        0
 40
0.045
309
GRIDFORMAT_END
 95
        4
302
GRIDFORMAT
  1
GRIDFORMAT_BEGIN
 90
        0
 91
        1
 62
     0
 92
       -2
340
14
 93
        0
 40
0.045
309
GRIDFORMAT_END
 95
        8
302
GRIDFORMAT
  1
GRIDFORMAT_BEGIN
 90
        0
 91
        1
 62
     0
 92
       -2
340
14
 93
        0
 40
0.045
309
GRIDFORMAT_END
 95
       16
302
GRIDFORMAT
  1
GRIDFORMAT_BEGIN
 90
        0
 91
        1
 62
     0
 92
       -2
340
14
 93
        0
 40
0.045
309
GRIDFORMAT_END
 95
       32
302
GRIDFORMAT
  1
GRIDFORMAT_BEGIN
 90
        0
 91
        1
 62
     0
 92
       -2
340
14
 93
        0
 40
0.045
309
GRIDFORMAT_END
309
TABLEFORMAT_END
  1
CELLSTYLE_BEGIN
 90
        3
 91
        2
300
_DATA
309
CELLSTYLE_END
  0
ENDSEC
  0
SECTION
  2
ACDSDATA
 70
     2
 71
     7
  0
ACDSSCHEMA
 90
        0
  1
AcDb_Thumbnail_Schema
  2
AcDbDs::ID
280
    10
 91
        8
  2
Thumbnail_Data
280
    15
 91
        0
101
ACDSRECORD
 95
        0
 90
        1
  2
AcDbDs::TreatedAsObjectData
280
     1
291
     1
101
ACDSRECORD
 95
        0
 90
        2
  2
AcDbDs::Legacy
280
     1
291
     1
101
ACDSRECORD
  1
AcDbDs::ID
 90
        3
  2
AcDs:Indexable
280
     1
291
     1
101
ACDSRECORD
  1
AcDbDs::ID
 90
        4
  2
AcDbDs::HandleAttribute
280
     7
282
     1
  0
ACDSSCHEMA
 90
        1
  1
AcDbDs::TreatedAsObjectDataSchema
  2
AcDbDs::TreatedAsObjectData
280
     1
 91
        0
  0
ACDSSCHEMA
 90
        2
  1
AcDbDs::LegacySchema
  2
AcDbDs::Legacy
280
     1
 91
        0
  0
ACDSSCHEMA
 90
        3
  1
AcDbDs::IndexedPropertySchema
  2
AcDs:Indexable
280
     1
 91
        0
  0
ACDSSCHEMA
 90
        4
  1
AcDbDs::HandleAttributeSchema
  2
AcDbDs::HandleAttribute
280
     7
 91
        1
284
     1
  0
ACDSRECORD
 90
        0
  2
AcDbDs::ID
280
    10
320
1E
  2
Thumbnail_Data
280
    15
 94
     2277
310
89504E470D0A1A0A0000000D4948445200000100000000B408030000004C80028300000300504C5445FFFFFF000000C8C8C80000000000000000000000000000000000000000000000000000330000660000990000CC0000FF0033000033330033660033990033CC0033FF0066000066330066660066990066CC0066FF0099
310
000099330099660099990099CC0099FF00CC0000CC3300CC6600CC9900CCCC00CCFF00FF0000FF3300FF6600FF9900FFCC00FFFF3300003300333300663300993300CC3300FF3333003333333333663333993333CC3333FF3366003366333366663366993366CC3366FF3399003399333399663399993399CC3399FF33CC00
310
33CC3333CC6633CC9933CCCC33CCFF33FF0033FF3333FF6633FF9933FFCC33FFFF6600006600336600666600996600CC6600FF6633006633336633666633996633CC6633FF6666006666336666666666996666CC6666FF6699006699336699666699996699CC6699FF66CC0066CC3366CC6666CC9966CCCC66CCFF66FF0066
310
FF3366FF6666FF9966FFCC66FFFF9900009900339900669900999900CC9900FF9933009933339933669933999933CC9933FF9966009966339966669966999966CC9966FF9999009999339999669999999999CC9999FF99CC0099CC3399CC6699CC9999CCCC99CCFF99FF0099FF3399FF6699FF9999FFCC99FFFFCC0000CC00
310
33CC0066CC0099CC00CCCC00FFCC3300CC3333CC3366CC3399CC33CCCC33FFCC6600CC6633CC6666CC6699CC66CCCC66FFCC9900CC9933CC9966CC9999CC99CCCC99FFCCCC00CCCC33CCCC66CCCC99CCCCCCCCCCFFCCFF00CCFF33CCFF66CCFF99CCFFCCCCFFFFFF0000FF0033FF0066FF0099FF00CCFF00FFFF3300FF3333
310
FF3366FF3399FF33CCFF33FFFF6600FF6633FF6666FF6699FF66CCFF66FFFF9900FF9933FF9966FF9999FF99CCFF99FFFFCC00FFCC33FFCC66FFCC99FFCCCCFFCCFFFFFF00FFFF33FFFF66FFFF99FFFFCCFFFFFF0000000D0D0D1A1A1A2828283535354343435050505D5D5D6B6B6B787878868686939393A1A1A1AEAEAEBB
310
BBBBC9C9C9D6D6D6E4E4E4F1F1F1FFFFFF000000000000000000000000000000000000000000000000000000000000B0E2D235000005364944415478DAED9C6B92AB201085D9416FC3FD2F803FBD9359C94450501E02D16883873B954A255EC4CF7E1C1A8CFA7B7753EAF3F7E2060000000000000000000000000000000000
310
0000FED3F639E57357706E80000000000000C802CD54455FD11D2E000000303480C1D7412A008C1DF40100000000009E03A001000000E07D0074EAAD1E1700056DD21351FC21459F02C03000BE72812100E8D295E81237DD2D808F554FF431F6E95B5BA64D0F7D5B80E43C091D00002201F0CB0130F36B00A4EFFF7D046402
310
789305E8A4F98F14030A773305E0BEFB7F1B006E0882775EFEEF017CAE86ED4DE56A0083E980F9D2D9BED4B9C0804268415005E0E6EBBF2B0BAC4E1043D0A10218560AAFAEC0946FFC45ABA8BF88D10176C094B700AE1E3A1FA40CB900AC1950A62466C63E3A00CB80345D0620F1DD343D0AA0389321CDAC9D075F0F407FDA
310
A3165092B26410F032FC0A0051779B33A4CEF4B40B70219B933FE437001E760133A82323A09D0117002C1272DF9D700B28394103804CC2170FE038103659C0722CABAE2C40B1AA76013524809A20383680A35470DE050A424808806C247C078083D2DE4B00E4099C8F01DD00C8CCFA8F00246A04993A41BE8749C86CD08F2D
310
1A51D605F6D7327D61019438DD430088AF03405D0270A37B2F8065BA7F1900EE03007B007C1E807600B6594536003B529AC380494927002CBB054905CB4B59009310004BF153FBE2D736836500A4B29D2D70912D0CA8680EC0713DEC6900B6FCAF0C005A0ADD141E900310A922529A5677AA7501F5308015011903E6C8058A
310
0038E3025559E07917E0355CD97D9EF3BB0040360604EA6E130423552D37083A8DCAB30EB0BAB715006F0090B1FE8C0E6089598077214D1B39F425001B03E2E534279013D3ADC7634010C3798EE19B5BC2BB0D234900A91E9A0048B10093057430A20D00FB56C775AE5D105CB340AA24C6F25C607B4FC8D9630B804D0F1680
310
3A00A0B80F002A0340A52CC07741AA0840A60E7043310BE1C12DD900503917F05960ED8122AD21360678014B9F7FF342F0FCC883D1B3DA36367F46E22E4257FB6FE657D726D7032DFFC12EFDBA437D4F6A7DF91C392D476B1916C0C73A401DEA80B5070A0F962A84923160193F57E9000E63805E64701F73817410DC8FBF0C
310
209105D86D37145F0F48EA806D2DB7692EE075C08A40FE5C205072CB883C81562548DA57847AB380753B14B942415310347321CD7E3251511112301758C7E5A7411305DF35CC066D6DD565813E2C60B32D36288A36C7007B0047BB6EE4033073F8A59E734145886B4B62028AA2BC2989297D554DB0B62AFCFC5CC0056BB2C2
310
F5A2AA70A0840457859DB7E65CE0CB75817D6550F6BA80374675E5CAD0AEDE263708EEBCF16A00AA3B00EA3400353A80FCB6D2DE01F08500BADC21C2BB6D3EB93D427A3B4D56F1F6A0ECB344393212F70845FA26FBF81355F57064012CE791992300A920F826000A0000E00C80A3DDE200D01B00F5950BC002000000860360
310
2AE895008E63C0E30F4E5603D8096132EBC917E880C79F1D6EB080DDC7F516501042FD58802BF8B877ED00B8BF18C0190047478E05E0A7BF21C28DBFC4D4AB051C9D1500000000000000BA01A0000000DE0C209472A700300074028073004265DF0A807D8D413680DAA94D1B80D2EF2C8A01F0DB1EB8F17C00000000F04300
310
FE098183C875B2874487822CA0347C2E01507D03E0D300BAB6802B5BF3191104250138DF7EF78BE300000000F01C80FA883D2A00C59569BB4F00B52650256EBA0470B7101206A08F0600000000000000000000050023B71A00AF6A0000000000000000000000000000000000000000002F05F0EEA6FE010970F64E1CEF7384
310
0000000049454E44AE4260821F7CA700E00480BA03F077DA5A07F0F8034D00F82D4F7F3FFB48FFC6DFBA01F0DB80E85501026012FFEFE73C1705F403E01FF930340FA0F738A0FB4850007006D04D0B00E8B0090001200004800010007D03E8BCFD075A17CE9B304078100000000049454E44AE426082
  0
ENDSEC
  0
EOF
