  0
SECTION
  2
HEADER
  9
$ACADVER
  1
AC1027
  9
$ACADMAINTVER
 70
    20
  9
$DWGCODEPAGE
  3
ANSI_932
  9
$LASTSAVEDBY
  1
lineeyeKH1
  9
$REQUIREDVERSIONS
160
                 0
  9
$INSBASE
 10
0.0
 20
0.0
 30
0.0
  9
$EXTMIN
 10
14.10171401025479
 20
119.4199951405656
 30
0.0
  9
$EXTMAX
 10
242.6514382792469
 20
206.0457477807533
 30
0.0
  9
$LIMMIN
 10
0.0
 20
0.0
  9
$LIMMAX
 10
420.0
 20
297.0
  9
$ORTHOMODE
 70
     1
  9
$REGENMODE
 70
     1
  9
$FILLMODE
 70
     1
  9
$QTEXTMODE
 70
     0
  9
$MIRRTEXT
 70
     1
  9
$LTSCALE
 40
1.0
  9
$ATTMODE
 70
     1
  9
$TEXTSIZE
 40
2.5
  9
$TRACEWID
 40
1.0
  9
$TEXTSTYLE
  7
Standard
  9
$CLAYER
  8
寸法
  9
$CELTYPE
  6
ByLayer
  9
$CECOLOR
 62
   256
  9
$CELTSCALE
 40
1.0
  9
$DISPSILH
 70
     0
  9
$DIMSCALE
 40
1.0
  9
$DIMASZ
 40
2.0
  9
$DIMEXO
 40
1.0
  9
$DIMDLI
 40
7.0
  9
$DIMRND
 40
0.0
  9
$DIMDLE
 40
0.0
  9
$DIMEXE
 40
1.0
  9
$DIMTP
 40
0.0
  9
$DIMTM
 40
0.0
  9
$DIMTXT
 40
2.5
  9
$DIMCEN
 40
0.0
  9
$DIMTSZ
 40
0.0
  9
$DIMTOL
 70
     0
  9
$DIMLIM
 70
     0
  9
$DIMTIH
 70
     0
  9
$DIMTOH
 70
     0
  9
$DIMSE1
 70
     0
  9
$DIMSE2
 70
     0
  9
$DIMTAD
 70
     1
  9
$DIMZIN
 70
     8
  9
$DIMBLK
  1

  9
$DIMASO
 70
     1
  9
$DIMSHO
 70
     1
  9
$DIMPOST
  1

  9
$DIMAPOST
  1

  9
$DIMALT
 70
     0
  9
$DIMALTD
 70
     2
  9
$DIMALTF
 40
0.0394
  9
$DIMLFAC
 40
1.0
  9
$DIMTOFL
 70
     1
  9
$DIMTVP
 40
0.0
  9
$DIMTIX
 70
     0
  9
$DIMSOXD
 70
     0
  9
$DIMSAH
 70
     0
  9
$DIMBLK1
  1

  9
$DIMBLK2
  1

  9
$DIMSTYLE
  2
LINEEYE
  9
$DIMCLRD
 70
   256
  9
$DIMCLRE
 70
   256
  9
$DIMCLRT
 70
   256
  9
$DIMTFAC
 40
1.0
  9
$DIMGAP
 40
1.0
  9
$DIMJUST
 70
     0
  9
$DIMSD1
 70
     0
  9
$DIMSD2
 70
     0
  9
$DIMTOLJ
 70
     1
  9
$DIMTZIN
 70
     0
  9
$DIMALTZ
 70
     0
  9
$DIMALTTZ
 70
     0
  9
$DIMUPT
 70
     0
  9
$DIMDEC
 70
     1
  9
$DIMTDEC
 70
     1
  9
$DIMALTU
 70
     2
  9
$DIMALTTD
 70
     2
  9
$DIMTXSTY
  7
Standard
  9
$DIMAUNIT
 70
     0
  9
$DIMADEC
 70
     0
  9
$DIMALTRND
 40
0.0
  9
$DIMAZIN
 70
     0
  9
$DIMDSEP
 70
    46
  9
$DIMATFIT
 70
     3
  9
$DIMFRAC
 70
     0
  9
$DIMLDRBLK
  1

  9
$DIMLUNIT
 70
     2
  9
$DIMLWD
 70
    -1
  9
$DIMLWE
 70
    -1
  9
$DIMTMOVE
 70
     0
  9
$DIMFXL
 40
1.0
  9
$DIMFXLON
 70
     0
  9
$DIMJOGANG
 40
0.7853981633974483
  9
$DIMTFILL
 70
     0
  9
$DIMTFILLCLR
 70
     0
  9
$DIMARCSYM
 70
     0
  9
$DIMLTYPE
  6

  9
$DIMLTEX1
  6

  9
$DIMLTEX2
  6

  9
$DIMTXTDIRECTION
 70
     0
  9
$LUNITS
 70
     2
  9
$LUPREC
 70
     4
  9
$SKETCHINC
 40
1.0
  9
$FILLETRAD
 40
1.0
  9
$AUNITS
 70
     0
  9
$AUPREC
 70
     0
  9
$MENU
  1
.
  9
$ELEVATION
 40
0.0
  9
$PELEVATION
 40
0.0
  9
$THICKNESS
 40
0.0
  9
$LIMCHECK
 70
     0
  9
$CHAMFERA
 40
1.0
  9
$CHAMFERB
 40
1.0
  9
$CHAMFERC
 40
20.0
  9
$CHAMFERD
 40
0.0
  9
$SKPOLY
 70
     0
  9
$TDCREATE
 40
2452964.722255845
  9
$TDUCREATE
 40
2452964.347255846
  9
$TDUPDATE
 40
2458190.433867049
  9
$TDUUPDATE
 40
2458190.058867049
  9
$TDINDWG
 40
0.8427189236
  9
$TDUSRTIMER
 40
2457052.288815903
  9
$USRTIMER
 70
     1
  9
$ANGBASE
 50
0.0
  9
$ANGDIR
 70
     0
  9
$PDMODE
 70
     0
  9
$PDSIZE
 40
0.0
  9
$PLINEWID
 40
0.0
  9
$SPLFRAME
 70
     0
  9
$SPLINETYPE
 70
     6
  9
$SPLINESEGS
 70
     8
  9
$HANDSEED
  5
5116
  9
$SURFTAB1
 70
     6
  9
$SURFTAB2
 70
     6
  9
$SURFTYPE
 70
     6
  9
$SURFU
 70
     6
  9
$SURFV
 70
     6
  9
$UCSBASE
  2

  9
$UCSNAME
  2

  9
$UCSORG
 10
0.0
 20
0.0
 30
0.0
  9
$UCSXDIR
 10
1.0
 20
0.0
 30
0.0
  9
$UCSYDIR
 10
0.0
 20
1.0
 30
0.0
  9
$UCSORTHOREF
  2

  9
$UCSORTHOVIEW
 70
     0
  9
$UCSORGTOP
 10
0.0
 20
0.0
 30
0.0
  9
$UCSORGBOTTOM
 10
0.0
 20
0.0
 30
0.0
  9
$UCSORGLEFT
 10
0.0
 20
0.0
 30
0.0
  9
$UCSORGRIGHT
 10
0.0
 20
0.0
 30
0.0
  9
$UCSORGFRONT
 10
0.0
 20
0.0
 30
0.0
  9
$UCSORGBACK
 10
0.0
 20
0.0
 30
0.0
  9
$PUCSBASE
  2

  9
$PUCSNAME
  2

  9
$PUCSORG
 10
0.0
 20
0.0
 30
0.0
  9
$PUCSXDIR
 10
1.0
 20
0.0
 30
0.0
  9
$PUCSYDIR
 10
0.0
 20
1.0
 30
0.0
  9
$PUCSORTHOREF
  2

  9
$PUCSORTHOVIEW
 70
     0
  9
$PUCSORGTOP
 10
0.0
 20
0.0
 30
0.0
  9
$PUCSORGBOTTOM
 10
0.0
 20
0.0
 30
0.0
  9
$PUCSORGLEFT
 10
0.0
 20
0.0
 30
0.0
  9
$PUCSORGRIGHT
 10
0.0
 20
0.0
 30
0.0
  9
$PUCSORGFRONT
 10
0.0
 20
0.0
 30
0.0
  9
$PUCSORGBACK
 10
0.0
 20
0.0
 30
0.0
  9
$USERI1
 70
     0
  9
$USERI2
 70
     0
  9
$USERI3
 70
     0
  9
$USERI4
 70
     0
  9
$USERI5
 70
     0
  9
$USERR1
 40
0.0
  9
$USERR2
 40
0.0
  9
$USERR3
 40
0.0
  9
$USERR4
 40
0.0
  9
$USERR5
 40
0.0
  9
$WORLDVIEW
 70
     1
  9
$SHADEDGE
 70
     3
  9
$SHADEDIF
 70
    70
  9
$TILEMODE
 70
     0
  9
$MAXACTVP
 70
    64
  9
$PINSBASE
 10
0.0
 20
0.0
 30
0.0
  9
$PLIMCHECK
 70
     0
  9
$PEXTMIN
 10
-0.6161281959830376
 20
-0.9914953453488806
 30
0.0
  9
$PEXTMAX
 10
296.8919077172943
 20
209.0085046546511
 30
0.0
  9
$PLIMMIN
 10
-0.7937499880790711
 20
-0.7937499880790711
  9
$PLIMMAX
 10
296.2062500119209
 20
209.2062500119209
  9
$UNITMODE
 70
     0
  9
$VISRETAIN
 70
     1
  9
$PLINEGEN
 70
     0
  9
$PSLTSCALE
 70
     1
  9
$TREEDEPTH
 70
  3020
  9
$CMLSTYLE
  2
Standard
  9
$CMLJUST
 70
     0
  9
$CMLSCALE
 40
20.0
  9
$PROXYGRAPHICS
 70
     1
  9
$MEASUREMENT
 70
     1
  9
$CELWEIGHT
370
    -1
  9
$ENDCAPS
280
     0
  9
$JOINSTYLE
280
     0
  9
$LWDISPLAY
290
     0
  9
$INSUNITS
 70
     4
  9
$HYPERLINKBASE
  1

  9
$STYLESHEET
  1
GRAYSCALE.CTB
  9
$XEDIT
290
     1
  9
$CEPSNTYPE
380
     0
  9
$PSTYLEMODE
290
     1
  9
$FINGERPRINTGUID
  2
{8D857D7B-D612-449F-BAF4-CB0812802B13}
  9
$VERSIONGUID
  2
{A971966C-3CB8-4B64-97C3-1B23A18FD9EC}
  9
$EXTNAMES
290
     1
  9
$PSVPSCALE
 40
0.0
  9
$OLESTARTUP
290
     0
  9
$SORTENTS
280
   112
  9
$INDEXCTL
280
     0
  9
$HIDETEXT
280
     1
  9
$XCLIPFRAME
280
     2
  9
$HALOGAP
280
     0
  9
$OBSCOLOR
 70
   257
  9
$OBSLTYPE
280
     0
  9
$INTERSECTIONDISPLAY
280
     0
  9
$INTERSECTIONCOLOR
 70
   257
  9
$DIMASSOC
280
     2
  9
$PROJECTNAME
  1

  9
$CAMERADISPLAY
290
     0
  9
$LENSLENGTH
 40
50.0
  9
$CAMERAHEIGHT
 40
0.0
  9
$STEPSPERSEC
 40
2.0
  9
$STEPSIZE
 40
6.0
  9
$3DDWFPREC
 40
2.0
  9
$PSOLWIDTH
 40
0.25
  9
$PSOLHEIGHT
 40
4.0
  9
$LOFTANG1
 40
1.570796326794897
  9
$LOFTANG2
 40
1.570796326794897
  9
$LOFTMAG1
 40
0.0
  9
$LOFTMAG2
 40
0.0
  9
$LOFTPARAM
 70
     7
  9
$LOFTNORMALS
280
     1
  9
$LATITUDE
 40
37.795
  9
$LONGITUDE
 40
-122.394
  9
$NORTHDIRECTION
 40
0.0
  9
$TIMEZONE
 70
 -8000
  9
$LIGHTGLYPHDISPLAY
280
     1
  9
$TILEMODELIGHTSYNCH
280
     1
  9
$CMATERIAL
347
36F4
  9
$SOLIDHIST
280
     0
  9
$SHOWHIST
280
     1
  9
$DWFFRAME
280
     2
  9
$DGNFRAME
280
     2
  9
$REALWORLDSCALE
290
     1
  9
$INTERFERECOLOR
 62
   256
  9
$INTERFEREOBJVS
345
36E3
  9
$INTERFEREVPVS
346
36E0
  9
$CSHADOW
280
     0
  9
$SHADOWPLANELOCATION
 40
0.0
  0
ENDSEC
  0
SECTION
  2
CLASSES
  0
CLASS
  1
ACDBDICTIONARYWDFLT
  2
AcDbDictionaryWithDefault
  3
ObjectDBX Classes
 90
        0
 91
        1
280
     0
281
     0
  0
CLASS
  1
DIMASSOC
  2
AcDbDimAssoc
  3
"AcDbDimAssoc|Product Desc:     AcDim ARX App For Dimension|Company:          Autodesk, Inc.|WEB Address:      www.autodesk.com"
 90
        0
 91
       25
280
     0
281
     0
  0
CLASS
  1
DICTIONARYVAR
  2
AcDbDictionaryVar
  3
ObjectDBX Classes
 90
        0
 91
       11
280
     0
281
     0
  0
CLASS
  1
SORTENTSTABLE
  2
AcDbSortentsTable
  3
ObjectDBX Classes
 90
        0
 91
        2
280
     0
281
     0
  0
CLASS
  1
SCALE
  2
AcDbScale
  3
ObjectDBX Classes
 90
     1153
 91
       33
280
     0
281
     0
  0
CLASS
  1
VISUALSTYLE
  2
AcDbVisualStyle
  3
ObjectDBX Classes
 90
     4095
 91
       24
280
     0
281
     0
  0
CLASS
  1
MATERIAL
  2
AcDbMaterial
  3
ObjectDBX Classes
 90
     1153
 91
        3
280
     0
281
     0
  0
CLASS
  1
TABLESTYLE
  2
AcDbTableStyle
  3
ObjectDBX Classes
 90
     4095
 91
        1
280
     0
281
     0
  0
CLASS
  1
MLEADERSTYLE
  2
AcDbMLeaderStyle
  3
ACDB_MLEADERSTYLE_CLASS
 90
     4095
 91
        1
280
     0
281
     0
  0
CLASS
  1
SUN
  2
AcDbSun
  3
SCENEOE
 90
     1153
 91
        2
280
     0
281
     0
  0
CLASS
  1
RASTERVARIABLES
  2
AcDbRasterVariables
  3
ISM
 90
        0
 91
        1
280
     0
281
     0
  0
CLASS
  1
MULTILEADER
  2
AcDbMLeader
  3
ACDB_MLEADER_CLASS
 90
     1025
 91
        3
280
     0
281
     1
  0
CLASS
  1
CELLSTYLEMAP
  2
AcDbCellStyleMap
  3
ObjectDBX Classes
 90
     1152
 91
        1
280
     0
281
     0
  0
CLASS
  1
ACDBSECTIONVIEWSTYLE
  2
AcDbSectionViewStyle
  3
ObjectDBX Classes
 90
     1025
 91
        1
280
     0
281
     0
  0
CLASS
  1
ACDBDETAILVIEWSTYLE
  2
AcDbDetailViewStyle
  3
ObjectDBX Classes
 90
     1025
 91
        1
280
     0
281
     0
  0
ENDSEC
  0
SECTION
  2
TABLES
  0
TABLE
  2
VPORT
  5
8
330
0
100
AcDbSymbolTable
 70
     1
  0
VPORT
  5
36B7
330
8
100
AcDbSymbolTableRecord
100
AcDbViewportTableRecord
  2
*Active
 70
     0
 10
0.0
 20
0.0
 11
1.0
 21
1.0
 12
132.4766530330097
 22
109.2570793726842
 13
0.0
 23
0.0
 14
10.0
 24
10.0
 15
10.0
 25
10.0
 16
0.0
 26
0.0
 36
1.0
 17
0.0
 27
0.0
 37
0.0
 40
176.9338470272845
 41
1.5
 42
50.0
 43
0.0
 44
0.0
 50
0.0
 51
0.0
 71
    16
 72
   100
 73
     1
 74
     3
 75
     0
 76
     0
 77
     0
 78
     0
281
     0
 65
     1
110
0.0
120
0.0
130
0.0
111
1.0
121
0.0
131
0.0
112
0.0
122
1.0
132
0.0
 79
     0
146
0.0
348
36DF
 60
     3
 61
     5
292
     1
282
     1
141
0.0
142
0.0
361
36FC
  0
ENDTAB
  0
TABLE
  2
LTYPE
  5
5
330
0
100
AcDbSymbolTable
 70
     7
  0
LTYPE
  5
14
330
5
100
AcDbSymbolTableRecord
100
AcDbLinetypeTableRecord
  2
ByBlock
 70
     0
  3

 72
    65
 73
     0
 40
0.0
  0
LTYPE
  5
15
330
5
100
AcDbSymbolTableRecord
100
AcDbLinetypeTableRecord
  2
ByLayer
 70
     0
  3

 72
    65
 73
     0
 40
0.0
  0
LTYPE
  5
16
330
5
100
AcDbSymbolTableRecord
100
AcDbLinetypeTableRecord
  2
Continuous
 70
     0
  3
Solid line
 72
    65
 73
     0
 40
0.0
  0
LTYPE
  5
ABF
330
5
100
AcDbSymbolTableRecord
100
AcDbLinetypeTableRecord
  2
CENTER2
 70
     0
  3
Center (.5x) ___ _ ___ _ ___ _ ___ _ ___ _ ___
 72
    65
 73
     4
 40
28.57499999999999
 49
19.05
 74
     0
 49
-3.174999999999998
 74
     0
 49
3.174999999999998
 74
     0
 49
-3.174999999999998
 74
     0
  0
LTYPE
  5
AC9
330
5
100
AcDbSymbolTableRecord
100
AcDbLinetypeTableRecord
  2
CENTERX2
 70
     0
  3
Center (2x) ________  __  ________  __  _____
 72
    65
 73
     4
 40
101.6
 49
63.5
 74
     0
 49
-12.7
 74
     0
 49
12.7
 74
     0
 49
-12.7
 74
     0
  0
LTYPE
  5
BF3
330
5
100
AcDbSymbolTableRecord
100
AcDbLinetypeTableRecord
  2
HIDDEN2
 70
     0
  3
Hidden (.5x) _ _ _ _ _ _ _ _ _ _ _ _ _ _ _ _ _
 72
    65
 73
     2
 40
4.762499999999998
 49
3.174999999999998
 74
     0
 49
-1.587499999999999
 74
     0
  0
LTYPE
  5
1977
330
5
100
AcDbSymbolTableRecord
100
AcDbLinetypeTableRecord
  2
DASHED2
 70
     0
  3
Dashed (.5x) _ _ _ _ _ _ _ _ _ _ _ _ _ _ _ _ _
 72
    65
 73
     2
 40
9.525
 49
6.349999999999998
 74
     0
 49
-3.174999999999998
 74
     0
  0
LTYPE
  5
24EE
330
5
100
AcDbSymbolTableRecord
100
AcDbLinetypeTableRecord
  2
CENTER
 70
     0
  3
____ _ ____ _ ____ _ ____ _ ____ _ ____ _ ____
 72
    65
 73
     4
 40
2.0
 49
1.25
 74
     0
 49
-0.25
 74
     0
 49
0.25
 74
     0
 49
-0.25
 74
     0
  0
LTYPE
  5
24EF
330
5
100
AcDbSymbolTableRecord
100
AcDbLinetypeTableRecord
  2
HIDDEN
 70
     0
  3
_ _ _ _ _ _ _ _ _ _ _ _ _ _ _ _ _ _ _ _ _ _ _
 72
    65
 73
     2
 40
0.375
 49
0.25
 74
     0
 49
-0.125
 74
     0
  0
ENDTAB
  0
TABLE
  2
LAYER
  5
2
102
{ACAD_XDICTIONARY
360
396B
102
}
330
0
100
AcDbSymbolTable
 70
    15
  0
LAYER
  5
10
330
2
100
AcDbSymbolTableRecord
100
AcDbLayerTableRecord
  2
0
 70
     0
 62
     7
  6
Continuous
370
    -3
390
F
347
36F6
348
0
  0
LAYER
  5
6A
330
2
100
AcDbSymbolTableRecord
100
AcDbLayerTableRecord
  2
外形１
 70
     0
 62
     5
  6
Continuous
370
    30
390
F
347
36F6
348
0
  0
LAYER
  5
6B
330
2
100
AcDbSymbolTableRecord
100
AcDbLayerTableRecord
  2
外形２
 70
     0
 62
     7
  6
Continuous
370
    -3
390
F
347
36F6
348
0
  0
LAYER
  5
960
330
2
100
AcDbSymbolTableRecord
100
AcDbLayerTableRecord
  2
寸法
 70
     0
 62
     6
  6
Continuous
370
    25
390
F
347
36F6
348
0
  0
LAYER
  5
961
330
2
100
AcDbSymbolTableRecord
100
AcDbLayerTableRecord
  2
Defpoints
 70
     0
 62
    -7
  6
Continuous
290
     0
370
    -3
390
F
347
36F6
348
0
  0
LAYER
  5
AC0
330
2
100
AcDbSymbolTableRecord
100
AcDbLayerTableRecord
  2
中心線
 70
     0
 62
     1
  6
CENTER2
370
    18
390
F
347
36F6
348
0
  0
LAYER
  5
AC7
330
2
100
AcDbSymbolTableRecord
100
AcDbLayerTableRecord
  2
隠れ線
 70
     0
 62
     3
  6
HIDDEN
370
    13
390
F
347
36F6
348
0
  0
LAYER
  5
1978
330
2
100
AcDbSymbolTableRecord
100
AcDbLayerTableRecord
  2
細線
 70
     0
 62
     7
  6
DASHED2
370
     5
390
F
347
36F6
348
0
  0
LAYER
  5
1979
330
2
100
AcDbSymbolTableRecord
100
AcDbLayerTableRecord
  2
文字
 70
     0
 62
     7
  6
Continuous
370
    25
390
F
347
36F6
348
0
  0
LAYER
  5
197A
330
2
100
AcDbSymbolTableRecord
100
AcDbLayerTableRecord
  2
GAIKEI
 70
     0
 62
     7
  6
Continuous
370
    -3
390
F
347
36F6
348
0
  0
LAYER
  5
24F0
330
2
100
AcDbSymbolTableRecord
100
AcDbLayerTableRecord
  2
CONTINUOUS
 70
     0
 62
     7
  6
Continuous
370
    40
390
F
347
36F6
348
0
  0
LAYER
  5
24F1
330
2
100
AcDbSymbolTableRecord
100
AcDbLayerTableRecord
  2
CENTER
 70
     0
 62
     1
  6
CENTER
370
    -3
390
F
347
36F6
348
0
  0
LAYER
  5
24F2
330
2
100
AcDbSymbolTableRecord
100
AcDbLayerTableRecord
  2
DOTTED
 70
     0
 62
     6
  6
HIDDEN
370
    -3
390
F
347
36F6
348
0
  0
LAYER
  5
2A6C
330
2
100
AcDbSymbolTableRecord
100
AcDbLayerTableRecord
  2
板金
 70
     0
 62
     1
  6
Continuous
370
    20
390
F
347
36F6
348
0
  0
LAYER
  5
370D
102
{ACAD_XDICTIONARY
360
370E
102
}
330
2
100
AcDbSymbolTableRecord
100
AcDbLayerTableRecord
  2
DIM
 70
     0
 62
     3
  6
Continuous
370
    -3
390
F
347
36F6
348
0
  0
ENDTAB
  0
TABLE
  2
STYLE
  5
3
330
0
100
AcDbSymbolTable
 70
     5
  0
STYLE
  5
11
330
3
100
AcDbSymbolTableRecord
100
AcDbTextStyleTableRecord
  2
Standard
 70
     0
 40
0.0
 41
1.0
 50
0.0
 71
     0
 42
2.5
  3
txt
  4

  0
STYLE
  5
6C
330
3
100
AcDbSymbolTableRecord
100
AcDbTextStyleTableRecord
  2
STD
 70
     0
 40
0.0
 41
1.0
 50
0.0
 71
     0
 42
0.0
  3
txt
  4

  0
STYLE
  5
6D
330
3
100
AcDbSymbolTableRecord
100
AcDbTextStyleTableRecord
  2
0615
 70
     0
 40
0.0
 41
1.0
 50
0.0
 71
     0
 42
2.5
  3
simplex.shx
  4
bigfont.shx
  0
STYLE
  5
ABE
330
3
100
AcDbSymbolTableRecord
100
AcDbTextStyleTableRecord
  2

 70
     1
 40
0.0
 41
1.0
 50
0.0
 71
     0
 42
2.5
  3
ltypeshp.shx
  4

  0
STYLE
  5
4A15
330
3
100
AcDbSymbolTableRecord
100
AcDbTextStyleTableRecord
  2
LINEEYE
 70
     0
 40
2.0
 41
0.8
 50
15.0
 71
     0
 42
2.0
  3
simplex.shx
  4
bigfont.shx
  0
ENDTAB
  0
TABLE
  2
VIEW
  5
6
330
0
100
AcDbSymbolTable
 70
     2
  0
ENDTAB
  0
TABLE
  2
UCS
  5
7
330
0
100
AcDbSymbolTable
 70
     0
  0
ENDTAB
  0
TABLE
  2
APPID
  5
9
330
0
100
AcDbSymbolTable
 70
     9
  0
APPID
  5
12
330
9
100
AcDbSymbolTableRecord
100
AcDbRegAppTableRecord
  2
ACAD
 70
     0
  0
APPID
  5
3717
330
9
100
AcDbSymbolTableRecord
100
AcDbRegAppTableRecord
  2
ACAD_NAV_VCDISPLAY
 70
     0
  0
APPID
  5
3718
330
9
100
AcDbSymbolTableRecord
100
AcDbRegAppTableRecord
  2
ACAD_DSTYLE_DIMRADIAL_EXTENSION
 70
     0
  0
APPID
  5
3BF2
330
9
100
AcDbSymbolTableRecord
100
AcDbRegAppTableRecord
  2
ACAD_PSEXT
 70
     0
  0
APPID
  5
3C11
330
9
100
AcDbSymbolTableRecord
100
AcDbRegAppTableRecord
  2
ACAD_DSTYLE_DIMJAG
 70
     0
  0
APPID
  5
3C12
330
9
100
AcDbSymbolTableRecord
100
AcDbRegAppTableRecord
  2
ACAD_DSTYLE_DIMTALN
 70
     0
  0
APPID
  5
3C1F
330
9
100
AcDbSymbolTableRecord
100
AcDbRegAppTableRecord
  2
ACAD_EXEMPT_FROM_CAD_STANDARDS
 70
     0
  0
APPID
  5
3E17
330
9
100
AcDbSymbolTableRecord
100
AcDbRegAppTableRecord
  2
ACAD_DSTYLE_DIMBREAK
 70
     0
  0
APPID
  5
4394
330
9
100
AcDbSymbolTableRecord
100
AcDbRegAppTableRecord
  2
AcadAnnoMonitorAlertIconDisabled
 70
     0
  0
ENDTAB
  0
TABLE
  2
DIMSTYLE
  5
A
330
0
100
AcDbSymbolTable
 70
     5
100
AcDbDimStyleTable
 71
     2
340
6F
340
6E
  0
DIMSTYLE
105
27
102
{ACAD_REACTORS
330
2774
330
2777
330
277A
330
278B
330
2796
330
279A
330
27AC
330
27AF
330
27B2
330
27CE
330
27DC
330
27DF
330
27E4
102
}
330
A
100
AcDbSymbolTableRecord
100
AcDbDimStyleTableRecord
  2
ISO-25
 70
     0
 41
2.5
 42
0.625
 43
3.75
 44
1.25
 73
     0
 74
     0
 77
     1
 78
     8
140
2.5
141
2.5
143
0.03937007874016
147
0.625
171
     3
172
     1
271
     2
272
     2
274
     3
283
     0
284
     8
340
11
  0
DIMSTYLE
105
6E
330
A
100
AcDbSymbolTableRecord
100
AcDbDimStyleTableRecord
  2
Standard
 70
     0
340
11
  0
DIMSTYLE
105
6F
102
{ACAD_REACTORS
330
4DD4
330
4DD7
330
4DDD
330
4DDE
330
4DDF
330
4DE6
330
4DF4
330
4DF8
330
4DFF
330
4E10
330
4E13
330
4E14
330
4E1A
330
4E2E
330
4E35
330
4E40
102
}
330
A
100
AcDbSymbolTableRecord
100
AcDbDimStyleTableRecord
  2
LINEEYE
 70
     0
 41
2.0
 42
1.0
 43
7.0
 44
1.0
 73
     0
 74
     0
 77
     1
 78
     8
140
2.5
141
0.0
143
0.0394
147
1.0
172
     1
176
   256
177
   256
178
   256
271
     1
272
     1
340
11
371
    -1
372
    -1
1001
ACAD_DSTYLE_DIMBREAK
1070
   391
1040
1.5
1001
ACAD_DSTYLE_DIMJAG
1070
   388
1040
1.5
1001
ACAD_DSTYLE_DIMTALN
1070
   392
1070
     0
  0
DIMSTYLE
105
2A6D
330
A
100
AcDbSymbolTableRecord
100
AcDbDimStyleTableRecord
  2
JIS
 70
     0
 41
2.5
 42
1.0
 43
7.0
 44
1.0
 73
     0
 74
     0
 77
     1
 78
     8
140
2.5
141
0.0
143
0.0394
147
0.0
172
     1
174
     1
175
     1
340
11
  0
DIMSTYLE
105
4A16
102
{ACAD_REACTORS
330
4E2D
330
4E38
102
}
330
A
100
AcDbSymbolTableRecord
100
AcDbDimStyleTableRecord
  2
LINEEYE(寸法線の傾きに合わせる)
 70
     0
 41
2.5
 42
0.625
 43
3.75
 44
1.25
 73
     0
 74
     0
 77
     1
 78
     8
140
2.0
141
0.0
143
0.0394
147
1.0
172
     1
176
   256
177
   256
178
   256
271
     2
272
     2
340
6D
345
15
346
15
347
15
371
    -1
372
    -1
1001
ACAD_DSTYLE_DIMBREAK
1070
   391
1040
3.75
1001
ACAD_DSTYLE_DIMJAG
1070
   388
1040
1.5
1001
ACAD_DSTYLE_DIMTALN
1070
   392
1070
     0
  0
ENDTAB
  0
TABLE
  2
BLOCK_RECORD
  5
1
330
0
100
AcDbSymbolTable
 70
   119
  0
BLOCK_RECORD
  5
1F
102
{ACAD_XDICTIONARY
360
F87
102
}
330
1
100
AcDbSymbolTableRecord
100
AcDbBlockTableRecord
  2
*Model_Space
340
22
 70
     0
280
     1
281
     0
  0
BLOCK_RECORD
  5
1B
102
{ACAD_XDICTIONARY
360
3C0A
102
}
330
1
100
AcDbSymbolTableRecord
100
AcDbBlockTableRecord
  2
*Paper_Space
340
1E
 70
     0
280
     1
281
     0
  0
BLOCK_RECORD
  5
2B
330
1
100
AcDbSymbolTableRecord
100
AcDbBlockTableRecord
  2
AI9-BLK1
340
0
 70
     0
280
     1
281
     0
  0
BLOCK_RECORD
  5
2F
330
1
100
AcDbSymbolTableRecord
100
AcDbBlockTableRecord
  2
AI9-BLK2
340
0
 70
     0
280
     1
281
     0
  0
BLOCK_RECORD
  5
34
330
1
100
AcDbSymbolTableRecord
100
AcDbBlockTableRecord
  2
AI9-BLK3
340
0
102
{BLKREFS
331
30
102
}
 70
     0
280
     1
281
     0
  0
BLOCK_RECORD
  5
3E
330
1
100
AcDbSymbolTableRecord
100
AcDbBlockTableRecord
  2
AI9-BLK4
340
0
102
{BLKREFS
331
3A
102
}
 70
     0
280
     1
281
     0
  0
BLOCK_RECORD
  5
42
330
1
100
AcDbSymbolTableRecord
100
AcDbBlockTableRecord
  2
AI9-BLK5
340
0
 70
     0
280
     1
281
     0
  0
BLOCK_RECORD
  5
26CF
330
1
100
AcDbSymbolTableRecord
100
AcDbBlockTableRecord
  2
*D5
340
0
 70
     0
280
     1
281
     0
  0
BLOCK_RECORD
  5
26DB
330
1
100
AcDbSymbolTableRecord
100
AcDbBlockTableRecord
  2
*D6
340
0
 70
     0
280
     1
281
     0
  0
BLOCK_RECORD
  5
26E7
330
1
100
AcDbSymbolTableRecord
100
AcDbBlockTableRecord
  2
*D7
340
0
 70
     0
280
     1
281
     0
  0
BLOCK_RECORD
  5
26F3
330
1
100
AcDbSymbolTableRecord
100
AcDbBlockTableRecord
  2
*D8
340
0
 70
     0
280
     1
281
     0
  0
BLOCK_RECORD
  5
26FF
330
1
100
AcDbSymbolTableRecord
100
AcDbBlockTableRecord
  2
*D9
340
0
 70
     0
280
     1
281
     0
  0
BLOCK_RECORD
  5
270D
330
1
100
AcDbSymbolTableRecord
100
AcDbBlockTableRecord
  2
*D10
340
0
 70
     0
280
     1
281
     0
  0
BLOCK_RECORD
  5
2719
330
1
100
AcDbSymbolTableRecord
100
AcDbBlockTableRecord
  2
*D11
340
0
 70
     0
280
     1
281
     0
  0
BLOCK_RECORD
  5
2725
330
1
100
AcDbSymbolTableRecord
100
AcDbBlockTableRecord
  2
*D12
340
0
 70
     0
280
     1
281
     0
  0
BLOCK_RECORD
  5
2733
330
1
100
AcDbSymbolTableRecord
100
AcDbBlockTableRecord
  2
*D13
340
0
 70
     0
280
     1
281
     0
  0
BLOCK_RECORD
  5
273F
330
1
100
AcDbSymbolTableRecord
100
AcDbBlockTableRecord
  2
*D14
340
0
 70
     0
280
     1
281
     0
  0
BLOCK_RECORD
  5
274B
330
1
100
AcDbSymbolTableRecord
100
AcDbBlockTableRecord
  2
*D15
340
0
 70
     0
280
     1
281
     0
  0
BLOCK_RECORD
  5
2759
330
1
100
AcDbSymbolTableRecord
100
AcDbBlockTableRecord
  2
*D16
340
0
 70
     0
280
     1
281
     0
  0
BLOCK_RECORD
  5
2764
330
1
100
AcDbSymbolTableRecord
100
AcDbBlockTableRecord
  2
*D17
340
0
 70
     0
280
     1
281
     0
  0
BLOCK_RECORD
  5
2772
330
1
100
AcDbSymbolTableRecord
100
AcDbBlockTableRecord
  2
A$C27BD67DC
340
0
 70
     0
280
     1
281
     0
  0
BLOCK_RECORD
  5
4E5D
330
1
100
AcDbSymbolTableRecord
100
AcDbBlockTableRecord
  2
*D101
340
0
 70
     0
280
     1
281
     0
  0
BLOCK_RECORD
  5
4E69
330
1
100
AcDbSymbolTableRecord
100
AcDbBlockTableRecord
  2
*D102
340
0
 70
     0
280
     1
281
     0
  0
BLOCK_RECORD
  5
4E75
330
1
100
AcDbSymbolTableRecord
100
AcDbBlockTableRecord
  2
*D103
340
0
 70
     0
280
     1
281
     0
  0
BLOCK_RECORD
  5
4E80
330
1
100
AcDbSymbolTableRecord
100
AcDbBlockTableRecord
  2
*D104
340
0
 70
     0
280
     1
281
     0
  0
BLOCK_RECORD
  5
4E8C
330
1
100
AcDbSymbolTableRecord
100
AcDbBlockTableRecord
  2
*D105
340
0
 70
     0
280
     1
281
     0
  0
BLOCK_RECORD
  5
4E97
330
1
100
AcDbSymbolTableRecord
100
AcDbBlockTableRecord
  2
*D106
340
0
 70
     0
280
     1
281
     0
  0
BLOCK_RECORD
  5
4EA5
330
1
100
AcDbSymbolTableRecord
100
AcDbBlockTableRecord
  2
*D107
340
0
 70
     0
280
     1
281
     0
  0
BLOCK_RECORD
  5
4EB1
330
1
100
AcDbSymbolTableRecord
100
AcDbBlockTableRecord
  2
*D108
340
0
 70
     0
280
     1
281
     0
  0
BLOCK_RECORD
  5
4ECF
330
1
100
AcDbSymbolTableRecord
100
AcDbBlockTableRecord
  2
*D109
340
0
 70
     0
280
     1
281
     0
  0
BLOCK_RECORD
  5
4EE3
330
1
100
AcDbSymbolTableRecord
100
AcDbBlockTableRecord
  2
*D110
340
0
 70
     0
280
     1
281
     0
  0
BLOCK_RECORD
  5
4EEF
330
1
100
AcDbSymbolTableRecord
100
AcDbBlockTableRecord
  2
*D111
340
0
 70
     0
280
     1
281
     0
  0
BLOCK_RECORD
  5
4F06
330
1
100
AcDbSymbolTableRecord
100
AcDbBlockTableRecord
  2
*D112
340
0
 70
     0
280
     1
281
     0
  0
BLOCK_RECORD
  5
4F19
330
1
100
AcDbSymbolTableRecord
100
AcDbBlockTableRecord
  2
*D113
340
0
 70
     0
280
     1
281
     0
  0
BLOCK_RECORD
  5
4F25
330
1
100
AcDbSymbolTableRecord
100
AcDbBlockTableRecord
  2
*D114
340
0
 70
     0
280
     1
281
     0
  0
BLOCK_RECORD
  5
4F3B
330
1
100
AcDbSymbolTableRecord
100
AcDbBlockTableRecord
  2
*D115
340
0
 70
     0
280
     1
281
     0
  0
BLOCK_RECORD
  5
4F47
330
1
100
AcDbSymbolTableRecord
100
AcDbBlockTableRecord
  2
*D116
340
0
 70
     0
280
     1
281
     0
  0
BLOCK_RECORD
  5
4F53
330
1
100
AcDbSymbolTableRecord
100
AcDbBlockTableRecord
  2
*D117
340
0
 70
     0
280
     1
281
     0
  0
BLOCK_RECORD
  5
4F61
330
1
100
AcDbSymbolTableRecord
100
AcDbBlockTableRecord
  2
*D118
340
0
 70
     0
280
     1
281
     0
  0
ENDTAB
  0
ENDSEC
  0
SECTION
  2
BLOCKS
  0
BLOCK
  5
20
330
1F
100
AcDbEntity
  8
0
100
AcDbBlockBegin
  2
*Model_Space
 70
     0
 10
0.0
 20
0.0
 30
0.0
  3
*Model_Space
  1
*Model_Space
  0
ENDBLK
  5
21
330
1F
100
AcDbEntity
  8
0
100
AcDbBlockEnd
  0
BLOCK
  5
1C
330
1B
100
AcDbEntity
 67
     1
  8
0
100
AcDbBlockBegin
  2
*Paper_Space
 70
     0
 10
0.0
 20
0.0
 30
0.0
  3
*Paper_Space
  1
*Paper_Space
  0
ENDBLK
  5
1D
330
1B
100
AcDbEntity
 67
     1
  8
0
100
AcDbBlockEnd
  0
BLOCK
  5
2D
330
2B
100
AcDbEntity
  8
外形１
 62
     7
100
AcDbBlockBegin
  2
AI9-BLK1
 70
     0
 10
0.0
 20
0.0
 30
0.0
  3
AI9-BLK1
  1
AI9-BLK1
  0
HATCH
  5
2C
330
2B
100
AcDbEntity
  8
外形１
 62
     7
100
AcDbHatch
 10
0.0
 20
0.0
 30
0.0
210
0.0
220
0.0
230
1.0
  2
SOLID
 70
     1
 71
     0
 91
        1
 92
        1
 93
        1
 72
     4
 94
        3
 73
     0
 74
     0
 95
       17
 96
       13
 40
0.0
 40
0.0
 40
0.0
 40
0.0
 40
1.0
 40
1.0
 40
1.0
 40
2.0
 40
2.0
 40
2.0
 40
3.0
 40
3.0
 40
3.0
 40
4.0
 40
4.0
 40
4.0
 40
4.0
 10
-0.4265028211805557
 20
-0.2425347222222222
 10
-0.4265028211805557
 20
-0.2425347222222222
 10
-0.4265028211805557
 20
0.2425347222222222
 10
-0.4265028211805557
 20
0.2425347222222222
 10
-0.4265028211805557
 20
0.2425347222222222
 10
0.4265028211805557
 20
0.2425347222222222
 10
0.4265028211805557
 20
0.2425347222222222
 10
0.4265028211805557
 20
0.2425347222222222
 10
0.4265028211805557
 20
-0.2425347222222222
 10
0.4265028211805557
 20
-0.2425347222222222
 10
0.4265028211805557
 20
-0.2425347222222222
 10
-0.4265028211805557
 20
-0.2425347222222222
 10
-0.4265028211805557
 20
-0.2425347222222222
 97
        0
 97
        0
 75
     0
 76
     1
 98
        1
 10
0.0
 20
0.0
450
        0
451
        0
460
0.0
461
0.0
452
        0
462
0.0
453
        0
470

  0
ENDBLK
  5
2E
330
2B
100
AcDbEntity
  8
外形１
100
AcDbBlockEnd
  0
BLOCK
  5
32
330
2F
100
AcDbEntity
  8
外形１
 62
     7
100
AcDbBlockBegin
  2
AI9-BLK2
 70
     0
 10
0.0
 20
0.0
 30
0.0
  3
AI9-BLK2
  1
AI9-BLK2
  0
INSERT
  5
30
330
2F
100
AcDbEntity
  8
外形１
 62
     7
100
AcDbBlockReference
  2
AI9-BLK3
 10
0.0
 20
0.0
 30
0.0
  0
HATCH
  5
31
330
2F
100
AcDbEntity
  8
外形１
 62
     7
100
AcDbHatch
 10
0.0
 20
0.0
 30
0.0
210
0.0
220
0.0
230
1.0
  2
SOLID
 70
     1
 71
     0
 91
        1
 92
        1
 93
        1
 72
     4
 94
        3
 73
     0
 74
     0
 95
       32
 96
       28
 40
0.0
 40
0.0
 40
0.0
 40
0.0
 40
1.0
 40
1.0
 40
1.0
 40
2.0
 40
2.0
 40
2.0
 40
3.0
 40
3.0
 40
3.0
 40
4.0
 40
4.0
 40
4.0
 40
5.0
 40
5.0
 40
5.0
 40
6.0
 40
6.0
 40
6.0
 40
7.0
 40
7.0
 40
7.0
 40
8.0
 40
8.0
 40
8.0
 40
9.0
 40
9.0
 40
9.0
 40
9.0
 10
5.68897230360243
 20
2.320444064670137
 10
5.684838189019097
 20
2.327678765190971
 10
5.677258978949653
 20
2.331468370225693
 10
5.669679768880207
 20
2.331468370225693
 10
5.669679768880207
 20
2.331468370225693
 10
4.733302815755208
 20
2.331468370225693
 10
4.733302815755208
 20
2.331468370225693
 10
4.72503458658854
 20
2.331468370225693
 10
4.717455376519096
 20
2.327678765190971
 10
4.713321261935762
 20
2.320444064670137
 10
4.708498128255206
 20
2.313553873697915
 10
4.708498128255206
 20
2.305285644531249
 10
4.711943223741318
 20
2.297361924913194
 10
4.806338840060762
 20
2.086866590711804
 10
5.058519829644096
 20
1.55838894314236
 10
5.177031114366318
 20
1.323433430989582
 10
5.180476209852429
 20
1.315165201822916
 10
5.189433458116318
 20
1.309653049045137
 10
5.197701687282985
 20
1.309653049045137
 10
5.206658935546873
 20
1.309653049045137
 10
5.21492716471354
 20
1.315165201822916
 10
5.219061279296873
 20
1.323433430989582
 10
5.337572564019096
 20
1.55563286675347
 10
5.59319864908854
 20
2.084110514322916
 10
5.690350341796873
 20
2.297706434461805
 10
5.693795437282985
 20
2.305630154079859
 10
5.693106418185761
 20
2.313553873697915
 10
5.68897230360243
 20
2.320444064670137
 97
        0
 97
        0
 75
     0
 76
     1
 98
        1
 10
0.0
 20
0.0
450
        0
451
        0
460
0.0
461
0.0
452
        0
462
0.0
453
        0
470

  0
ENDBLK
  5
33
330
2F
100
AcDbEntity
  8
外形１
100
AcDbBlockEnd
  0
BLOCK
  5
3C
330
34
100
AcDbEntity
  8
外形１
 62
     7
100
AcDbBlockBegin
  2
AI9-BLK3
 70
     0
 10
0.0
 20
0.0
 30
0.0
  3
AI9-BLK3
  1
AI9-BLK3
  0
HATCH
  5
35
330
34
100
AcDbEntity
  8
外形１
 62
     7
100
AcDbHatch
 10
0.0
 20
0.0
 30
0.0
210
0.0
220
0.0
230
1.0
  2
SOLID
 70
     1
 71
     0
 91
        1
 92
        1
 93
        1
 72
     4
 94
        3
 73
     0
 74
     0
 95
       47
 96
       43
 40
0.0
 40
0.0
 40
0.0
 40
0.0
 40
1.0
 40
1.0
 40
1.0
 40
2.0
 40
2.0
 40
2.0
 40
3.0
 40
3.0
 40
3.0
 40
4.0
 40
4.0
 40
4.0
 40
5.0
 40
5.0
 40
5.0
 40
6.0
 40
6.0
 40
6.0
 40
7.0
 40
7.0
 40
7.0
 40
8.0
 40
8.0
 40
8.0
 40
9.0
 40
9.0
 40
9.0
 40
10.0
 40
10.0
 40
10.0
 40
11.0
 40
11.0
 40
11.0
 40
12.0
 40
12.0
 40
12.0
 40
13.0
 40
13.0
 40
13.0
 40
14.0
 40
14.0
 40
14.0
 40
14.0
 10
-6.96675821940104
 20
-1.544264051649304
 10
-6.96675821940104
 20
-1.544264051649304
 10
-7.655432807074652
 20
-1.544264051649304
 10
-7.655432807074652
 20
-1.544264051649304
 10
-7.877985975477429
 20
-1.544264051649304
 10
-8.029225667317707
 20
-1.504989963107638
 10
-8.143602837456597
 20
-1.305174424913194
 10
-8.226974148220485
 20
-1.162547471788194
 10
-8.232830810546875
 20
-0.9413723415798608
 10
-8.232830810546875
 20
-0.5941067165798609
 10
-8.232830810546875
 20
-0.5941067165798609
 10
-8.232830810546875
 20
1.80643581814236
 10
-8.232830810546875
 20
1.80643581814236
 10
-8.232830810546875
 20
1.838130696614583
 10
-8.258324517144096
 20
1.863624403211805
 10
-8.289674886067709
 20
1.863624403211805
 10
-8.289674886067709
 20
1.863624403211805
 10
-8.873618570963538
 20
1.863624403211805
 10
-8.873618570963538
 20
1.863624403211805
 10
-8.905313449435762
 20
1.863624403211805
 10
-8.930807156032983
 20
1.838130696614583
 10
-8.930807156032983
 20
1.80643581814236
 10
-8.930807156032983
 20
1.80643581814236
 10
-8.930807156032983
 20
-0.6223564995659722
 10
-8.930807156032983
 20
-0.6223564995659722
 10
-8.930807156032983
 20
-1.177705891927083
 10
-8.889466010199649
 20
-1.542196994357638
 10
-8.670357937282984
 20
-1.882572428385415
 10
-8.401295979817707
 20
-2.30218505859375
 10
-8.100539143880208
 20
-2.334568956163193
 10
-7.705731201171873
 20
-2.334568956163193
 10
-7.705731201171873
 20
-2.334568956163193
 10
-6.96675821940104
 20
-2.334568956163193
 10
-6.96675821940104
 20
-2.334568956163193
 10
-6.935407850477429
 20
-2.334568956163193
 10
-6.909914143880207
 20
-2.30907524956597
 10
-6.909914143880207
 20
-2.27806939019097
 10
-6.909914143880207
 20
-2.27806939019097
 10
-6.909914143880207
 20
-1.601108127170137
 10
-6.909914143880207
 20
-1.601108127170137
 10
-6.909914143880207
 20
-1.569757758246526
 10
-6.935407850477429
 20
-1.544264051649304
 10
-6.96675821940104
 20
-1.544264051649304
 97
        0
 97
        0
 75
     0
 76
     1
 98
        1
 10
0.0
 20
0.0
450
        0
451
        0
460
0.0
461
0.0
452
        0
462
0.0
453
        0
470

  0
HATCH
  5
36
330
34
100
AcDbEntity
  8
外形１
 62
     7
100
AcDbHatch
 10
0.0
 20
0.0
 30
0.0
210
0.0
220
0.0
230
1.0
  2
SOLID
 70
     1
 71
     0
 91
        1
 92
        1
 93
        1
 72
     4
 94
        3
 73
     0
 74
     0
 95
       29
 96
       25
 40
0.0
 40
0.0
 40
0.0
 40
0.0
 40
1.0
 40
1.0
 40
1.0
 40
2.0
 40
2.0
 40
2.0
 40
3.0
 40
3.0
 40
3.0
 40
4.0
 40
4.0
 40
4.0
 40
5.0
 40
5.0
 40
5.0
 40
6.0
 40
6.0
 40
6.0
 40
7.0
 40
7.0
 40
7.0
 40
8.0
 40
8.0
 40
8.0
 40
8.0
 10
-5.704130723741317
 20
1.863624403211805
 10
-5.704130723741317
 20
1.863624403211805
 10
-6.315979682074653
 20
1.863624403211805
 10
-6.315979682074653
 20
1.863624403211805
 10
-6.346985541449653
 20
1.863624403211805
 10
-6.372479248046873
 20
1.838130696614583
 10
-6.372479248046873
 20
1.80643581814236
 10
-6.372479248046873
 20
1.80643581814236
 10
-6.372479248046873
 20
-2.27806939019097
 10
-6.372479248046873
 20
-2.27806939019097
 10
-6.372479248046873
 20
-2.30907524956597
 10
-6.346985541449653
 20
-2.334568956163193
 10
-6.315979682074653
 20
-2.334568956163193
 10
-6.315979682074653
 20
-2.334568956163193
 10
-5.704130723741317
 20
-2.334568956163193
 10
-5.704130723741317
 20
-2.334568956163193
 10
-5.672780354817707
 20
-2.334568956163193
 10
-5.647631157769096
 20
-2.30907524956597
 10
-5.647631157769096
 20
-2.27806939019097
 10
-5.647631157769096
 20
-2.27806939019097
 10
-5.647631157769096
 20
1.80643581814236
 10
-5.647631157769096
 20
1.80643581814236
 10
-5.647631157769096
 20
1.838130696614583
 10
-5.672780354817707
 20
1.863624403211805
 10
-5.704130723741317
 20
1.863624403211805
 97
        0
 97
        0
 75
     0
 76
     1
 98
        1
 10
0.0
 20
0.0
450
        0
451
        0
460
0.0
461
0.0
452
        0
462
0.0
453
        0
470

  0
HATCH
  5
37
330
34
100
AcDbEntity
  8
外形１
 62
     7
100
AcDbHatch
 10
0.0
 20
0.0
 30
0.0
210
0.0
220
0.0
230
1.0
  2
SOLID
 70
     1
 71
     0
 91
        1
 92
        1
 93
        1
 72
     4
 94
        3
 73
     0
 74
     0
 95
       65
 96
       61
 40
0.0
 40
0.0
 40
0.0
 40
0.0
 40
1.0
 40
1.0
 40
1.0
 40
2.0
 40
2.0
 40
2.0
 40
3.0
 40
3.0
 40
3.0
 40
4.0
 40
4.0
 40
4.0
 40
5.0
 40
5.0
 40
5.0
 40
6.0
 40
6.0
 40
6.0
 40
7.0
 40
7.0
 40
7.0
 40
8.0
 40
8.0
 40
8.0
 40
9.0
 40
9.0
 40
9.0
 40
10.0
 40
10.0
 40
10.0
 40
11.0
 40
11.0
 40
11.0
 40
12.0
 40
12.0
 40
12.0
 40
13.0
 40
13.0
 40
13.0
 40
14.0
 40
14.0
 40
14.0
 40
15.0
 40
15.0
 40
15.0
 40
16.0
 40
16.0
 40
16.0
 40
17.0
 40
17.0
 40
17.0
 40
18.0
 40
18.0
 40
18.0
 40
19.0
 40
19.0
 40
19.0
 40
20.0
 40
20.0
 40
20.0
 40
20.0
 10
-2.609056939019095
 20
1.863624403211805
 10
-2.609056939019095
 20
1.863624403211805
 10
-3.205058458116318
 20
1.863624403211805
 10
-3.205058458116318
 20
1.863624403211805
 10
-3.220216878255206
 20
1.863624403211805
 10
-3.234686279296874
 20
1.858112250434026
 10
-3.245366075303818
 20
1.84674343532986
 10
-3.256045871310763
 20
1.836063639322915
 10
-3.261558024088541
 20
1.821594238281249
 10
-3.261558024088541
 20
1.80643581814236
 10
-3.261558024088541
 20
1.80643581814236
 10
-3.242265489366318
 20
-0.3181545681423611
 10
-3.237786865234373
 20
-0.81700439453125
 10
-3.420721435546874
 20
-0.3443372938368055
 10
-4.262013753255208
 20
1.827106391059026
 10
-4.262013753255208
 20
1.827106391059026
 10
-4.270281982421873
 20
1.849155002170137
 10
-4.291986083984374
 20
1.863624403211805
 10
-4.315068223741318
 20
1.863624403211805
 10
-4.315068223741318
 20
1.863624403211805
 10
-5.054385715060762
 20
1.863624403211805
 10
-5.054385715060762
 20
1.863624403211805
 10
-5.085391574435762
 20
1.863624403211805
 10
-5.110885281032985
 20
1.838130696614583
 10
-5.110885281032985
 20
1.80643581814236
 10
-5.110885281032985
 20
1.80643581814236
 10
-5.110885281032985
 20
-2.27806939019097
 10
-5.110885281032985
 20
-2.27806939019097
 10
-5.110885281032985
 20
-2.30907524956597
 10
-5.085391574435762
 20
-2.334568956163193
 10
-5.054385715060762
 20
-2.334568956163193
 10
-5.054385715060762
 20
-2.334568956163193
 10
-4.454250081380208
 20
-2.334568956163193
 10
-4.454250081380208
 20
-2.334568956163193
 10
-4.439091661241318
 20
-2.334568956163193
 10
-4.424622260199652
 20
-2.328367784288194
 10
-4.414286973741318
 20
-2.318032497829859
 10
-4.403262668185762
 20
-2.307697211371526
 10
-4.397750515407985
 20
-2.29322781032986
 10
-4.397750515407985
 20
-2.27806939019097
 10
-4.397750515407985
 20
-2.27806939019097
 10
-4.41738755967882
 20
-0.0049953884548611
 10
-4.421866183810762
 20
0.4993665907118057
 10
-4.236520046657984
 20
0.0211873372395833
 10
-3.339072672526041
 20
-2.298739963107637
 10
-3.339072672526041
 20
-2.298739963107637
 10
-3.330459933810764
 20
-2.320788574218749
 10
-3.309444851345484
 20
-2.334568956163193
 10
-3.28636271158854
 20
-2.334568956163193
 10
-3.28636271158854
 20
-2.334568956163193
 10
-2.609056939019095
 20
-2.334568956163193
 10
-2.609056939019095
 20
-2.334568956163193
 10
-2.578051079644095
 20
-2.334568956163193
 10
-2.552557373046874
 20
-2.30907524956597
 10
-2.552557373046874
 20
-2.27806939019097
 10
-2.552557373046874
 20
-2.27806939019097
 10
-2.552557373046874
 20
1.80643581814236
 10
-2.552557373046874
 20
1.80643581814236
 10
-2.552557373046874
 20
1.838130696614583
 10
-2.578051079644095
 20
1.863624403211805
 10
-2.609056939019095
 20
1.863624403211805
 97
        0
 97
        0
 75
     0
 76
     1
 98
        1
 10
0.0
 20
0.0
450
        0
451
        0
460
0.0
461
0.0
452
        0
462
0.0
453
        0
470

  0
HATCH
  5
38
330
34
100
AcDbEntity
  8
外形１
 62
     7
100
AcDbHatch
 10
0.0
 20
0.0
 30
0.0
210
0.0
220
0.0
230
1.0
  2
SOLID
 70
     1
 71
     0
 91
        1
 92
        1
 93
        1
 72
     4
 94
        3
 73
     0
 74
     0
 95
       65
 96
       61
 40
0.0
 40
0.0
 40
0.0
 40
0.0
 40
1.0
 40
1.0
 40
1.0
 40
2.0
 40
2.0
 40
2.0
 40
3.0
 40
3.0
 40
3.0
 40
4.0
 40
4.0
 40
4.0
 40
5.0
 40
5.0
 40
5.0
 40
6.0
 40
6.0
 40
6.0
 40
7.0
 40
7.0
 40
7.0
 40
8.0
 40
8.0
 40
8.0
 40
9.0
 40
9.0
 40
9.0
 40
10.0
 40
10.0
 40
10.0
 40
11.0
 40
11.0
 40
11.0
 40
12.0
 40
12.0
 40
12.0
 40
13.0
 40
13.0
 40
13.0
 40
14.0
 40
14.0
 40
14.0
 40
15.0
 40
15.0
 40
15.0
 40
16.0
 40
16.0
 40
16.0
 40
17.0
 40
17.0
 40
17.0
 40
18.0
 40
18.0
 40
18.0
 40
19.0
 40
19.0
 40
19.0
 40
20.0
 40
20.0
 40
20.0
 40
20.0
 10
0.1876715766059028
 20
1.863624403211805
 10
0.1876715766059028
 20
1.863624403211805
 10
-0.7831563313802084
 20
1.863624403211805
 10
-0.7831563313802084
 20
1.863624403211805
 10
-1.714021131727429
 20
1.863624403211805
 10
-2.147758653428819
 20
1.173227267795137
 10
-2.147758653428819
 20
-0.3088528103298611
 10
-2.147758653428819
 20
-1.07159695095486
 10
-2.004098171657985
 20
-1.609720865885416
 10
-1.708853488498263
 20
-1.956297471788194
 10
-1.410852728949651
 20
-2.306319173177083
 10
-1.120775689019096
 20
-2.334568956163193
 10
-0.7986592610677084
 20
-2.334568956163193
 10
-0.7986592610677084
 20
-2.334568956163193
 10
0.1876715766059028
 20
-2.334568956163193
 10
0.1876715766059028
 20
-2.334568956163193
 10
0.2186774359809028
 20
-2.334568956163193
 10
0.2448601616753472
 20
-2.30907524956597
 10
0.2448601616753472
 20
-2.27806939019097
 10
0.2448601616753472
 20
-2.27806939019097
 10
0.2448601616753472
 20
-1.567001681857638
 10
0.2448601616753472
 20
-1.567001681857638
 10
0.2448601616753472
 20
-1.535306803385416
 10
0.2186774359809028
 20
-1.509813096788194
 10
0.1876715766059028
 20
-1.509813096788194
 10
0.1876715766059028
 20
-1.509813096788194
 10
-0.7721320258246527
 20
-1.509813096788194
 10
-0.7721320258246527
 20
-1.509813096788194
 10
-1.132489013671873
 20
-1.509813096788194
 10
-1.357798258463541
 20
-1.355472819010415
 10
-1.373645697699652
 20
-0.6223564995659722
 10
-1.263402642144096
 20
-0.6223564995659722
 10
0.1876715766059028
 20
-0.6223564995659722
 10
0.1876715766059028
 20
-0.6223564995659722
 10
0.2186774359809028
 20
-0.6223564995659722
 10
0.2448601616753472
 20
-0.59686279296875
 10
0.2448601616753472
 20
-0.5655124240451388
 10
0.2448601616753472
 20
-0.5655124240451388
 10
0.2448601616753472
 20
0.1452107747395833
 10
0.2448601616753472
 20
0.1452107747395833
 10
0.2448601616753472
 20
0.1769056532118055
 10
0.2186774359809028
 20
0.2023993598090278
 10
0.1876715766059028
 20
0.2023993598090278
 10
0.1876715766059028
 20
0.2023993598090278
 10
-1.252378336588541
 20
0.2023993598090278
 10
-1.367444525824651
 20
0.2023993598090278
 10
-1.323347303602429
 20
0.9455064561631944
 10
-1.009154595269097
 20
1.038868543836805
 10
-0.7721320258246527
 20
1.038868543836805
 10
-0.7721320258246527
 20
1.038868543836805
 10
0.1876715766059028
 20
1.038868543836805
 10
0.1876715766059028
 20
1.038868543836805
 10
0.2186774359809028
 20
1.038868543836805
 10
0.2448601616753472
 20
1.064362250434027
 10
0.2448601616753472
 20
1.096057128906249
 10
0.2448601616753472
 20
1.096057128906249
 10
0.2448601616753472
 20
1.80643581814236
 10
0.2448601616753472
 20
1.80643581814236
 10
0.2448601616753472
 20
1.838130696614583
 10
0.2186774359809028
 20
1.863624403211805
 10
0.1876715766059028
 20
1.863624403211805
 97
        0
 97
        0
 75
     0
 76
     1
 98
        1
 10
0.0
 20
0.0
450
        0
451
        0
460
0.0
461
0.0
452
        0
462
0.0
453
        0
470

  0
HATCH
  5
39
330
34
100
AcDbEntity
  8
外形１
 62
     7
100
AcDbHatch
 10
0.0
 20
0.0
 30
0.0
210
0.0
220
0.0
230
1.0
  2
SOLID
 70
     1
 71
     0
 91
        1
 92
        1
 93
        1
 72
     4
 94
        3
 73
     0
 74
     0
 95
       65
 96
       61
 40
0.0
 40
0.0
 40
0.0
 40
0.0
 40
1.0
 40
1.0
 40
1.0
 40
2.0
 40
2.0
 40
2.0
 40
3.0
 40
3.0
 40
3.0
 40
4.0
 40
4.0
 40
4.0
 40
5.0
 40
5.0
 40
5.0
 40
6.0
 40
6.0
 40
6.0
 40
7.0
 40
7.0
 40
7.0
 40
8.0
 40
8.0
 40
8.0
 40
9.0
 40
9.0
 40
9.0
 40
10.0
 40
10.0
 40
10.0
 40
11.0
 40
11.0
 40
11.0
 40
12.0
 40
12.0
 40
12.0
 40
13.0
 40
13.0
 40
13.0
 40
14.0
 40
14.0
 40
14.0
 40
15.0
 40
15.0
 40
15.0
 40
16.0
 40
16.0
 40
16.0
 40
17.0
 40
17.0
 40
17.0
 40
18.0
 40
18.0
 40
18.0
 40
19.0
 40
19.0
 40
19.0
 40
20.0
 40
20.0
 40
20.0
 40
20.0
 10
3.387820773654513
 20
1.863624403211805
 10
3.387820773654513
 20
1.863624403211805
 10
2.417337375217012
 20
1.863624403211805
 10
2.417337375217012
 20
1.863624403211805
 10
1.486128065321179
 20
1.863624403211805
 10
1.05239054361979
 20
1.173227267795137
 10
1.05239054361979
 20
-0.3088528103298611
 10
1.05239054361979
 20
-1.07159695095486
 10
1.195706515842012
 20
-1.609720865885416
 10
1.491640218098958
 20
-1.956297471788194
 10
1.788951958550346
 20
-2.306319173177083
 10
2.079373508029513
 20
-2.334568956163193
 10
2.401489935980901
 20
-2.334568956163193
 10
2.401489935980901
 20
-2.334568956163193
 10
3.387820773654513
 20
-2.334568956163193
 10
3.387820773654513
 20
-2.334568956163193
 10
3.419171142578123
 20
-2.334568956163193
 10
3.444320339626735
 20
-2.30907524956597
 10
3.444320339626735
 20
-2.27806939019097
 10
3.444320339626735
 20
-2.27806939019097
 10
3.444320339626735
 20
-1.567001681857638
 10
3.444320339626735
 20
-1.567001681857638
 10
3.444320339626735
 20
-1.535306803385416
 10
3.419171142578123
 20
-1.509813096788194
 10
3.387820773654513
 20
-1.509813096788194
 10
3.387820773654513
 20
-1.509813096788194
 10
2.428361680772568
 20
-1.509813096788194
 10
2.428361680772568
 20
-1.509813096788194
 10
2.068004692925346
 20
-1.509813096788194
 10
1.84269544813368
 20
-1.355472819010415
 10
1.826848008897569
 20
-0.6223564995659722
 10
1.936402045355901
 20
-0.6223564995659722
 10
3.387820773654513
 20
-0.6223564995659722
 10
3.387820773654513
 20
-0.6223564995659722
 10
3.419171142578123
 20
-0.6223564995659722
 10
3.444320339626735
 20
-0.59686279296875
 10
3.444320339626735
 20
-0.5655124240451388
 10
3.444320339626735
 20
-0.5655124240451388
 10
3.444320339626735
 20
0.1452107747395833
 10
3.444320339626735
 20
0.1452107747395833
 10
3.444320339626735
 20
0.1769056532118055
 10
3.419171142578123
 20
0.2023993598090278
 10
3.387820773654513
 20
0.2023993598090278
 10
3.387820773654513
 20
0.2023993598090278
 10
1.947081841362845
 20
0.2023993598090278
 10
1.833049180772569
 20
0.2023993598090278
 10
1.877146402994791
 20
0.9455064561631944
 10
2.191339111328124
 20
1.038868543836805
 10
2.428361680772568
 20
1.038868543836805
 10
2.428361680772568
 20
1.038868543836805
 10
3.387820773654513
 20
1.038868543836805
 10
3.387820773654513
 20
1.038868543836805
 10
3.419171142578123
 20
1.038868543836805
 10
3.444320339626735
 20
1.064362250434027
 10
3.444320339626735
 20
1.096057128906249
 10
3.444320339626735
 20
1.096057128906249
 10
3.444320339626735
 20
1.80643581814236
 10
3.444320339626735
 20
1.80643581814236
 10
3.444320339626735
 20
1.838130696614583
 10
3.419171142578123
 20
1.863624403211805
 10
3.387820773654513
 20
1.863624403211805
 97
        0
 97
        0
 75
     0
 76
     1
 98
        1
 10
0.0
 20
0.0
450
        0
451
        0
460
0.0
461
0.0
452
        0
462
0.0
453
        0
470

  0
INSERT
  5
3A
330
34
100
AcDbEntity
  8
外形１
 62
     7
100
AcDbBlockReference
  2
AI9-BLK4
 10
5.210707
 20
0.0
 30
0.0
  0
HATCH
  5
3B
330
34
100
AcDbEntity
  8
外形１
 62
     7
100
AcDbHatch
 10
0.0
 20
0.0
 30
0.0
210
0.0
220
0.0
230
1.0
  2
SOLID
 70
     1
 71
     0
 91
        1
 92
        1
 93
        1
 72
     4
 94
        3
 73
     0
 74
     0
 95
       65
 96
       61
 40
0.0
 40
0.0
 40
0.0
 40
0.0
 40
1.0
 40
1.0
 40
1.0
 40
2.0
 40
2.0
 40
2.0
 40
3.0
 40
3.0
 40
3.0
 40
4.0
 40
4.0
 40
4.0
 40
5.0
 40
5.0
 40
5.0
 40
6.0
 40
6.0
 40
6.0
 40
7.0
 40
7.0
 40
7.0
 40
8.0
 40
8.0
 40
8.0
 40
9.0
 40
9.0
 40
9.0
 40
10.0
 40
10.0
 40
10.0
 40
11.0
 40
11.0
 40
11.0
 40
12.0
 40
12.0
 40
12.0
 40
13.0
 40
13.0
 40
13.0
 40
14.0
 40
14.0
 40
14.0
 40
15.0
 40
15.0
 40
15.0
 40
16.0
 40
16.0
 40
16.0
 40
17.0
 40
17.0
 40
17.0
 40
18.0
 40
18.0
 40
18.0
 40
19.0
 40
19.0
 40
19.0
 40
20.0
 40
20.0
 40
20.0
 40
20.0
 10
7.915193006727426
 20
1.038868543836805
 10
7.915193006727426
 20
1.038868543836805
 10
8.874307590060762
 20
1.038868543836805
 10
8.874307590060762
 20
1.038868543836805
 10
8.906002468532987
 20
1.038868543836805
 10
8.930807156032983
 20
1.064362250434027
 10
8.930807156032983
 20
1.096057128906249
 10
8.930807156032983
 20
1.096057128906249
 10
8.930807156032983
 20
1.80643581814236
 10
8.930807156032983
 20
1.80643581814236
 10
8.930807156032983
 20
1.838130696614583
 10
8.906002468532987
 20
1.863624403211805
 10
8.874307590060762
 20
1.863624403211805
 10
8.874307590060762
 20
1.863624403211805
 10
7.903479682074652
 20
1.863624403211805
 10
7.903479682074652
 20
1.863624403211805
 10
6.972614881727428
 20
1.863624403211805
 10
6.539221869574651
 20
1.173227267795137
 10
6.539221869574651
 20
-0.3088528103298611
 10
6.539221869574651
 20
-1.07159695095486
 10
6.682537841796873
 20
-1.609720865885416
 10
6.978127034505207
 20
-1.956297471788194
 10
7.275094265407985
 20
-2.306319173177083
 10
7.565860324435762
 20
-2.334568956163193
 10
7.888321261935762
 20
-2.334568956163193
 10
7.888321261935762
 20
-2.334568956163193
 10
8.874307590060762
 20
-2.334568956163193
 10
8.874307590060762
 20
-2.334568956163193
 10
8.906002468532987
 20
-2.334568956163193
 10
8.930807156032983
 20
-2.30907524956597
 10
8.930807156032983
 20
-2.27806939019097
 10
8.930807156032983
 20
-2.27806939019097
 10
8.930807156032983
 20
-1.567001681857638
 10
8.930807156032983
 20
-1.567001681857638
 10
8.930807156032983
 20
-1.535306803385416
 10
8.906002468532987
 20
-1.509813096788194
 10
8.874307590060762
 20
-1.509813096788194
 10
8.874307590060762
 20
-1.509813096788194
 10
7.915193006727426
 20
-1.509813096788194
 10
7.915193006727426
 20
-1.509813096788194
 10
7.554836018880206
 20
-1.509813096788194
 10
7.328837754991316
 20
-1.355472819010415
 10
7.312990315755207
 20
-0.6223564995659722
 10
7.423233371310762
 20
-0.6223564995659722
 10
8.874307590060762
 20
-0.6223564995659722
 10
8.874307590060762
 20
-0.6223564995659722
 10
8.906002468532987
 20
-0.6223564995659722
 10
8.930807156032983
 20
-0.59686279296875
 10
8.930807156032983
 20
-0.5655124240451388
 10
8.930807156032983
 20
-0.5655124240451388
 10
8.930807156032983
 20
0.1452107747395833
 10
8.930807156032983
 20
0.1452107747395833
 10
8.930807156032983
 20
0.1769056532118055
 10
8.906002468532987
 20
0.2023993598090278
 10
8.874307590060762
 20
0.2023993598090278
 10
8.874307590060762
 20
0.2023993598090278
 10
7.434257676866316
 20
0.2023993598090278
 10
7.319191487630206
 20
0.2023993598090278
 10
7.36328870985243
 20
0.9455064561631944
 10
7.677481418185761
 20
1.038868543836805
 10
7.915193006727426
 20
1.038868543836805
 97
        0
 97
        0
 75
     0
 76
     1
 98
        1
 10
0.0
 20
0.0
450
        0
451
        0
460
0.0
461
0.0
452
        0
462
0.0
453
        0
470

  0
ENDBLK
  5
3D
330
34
100
AcDbEntity
  8
外形１
100
AcDbBlockEnd
  0
BLOCK
  5
40
330
3E
100
AcDbEntity
  8
外形１
 62
     7
100
AcDbBlockBegin
  2
AI9-BLK4
 70
     0
 10
0.0
 20
0.0
 30
0.0
  3
AI9-BLK4
  1
AI9-BLK4
  0
HATCH
  5
3F
330
3E
100
AcDbEntity
  8
外形１
 62
     7
100
AcDbHatch
 10
0.0
 20
0.0
 30
0.0
210
0.0
220
0.0
230
1.0
  2
SOLID
 70
     1
 71
     0
 91
        1
 92
        1
 93
        1
 72
     4
 94
        3
 73
     0
 74
     0
 95
       62
 96
       58
 40
0.0
 40
0.0
 40
0.0
 40
0.0
 40
1.0
 40
1.0
 40
1.0
 40
2.0
 40
2.0
 40
2.0
 40
3.0
 40
3.0
 40
3.0
 40
4.0
 40
4.0
 40
4.0
 40
5.0
 40
5.0
 40
5.0
 40
6.0
 40
6.0
 40
6.0
 40
7.0
 40
7.0
 40
7.0
 40
8.0
 40
8.0
 40
8.0
 40
9.0
 40
9.0
 40
9.0
 40
10.0
 40
10.0
 40
10.0
 40
11.0
 40
11.0
 40
11.0
 40
12.0
 40
12.0
 40
12.0
 40
13.0
 40
13.0
 40
13.0
 40
14.0
 40
14.0
 40
14.0
 40
15.0
 40
15.0
 40
15.0
 40
16.0
 40
16.0
 40
16.0
 40
17.0
 40
17.0
 40
17.0
 40
18.0
 40
18.0
 40
18.0
 40
19.0
 40
19.0
 40
19.0
 40
19.0
 10
1.626860215928819
 20
2.334568956163193
 10
1.626860215928819
 20
2.334568956163193
 10
0.9502434624565971
 20
2.334568956163193
 10
0.9502434624565971
 20
2.334568956163193
 10
0.9268168131510416
 20
2.334568956163193
 10
0.9075242784288192
 20
2.322166612413193
 10
0.8978780110677082
 20
2.301840549045138
 10
0.8978780110677082
 20
2.301840549045138
 10
0.075189208984375
 20
0.7260538736979166
 10
-0.0150722927517361
 20
0.5338175455729166
 10
-0.1032667371961805
 20
0.7260538736979166
 10
-0.9163092719184028
 20
2.301840549045138
 10
-0.9163092719184028
 20
2.301840549045138
 10
-0.9259555392795135
 20
2.321477593315971
 10
-0.9459370930989582
 20
2.334568956163193
 10
-0.9693637424045141
 20
2.334568956163193
 10
-0.9693637424045141
 20
2.334568956163193
 10
-1.626171196831596
 20
2.334568956163193
 10
-1.626171196831596
 20
2.334568956163193
 10
-1.64615275065104
 20
2.334568956163193
 10
-1.664067247178819
 20
2.32457817925347
 10
-1.674402533637151
 20
2.30873074001736
 10
-1.680603705512151
 20
2.300462510850693
 10
-1.683359781901041
 20
2.290127224392359
 10
-1.683359781901041
 20
2.279791937934028
 10
-1.683359781901041
 20
2.27186821831597
 10
-1.681981743706596
 20
2.264289008246528
 10
-1.678192138671874
 20
2.257054307725693
 10
-1.678192138671874
 20
2.257054307725693
 10
-0.365093994140625
 20
-0.2840481228298611
 10
-0.3540696885850694
 20
-0.3057522243923611
 10
-0.3540696885850694
 20
-0.3295233832465278
 10
-0.3540696885850694
 20
-2.280136447482638
 10
-0.3540696885850694
 20
-2.280136447482638
 10
-0.3540696885850694
 20
-2.310453287760415
 10
-0.3292650010850694
 20
-2.334568956163193
 10
-0.2975701226128472
 20
-2.334568956163193
 10
-0.2975701226128472
 20
-2.334568956163193
 10
0.286029052734375
 20
-2.334568956163193
 10
0.286029052734375
 20
-2.334568956163193
 10
0.3177239312065972
 20
-2.334568956163193
 10
0.3432176378038194
 20
-2.310453287760415
 10
0.3432176378038194
 20
-2.280136447482638
 10
0.3432176378038194
 20
-2.280136447482638
 10
0.3432176378038194
 20
-0.33021240234375
 10
0.3432176378038194
 20
-0.3057522243923611
 10
0.354241943359375
 20
-0.2840481228298611
 10
1.678536648220485
 20
2.256709798177082
 10
1.678536648220485
 20
2.256709798177082
 10
1.681981743706596
 20
2.264289008246528
 10
1.683359781901041
 20
2.27186821831597
 10
1.683359781901041
 20
2.279791937934028
 10
1.683359781901041
 20
2.290127224392359
 10
1.680603705512151
 20
2.300462510850693
 10
1.675091552734374
 20
2.30873074001736
 10
1.664067247178819
 20
2.32457817925347
 10
1.64615275065104
 20
2.334568956163193
 10
1.626860215928819
 20
2.334568956163193
 97
        0
 97
        0
 75
     0
 76
     1
 98
        1
 10
0.0
 20
0.0
450
        0
451
        0
460
0.0
461
0.0
452
        0
462
0.0
453
        0
470

  0
ENDBLK
  5
41
330
3E
100
AcDbEntity
  8
外形１
100
AcDbBlockEnd
  0
BLOCK
  5
44
330
42
100
AcDbEntity
  8
外形１
 62
     7
100
AcDbBlockBegin
  2
AI9-BLK5
 70
     0
 10
0.0
 20
0.0
 30
0.0
  3
AI9-BLK5
  1
AI9-BLK5
  0
HATCH
  5
43
330
42
100
AcDbEntity
  8
外形１
 62
     7
100
AcDbHatch
 10
0.0
 20
0.0
 30
0.0
210
0.0
220
0.0
230
1.0
  2
SOLID
 70
     1
 71
     0
 91
        1
 92
        1
 93
        1
 72
     4
 94
        3
 73
     0
 74
     0
 95
       17
 96
       13
 40
0.0
 40
0.0
 40
0.0
 40
0.0
 40
1.0
 40
1.0
 40
1.0
 40
2.0
 40
2.0
 40
2.0
 40
3.0
 40
3.0
 40
3.0
 40
4.0
 40
4.0
 40
4.0
 40
4.0
 10
-0.49144287109375
 20
-1.306380208333332
 10
-0.49144287109375
 20
-1.306380208333332
 10
0.2416734483506944
 20
1.306380208333332
 10
0.2416734483506944
 20
1.306380208333332
 10
0.2416734483506944
 20
1.306380208333332
 10
0.49144287109375
 20
1.306380208333332
 10
0.49144287109375
 20
1.306380208333332
 10
0.49144287109375
 20
1.306380208333332
 10
-0.2416734483506944
 20
-1.306380208333332
 10
-0.2416734483506944
 20
-1.306380208333332
 10
-0.2416734483506944
 20
-1.306380208333332
 10
-0.49144287109375
 20
-1.306380208333332
 10
-0.49144287109375
 20
-1.306380208333332
 97
        0
 97
        0
 75
     0
 76
     1
 98
        1
 10
0.0
 20
0.0
450
        0
451
        0
460
0.0
461
0.0
452
        0
462
0.0
453
        0
470

  0
ENDBLK
  5
45
330
42
100
AcDbEntity
  8
外形１
100
AcDbBlockEnd
  0
BLOCK
  5
26D9
330
26CF
100
AcDbEntity
  8
0
100
AcDbBlockBegin
  2
*D5
 70
     1
 10
0.0
 20
0.0
 30
0.0
  3
*D5
  1
*D5
  0
LINE
  5
26D0
330
26CF
100
AcDbEntity
  8
0
 62
     0
370
    -2
100
AcDbLine
 10
133.5799496199762
 20
194.8688128573029
 30
0.0
 11
133.5799496199762
 21
207.4015254713744
 31
0.0
  0
LINE
  5
26D1
330
26CF
100
AcDbEntity
  8
0
 62
     0
370
    -2
100
AcDbLine
 10
210.5799496199761
 20
194.8688128573029
 30
0.0
 11
210.5799496199761
 21
207.4015254713744
 31
0.0
  0
LINE
  5
26D2
330
26CF
100
AcDbEntity
  8
0
 62
     0
370
    -2
100
AcDbLine
 10
136.0799496199762
 20
206.1515254713745
 30
0.0
 11
208.0799496199762
 21
206.1515254713745
 31
0.0
  0
SOLID
  5
26D3
330
26CF
100
AcDbEntity
  8
0
 62
     0
100
AcDbTrace
 10
136.0799496199762
 20
206.5681921380411
 30
0.0
 11
136.0799496199762
 21
205.7348588047078
 31
0.0
 12
133.5799496199762
 22
206.1515254713745
 32
0.0
 13
133.5799496199762
 23
206.1515254713745
 33
0.0
  0
SOLID
  5
26D4
330
26CF
100
AcDbEntity
  8
0
 62
     0
100
AcDbTrace
 10
208.0799496199762
 20
206.5681921380411
 30
0.0
 11
208.0799496199762
 21
205.7348588047078
 31
0.0
 12
210.5799496199761
 22
206.1515254713745
 32
0.0
 13
210.5799496199761
 23
206.1515254713745
 33
0.0
  0
MTEXT
  5
26D5
330
26CF
100
AcDbEntity
  8
0
 62
     0
100
AcDbMText
 10
172.2136151148542
 20
208.0265254713745
 30
0.0
 40
2.5
 41
0.0
 46
0.0
 71
     5
 72
     1
  1
77
 73
     1
 44
1.0
  0
POINT
  5
26D6
330
26CF
100
AcDbEntity
  8
Defpoints
 62
     0
100
AcDbPoint
 10
133.5799496199762
 20
194.2438128573029
 30
0.0
  0
POINT
  5
26D7
330
26CF
100
AcDbEntity
  8
Defpoints
 62
     0
100
AcDbPoint
 10
210.5799496199761
 20
194.2438128573029
 30
0.0
  0
POINT
  5
26D8
330
26CF
100
AcDbEntity
  8
Defpoints
 62
     0
100
AcDbPoint
 10
210.5799496199761
 20
206.1515254713745
 30
0.0
  0
ENDBLK
  5
26DA
330
26CF
100
AcDbEntity
  8
0
100
AcDbBlockEnd
  0
BLOCK
  5
26E5
330
26DB
100
AcDbEntity
  8
0
100
AcDbBlockBegin
  2
*D6
 70
     1
 10
0.0
 20
0.0
 30
0.0
  3
*D6
  1
*D6
  0
LINE
  5
26DC
330
26DB
100
AcDbEntity
  8
0
 62
     0
370
    -2
100
AcDbLine
 10
132.9549496199762
 20
194.2438128573029
 30
0.0
 11
119.6841173115653
 21
194.2438128573029
 31
0.0
  0
LINE
  5
26DD
330
26DB
100
AcDbEntity
  8
0
 62
     0
370
    -2
100
AcDbLine
 10
132.9549496199762
 20
161.2438128573029
 30
0.0
 11
119.6841173115653
 21
161.2438128573029
 31
0.0
  0
LINE
  5
26DE
330
26DB
100
AcDbEntity
  8
0
 62
     0
370
    -2
100
AcDbLine
 10
120.9341173115653
 20
191.7438128573029
 30
0.0
 11
120.9341173115653
 21
163.7438128573029
 31
0.0
  0
SOLID
  5
26DF
330
26DB
100
AcDbEntity
  8
0
 62
     0
100
AcDbTrace
 10
120.5174506448987
 20
191.7438128573029
 30
0.0
 11
121.350783978232
 21
191.7438128573029
 31
0.0
 12
120.9341173115653
 22
194.2438128573029
 32
0.0
 13
120.9341173115653
 23
194.2438128573029
 33
0.0
  0
SOLID
  5
26E0
330
26DB
100
AcDbEntity
  8
0
 62
     0
100
AcDbTrace
 10
120.5174506448987
 20
163.7438128573029
 30
0.0
 11
121.350783978232
 21
163.7438128573029
 31
0.0
 12
120.9341173115653
 22
161.2438128573029
 32
0.0
 13
120.9341173115653
 23
161.2438128573029
 33
0.0
  0
MTEXT
  5
26E1
330
26DB
100
AcDbEntity
  8
0
 62
     0
100
AcDbMText
 10
119.0591173115653
 20
177.7438128573029
 30
0.0
 40
2.5
 41
0.0
 46
0.0
 71
     5
 72
     1
  1
33
 11
0.0000000000000001
 21
1.0
 31
0.0
 73
     1
 44
1.0
  0
POINT
  5
26E2
330
26DB
100
AcDbEntity
  8
Defpoints
 62
     0
100
AcDbPoint
 10
133.5799496199762
 20
194.2438128573029
 30
0.0
  0
POINT
  5
26E3
330
26DB
100
AcDbEntity
  8
Defpoints
 62
     0
100
AcDbPoint
 10
133.5799496199762
 20
161.2438128573029
 30
0.0
  0
POINT
  5
26E4
330
26DB
100
AcDbEntity
  8
Defpoints
 62
     0
100
AcDbPoint
 10
120.9341173115653
 20
161.2438128573029
 30
0.0
  0
ENDBLK
  5
26E6
330
26DB
100
AcDbEntity
  8
0
100
AcDbBlockEnd
  0
BLOCK
  5
26F1
330
26E7
100
AcDbEntity
  8
0
100
AcDbBlockBegin
  2
*D7
 70
     1
 10
0.0
 20
0.0
 30
0.0
  3
*D7
  1
*D7
  0
LINE
  5
26E8
330
26E7
100
AcDbEntity
  8
0
 62
     0
370
    -2
100
AcDbLine
 10
233.9562856199762
 20
194.8688128573029
 30
0.0
 11
233.9562856199762
 21
207.4015254713744
 31
0.0
  0
LINE
  5
26E9
330
26E7
100
AcDbEntity
  8
0
 62
     0
370
    -2
100
AcDbLine
 10
241.9562856199762
 20
194.8688128573029
 30
0.0
 11
241.9562856199762
 21
207.4015254713744
 31
0.0
  0
LINE
  5
26EA
330
26E7
100
AcDbEntity
  8
0
 62
     0
370
    -2
100
AcDbLine
 10
236.4562856199762
 20
206.1515254713745
 30
0.0
 11
239.4562856199761
 21
206.1515254713745
 31
0.0
  0
SOLID
  5
26EB
330
26E7
100
AcDbEntity
  8
0
 62
     0
100
AcDbTrace
 10
236.4562856199762
 20
206.5681921380411
 30
0.0
 11
236.4562856199762
 21
205.7348588047078
 31
0.0
 12
233.9562856199762
 22
206.1515254713745
 32
0.0
 13
233.9562856199762
 23
206.1515254713745
 33
0.0
  0
SOLID
  5
26EC
330
26E7
100
AcDbEntity
  8
0
 62
     0
100
AcDbTrace
 10
239.4562856199761
 20
206.5681921380411
 30
0.0
 11
239.4562856199761
 21
205.7348588047078
 31
0.0
 12
241.9562856199762
 22
206.1515254713745
 32
0.0
 13
241.9562856199762
 23
206.1515254713745
 33
0.0
  0
MTEXT
  5
26ED
330
26E7
100
AcDbEntity
  8
0
 62
     0
100
AcDbMText
 10
237.9562856199762
 20
208.0265254713745
 30
0.0
 40
2.5
 41
0.0
 46
0.0
 71
     5
 72
     1
  1
8
 73
     1
 44
1.0
  0
POINT
  5
26EE
330
26E7
100
AcDbEntity
  8
Defpoints
 62
     0
100
AcDbPoint
 10
233.9562856199762
 20
194.2438128573029
 30
0.0
  0
POINT
  5
26EF
330
26E7
100
AcDbEntity
  8
Defpoints
 62
     0
100
AcDbPoint
 10
241.9562856199762
 20
194.2438128573029
 30
0.0
  0
POINT
  5
26F0
330
26E7
100
AcDbEntity
  8
Defpoints
 62
     0
100
AcDbPoint
 10
241.9562856199762
 20
206.1515254713745
 30
0.0
  0
ENDBLK
  5
26F2
330
26E7
100
AcDbEntity
  8
0
100
AcDbBlockEnd
  0
BLOCK
  5
26FD
330
26F3
100
AcDbEntity
  8
0
100
AcDbBlockBegin
  2
*D8
 70
     1
 10
0.0
 20
0.0
 30
0.0
  3
*D8
  1
*D8
  0
LINE
  5
26F4
330
26F3
100
AcDbEntity
  8
0
 62
     0
370
    -2
100
AcDbLine
 10
216.2049496199761
 20
186.2438128573029
 30
0.0
 11
225.4365162135802
 21
186.2438128573029
 31
0.0
  0
LINE
  5
26F5
330
26F3
100
AcDbEntity
  8
0
 62
     0
370
    -2
100
AcDbLine
 10
216.2049496199761
 20
169.2438128573029
 30
0.0
 11
225.4365162135802
 21
169.2438128573029
 31
0.0
  0
LINE
  5
26F6
330
26F3
100
AcDbEntity
  8
0
 62
     0
370
    -2
100
AcDbLine
 10
224.1865162135802
 20
183.7438128573029
 30
0.0
 11
224.1865162135802
 21
171.7438128573029
 31
0.0
  0
SOLID
  5
26F7
330
26F3
100
AcDbEntity
  8
0
 62
     0
100
AcDbTrace
 10
223.7698495469135
 20
183.7438128573029
 30
0.0
 11
224.6031828802469
 21
183.7438128573029
 31
0.0
 12
224.1865162135802
 22
186.2438128573029
 32
0.0
 13
224.1865162135802
 23
186.2438128573029
 33
0.0
  0
SOLID
  5
26F8
330
26F3
100
AcDbEntity
  8
0
 62
     0
100
AcDbTrace
 10
223.7698495469135
 20
171.7438128573029
 30
0.0
 11
224.6031828802469
 21
171.7438128573029
 31
0.0
 12
224.1865162135802
 22
169.2438128573029
 32
0.0
 13
224.1865162135802
 23
169.2438128573029
 33
0.0
  0
MTEXT
  5
26F9
330
26F3
100
AcDbEntity
  8
0
 62
     0
100
AcDbMText
 10
222.3115162135802
 20
177.743812857303
 30
0.0
 40
2.5
 41
0.0
 46
0.0
 71
     5
 72
     1
  1
17
 11
0.0000000000000001
 21
1.0
 31
0.0
 73
     1
 44
1.0
  0
POINT
  5
26FA
330
26F3
100
AcDbEntity
  8
Defpoints
 62
     0
100
AcDbPoint
 10
215.5799496199761
 20
186.2438128573029
 30
0.0
  0
POINT
  5
26FB
330
26F3
100
AcDbEntity
  8
Defpoints
 62
     0
100
AcDbPoint
 10
215.5799496199761
 20
169.2438128573029
 30
0.0
  0
POINT
  5
26FC
330
26F3
100
AcDbEntity
  8
Defpoints
 62
     0
100
AcDbPoint
 10
224.1865162135802
 20
169.2438128573029
 30
0.0
  0
ENDBLK
  5
26FE
330
26F3
100
AcDbEntity
  8
0
100
AcDbBlockEnd
  0
BLOCK
  5
270B
330
26FF
100
AcDbEntity
  8
0
100
AcDbBlockBegin
  2
*D9
 70
     1
 10
0.0
 20
0.0
 30
0.0
  3
*D9
  1
*D9
  0
LINE
  5
2700
330
26FF
100
AcDbEntity
  8
0
 62
     0
370
    -2
100
AcDbLine
 10
216.0799496199762
 20
186.3688128573029
 30
0.0
 11
216.0799496199762
 21
207.4015254713744
 31
0.0
  0
LINE
  5
2701
330
26FF
100
AcDbEntity
  8
0
 62
     0
370
    -2
100
AcDbLine
 10
210.5799496199761
 20
194.8688128573029
 30
0.0
 11
210.5799496199761
 21
207.4015254713744
 31
0.0
  0
LINE
  5
2702
330
26FF
100
AcDbEntity
  8
0
 62
     0
370
    -2
100
AcDbLine
 10
218.5799496199761
 20
206.1515254713745
 30
0.0
 11
221.0799496199761
 21
206.1515254713745
 31
0.0
  0
LINE
  5
2703
330
26FF
100
AcDbEntity
  8
0
 62
     0
370
    -2
100
AcDbLine
 10
208.0799496199762
 20
206.1515254713745
 30
0.0
 11
198.9132829533095
 21
206.1515254713745
 31
0.0
  0
LINE
  5
2704
330
26FF
100
AcDbEntity
  8
0
 62
     0
370
    -2
100
AcDbLine
 10
216.0799496199762
 20
206.1515254713745
 30
0.0
 11
210.5799496199761
 21
206.1515254713745
 31
0.0
  0
SOLID
  5
2705
330
26FF
100
AcDbEntity
  8
0
 62
     0
100
AcDbTrace
 10
218.5799496199761
 20
206.5681921380411
 30
0.0
 11
218.5799496199761
 21
205.7348588047078
 31
0.0
 12
216.0799496199762
 22
206.1515254713745
 32
0.0
 13
216.0799496199762
 23
206.1515254713745
 33
0.0
  0
SOLID
  5
2706
330
26FF
100
AcDbEntity
  8
0
 62
     0
100
AcDbTrace
 10
208.0799496199762
 20
206.5681921380411
 30
0.0
 11
208.0799496199762
 21
205.7348588047078
 31
0.0
 12
210.5799496199761
 22
206.1515254713745
 32
0.0
 13
210.5799496199761
 23
206.1515254713745
 33
0.0
  0
MTEXT
  5
2707
330
26FF
100
AcDbEntity
  8
0
 62
     0
100
AcDbMText
 10
202.2466162866428
 20
208.2348588047078
 30
0.0
 40
2.5
 41
0.0
 46
0.0
 71
     5
 72
     1
  1
5,5
 73
     1
 44
1.0
  0
POINT
  5
2708
330
26FF
100
AcDbEntity
  8
Defpoints
 62
     0
100
AcDbPoint
 10
216.0799496199762
 20
185.7438128573028
 30
0.0
  0
POINT
  5
2709
330
26FF
100
AcDbEntity
  8
Defpoints
 62
     0
100
AcDbPoint
 10
210.5799496199761
 20
194.2438128573029
 30
0.0
  0
POINT
  5
270A
330
26FF
100
AcDbEntity
  8
Defpoints
 62
     0
100
AcDbPoint
 10
210.5799496199761
 20
206.1515254713745
 30
0.0
  0
ENDBLK
  5
270C
330
26FF
100
AcDbEntity
  8
0
100
AcDbBlockEnd
  0
BLOCK
  5
2717
330
270D
100
AcDbEntity
  8
0
100
AcDbBlockBegin
  2
*D10
 70
     1
 10
0.0
 20
0.0
 30
0.0
  3
*D10
  1
*D10
  0
LINE
  5
270E
330
270D
100
AcDbEntity
  8
DOTTED
  6
Continuous
 62
     0
370
    -2
100
AcDbLine
 10
132.4549496199762
 20
190.2438128573029
 30
0.0
 11
129.2768849943368
 21
190.2438128573029
 31
0.0
  0
LINE
  5
270F
330
270D
100
AcDbEntity
  8
DOTTED
  6
Continuous
 62
     0
370
    -2
100
AcDbLine
 10
132.4549496199762
 20
165.2438128573029
 30
0.0
 11
129.2768849943368
 21
165.2438128573029
 31
0.0
  0
LINE
  5
2710
330
270D
100
AcDbEntity
  8
DOTTED
  6
Continuous
 62
     0
370
    -2
100
AcDbLine
 10
130.5268849943368
 20
187.7438128573029
 30
0.0
 11
130.5268849943368
 21
167.7438128573029
 31
0.0
  0
SOLID
  5
2711
330
270D
100
AcDbEntity
  8
DOTTED
  6
Continuous
 62
     0
100
AcDbTrace
 10
130.1102183276702
 20
187.7438128573029
 30
0.0
 11
130.9435516610035
 21
187.7438128573029
 31
0.0
 12
130.5268849943368
 22
190.2438128573029
 32
0.0
 13
130.5268849943368
 23
190.2438128573029
 33
0.0
  0
SOLID
  5
2712
330
270D
100
AcDbEntity
  8
DOTTED
  6
Continuous
 62
     0
100
AcDbTrace
 10
130.1102183276702
 20
167.7438128573029
 30
0.0
 11
130.9435516610035
 21
167.7438128573029
 31
0.0
 12
130.5268849943368
 22
165.2438128573029
 32
0.0
 13
130.5268849943368
 23
165.2438128573029
 33
0.0
  0
MTEXT
  5
2713
330
270D
100
AcDbEntity
  8
DOTTED
  6
Continuous
 62
     0
100
AcDbMText
 10
128.6518849943368
 20
177.7438128573029
 30
0.0
 40
2.5
 41
0.0
 46
0.0
 71
     5
 72
     1
  1
25
 11
0.0000000000000001
 21
1.0
 31
0.0
 73
     1
 44
1.0
  0
POINT
  5
2714
330
270D
100
AcDbEntity
  8
Defpoints
  6
Continuous
 62
     0
100
AcDbPoint
 10
133.0799496199762
 20
190.2438128573029
 30
0.0
  0
POINT
  5
2715
330
270D
100
AcDbEntity
  8
Defpoints
  6
Continuous
 62
     0
100
AcDbPoint
 10
133.0799496199762
 20
165.2438128573029
 30
0.0
  0
POINT
  5
2716
330
270D
100
AcDbEntity
  8
Defpoints
  6
Continuous
 62
     0
100
AcDbPoint
 10
130.5268849943368
 20
165.2438128573029
 30
0.0
  0
ENDBLK
  5
2718
330
270D
100
AcDbEntity
  8
0
100
AcDbBlockEnd
  0
BLOCK
  5
2723
330
2719
100
AcDbEntity
  8
0
100
AcDbBlockBegin
  2
*D11
 70
     1
 10
0.0
 20
0.0
 30
0.0
  3
*D11
  1
*D11
  0
LINE
  5
271A
330
2719
100
AcDbEntity
  8
DOTTED
  6
Continuous
 62
     0
370
    -2
100
AcDbLine
 10
137.0799496199762
 20
194.8688128573029
 30
0.0
 11
137.0799496199762
 21
198.9310023240239
 31
0.0
  0
LINE
  5
271B
330
2719
100
AcDbEntity
  8
DOTTED
  6
Continuous
 62
     0
370
    -2
100
AcDbLine
 10
207.0799496199761
 20
194.8688128573029
 30
0.0
 11
207.0799496199761
 21
198.9310023240239
 31
0.0
  0
LINE
  5
271C
330
2719
100
AcDbEntity
  8
DOTTED
  6
Continuous
 62
     0
370
    -2
100
AcDbLine
 10
139.5799496199762
 20
197.6810023240239
 30
0.0
 11
204.5799496199761
 21
197.6810023240239
 31
0.0
  0
SOLID
  5
271D
330
2719
100
AcDbEntity
  8
DOTTED
  6
Continuous
 62
     0
100
AcDbTrace
 10
139.5799496199762
 20
198.0976689906906
 30
0.0
 11
139.5799496199762
 21
197.2643356573573
 31
0.0
 12
137.0799496199762
 22
197.6810023240239
 32
0.0
 13
137.0799496199762
 23
197.6810023240239
 33
0.0
  0
SOLID
  5
271E
330
2719
100
AcDbEntity
  8
DOTTED
  6
Continuous
 62
     0
100
AcDbTrace
 10
204.5799496199761
 20
198.0976689906906
 30
0.0
 11
204.5799496199761
 21
197.2643356573573
 31
0.0
 12
207.0799496199761
 22
197.6810023240239
 32
0.0
 13
207.0799496199761
 23
197.6810023240239
 33
0.0
  0
MTEXT
  5
271F
330
2719
100
AcDbEntity
  8
DOTTED
  6
Continuous
 62
     0
100
AcDbMText
 10
172.0799496199762
 20
199.5560023240239
 30
0.0
 40
2.5
 41
0.0
 46
0.0
 71
     5
 72
     1
  1
70
 73
     1
 44
1.0
  0
POINT
  5
2720
330
2719
100
AcDbEntity
  8
Defpoints
  6
Continuous
 62
     0
100
AcDbPoint
 10
137.0799496199762
 20
194.2438128573029
 30
0.0
  0
POINT
  5
2721
330
2719
100
AcDbEntity
  8
Defpoints
  6
Continuous
 62
     0
100
AcDbPoint
 10
207.0799496199761
 20
194.2438128573029
 30
0.0
  0
POINT
  5
2722
330
2719
100
AcDbEntity
  8
Defpoints
  6
Continuous
 62
     0
100
AcDbPoint
 10
207.0799496199761
 20
197.6810023240239
 30
0.0
  0
ENDBLK
  5
2724
330
2719
100
AcDbEntity
  8
0
100
AcDbBlockEnd
  0
BLOCK
  5
2731
330
2725
100
AcDbEntity
  8
0
100
AcDbBlockBegin
  2
*D12
 70
     1
 10
0.0
 20
0.0
 30
0.0
  3
*D12
  1
*D12
  0
LINE
  5
2726
330
2725
100
AcDbEntity
  8
DOTTED
  6
Continuous
 62
     0
370
    -2
100
AcDbLine
 10
237.9562856199762
 20
193.8688128573028
 30
0.0
 11
237.9562856199762
 21
198.9310023240239
 31
0.0
  0
LINE
  5
2727
330
2725
100
AcDbEntity
  8
DOTTED
  6
Continuous
 62
     0
370
    -2
100
AcDbLine
 10
233.9562856199762
 20
194.8688128573029
 30
0.0
 11
233.9562856199762
 21
198.9310023240239
 31
0.0
  0
LINE
  5
2728
330
2725
100
AcDbEntity
  8
DOTTED
  6
Continuous
 62
     0
370
    -2
100
AcDbLine
 10
240.4562856199762
 20
197.6810023240239
 30
0.0
 11
242.9562856199761
 21
197.6810023240239
 31
0.0
  0
LINE
  5
2729
330
2725
100
AcDbEntity
  8
DOTTED
  6
Continuous
 62
     0
370
    -2
100
AcDbLine
 10
231.4562856199762
 20
197.6810023240239
 30
0.0
 11
228.9562856199761
 21
197.6810023240239
 31
0.0
  0
LINE
  5
272A
330
2725
100
AcDbEntity
  8
DOTTED
  6
Continuous
 62
     0
370
    -2
100
AcDbLine
 10
237.9562856199762
 20
197.6810023240239
 30
0.0
 11
233.9562856199762
 21
197.6810023240239
 31
0.0
  0
SOLID
  5
272B
330
2725
100
AcDbEntity
  8
DOTTED
  6
Continuous
 62
     0
100
AcDbTrace
 10
240.4562856199762
 20
198.0976689906906
 30
0.0
 11
240.4562856199762
 21
197.2643356573573
 31
0.0
 12
237.9562856199762
 22
197.6810023240239
 32
0.0
 13
237.9562856199762
 23
197.6810023240239
 33
0.0
  0
SOLID
  5
272C
330
2725
100
AcDbEntity
  8
DOTTED
  6
Continuous
 62
     0
100
AcDbTrace
 10
231.4562856199762
 20
198.0976689906906
 30
0.0
 11
231.4562856199762
 21
197.2643356573573
 31
0.0
 12
233.9562856199762
 22
197.6810023240239
 32
0.0
 13
233.9562856199762
 23
197.6810023240239
 33
0.0
  0
MTEXT
  5
272D
330
2725
100
AcDbEntity
  8
DOTTED
  6
Continuous
 62
     0
100
AcDbMText
 10
235.9562856199762
 20
199.5560023240239
 30
0.0
 40
2.5
 41
0.0
 46
0.0
 71
     5
 72
     1
  1
4
 73
     1
 44
1.0
  0
POINT
  5
272E
330
2725
100
AcDbEntity
  8
Defpoints
  6
Continuous
 62
     0
100
AcDbPoint
 10
237.9562856199762
 20
193.2438128573029
 30
0.0
  0
POINT
  5
272F
330
2725
100
AcDbEntity
  8
Defpoints
  6
Continuous
 62
     0
100
AcDbPoint
 10
233.9562856199762
 20
194.2438128573029
 30
0.0
  0
POINT
  5
2730
330
2725
100
AcDbEntity
  8
Defpoints
  6
Continuous
 62
     0
100
AcDbPoint
 10
233.9562856199762
 20
197.6810023240239
 30
0.0
  0
ENDBLK
  5
2732
330
2725
100
AcDbEntity
  8
0
100
AcDbBlockEnd
  0
BLOCK
  5
273D
330
2733
100
AcDbEntity
  8
0
100
AcDbBlockBegin
  2
*D13
 70
     1
 10
0.0
 20
0.0
 30
0.0
  3
*D13
  1
*D13
  0
LINE
  5
2734
330
2733
100
AcDbEntity
  8
0
 62
     0
370
    -2
100
AcDbLine
 10
157.5799496199761
 20
138.3993708573029
 30
0.0
 11
157.5799496199761
 21
116.1191556903644
 31
0.0
  0
LINE
  5
2735
330
2733
100
AcDbEntity
  8
0
 62
     0
370
    -2
100
AcDbLine
 10
193.079949619976
 20
138.3993708573029
 30
0.0
 11
193.079949619976
 21
116.1191556903644
 31
0.0
  0
LINE
  5
2736
330
2733
100
AcDbEntity
  8
0
 62
     0
370
    -2
100
AcDbLine
 10
160.0799496199762
 20
117.3691556903644
 30
0.0
 11
190.5799496199762
 21
117.3691556903644
 31
0.0
  0
SOLID
  5
2737
330
2733
100
AcDbEntity
  8
0
 62
     0
100
AcDbTrace
 10
160.0799496199762
 20
117.785822357031
 30
0.0
 11
160.0799496199762
 21
116.9524890236977
 31
0.0
 12
157.5799496199761
 22
117.3691556903644
 32
0.0
 13
157.5799496199761
 23
117.3691556903644
 33
0.0
  0
SOLID
  5
2738
330
2733
100
AcDbEntity
  8
0
 62
     0
100
AcDbTrace
 10
190.5799496199762
 20
117.785822357031
 30
0.0
 11
190.5799496199762
 21
116.9524890236977
 31
0.0
 12
193.079949619976
 22
117.3691556903644
 32
0.0
 13
193.079949619976
 23
117.3691556903644
 33
0.0
  0
MTEXT
  5
2739
330
2733
100
AcDbEntity
  8
0
 62
     0
100
AcDbMText
 10
175.329949619976
 20
119.4524890236977
 30
0.0
 40
2.5
 41
0.0
 46
0.0
 71
     5
 72
     1
  1
35,5
 73
     1
 44
1.0
  0
POINT
  5
273A
330
2733
100
AcDbEntity
  8
Defpoints
 62
     0
100
AcDbPoint
 10
157.5799496199761
 20
139.0243708573029
 30
0.0
  0
POINT
  5
273B
330
2733
100
AcDbEntity
  8
Defpoints
 62
     0
100
AcDbPoint
 10
193.079949619976
 20
139.0243708573029
 30
0.0
  0
POINT
  5
273C
330
2733
100
AcDbEntity
  8
Defpoints
 62
     0
100
AcDbPoint
 10
193.079949619976
 20
117.3691556903644
 30
0.0
  0
ENDBLK
  5
273E
330
2733
100
AcDbEntity
  8
0
100
AcDbBlockEnd
  0
BLOCK
  5
2749
330
273F
100
AcDbEntity
  8
0
100
AcDbBlockBegin
  2
*D14
 70
     1
 10
0.0
 20
0.0
 30
0.0
  3
*D14
  1
*D14
  0
LINE
  5
2740
330
273F
100
AcDbEntity
  8
0
 62
     0
370
    -2
100
AcDbLine
 10
157.5799496199761
 20
137.7743708573029
 30
0.0
 11
157.5799496199761
 21
128.8868446560878
 31
0.0
  0
LINE
  5
2741
330
273F
100
AcDbEntity
  8
0
 62
     0
370
    -2
100
AcDbLine
 10
172.079949619976
 20
142.8993708573029
 30
0.0
 11
172.079949619976
 21
128.8868446560878
 31
0.0
  0
LINE
  5
2742
330
273F
100
AcDbEntity
  8
0
 62
     0
370
    -2
100
AcDbLine
 10
160.0799496199762
 20
130.1368446560878
 30
0.0
 11
169.5799496199762
 21
130.1368446560878
 31
0.0
  0
SOLID
  5
2743
330
273F
100
AcDbEntity
  8
0
 62
     0
100
AcDbTrace
 10
160.0799496199762
 20
130.5535113227545
 30
0.0
 11
160.0799496199762
 21
129.7201779894211
 31
0.0
 12
157.5799496199761
 22
130.1368446560878
 32
0.0
 13
157.5799496199761
 23
130.1368446560878
 33
0.0
  0
SOLID
  5
2744
330
273F
100
AcDbEntity
  8
0
 62
     0
100
AcDbTrace
 10
169.5799496199762
 20
130.5535113227545
 30
0.0
 11
169.5799496199762
 21
129.7201779894211
 31
0.0
 12
172.079949619976
 22
130.1368446560878
 32
0.0
 13
172.079949619976
 23
130.1368446560878
 33
0.0
  0
MTEXT
  5
2745
330
273F
100
AcDbEntity
  8
0
 62
     0
100
AcDbMText
 10
164.8299496199761
 20
132.2201779894211
 30
0.0
 40
2.5
 41
0.0
 46
0.0
 71
     5
 72
     1
  1
14,5
 73
     1
 44
1.0
  0
POINT
  5
2746
330
273F
100
AcDbEntity
  8
Defpoints
 62
     0
100
AcDbPoint
 10
157.5799496199761
 20
138.3993708573029
 30
0.0
  0
POINT
  5
2747
330
273F
100
AcDbEntity
  8
Defpoints
 62
     0
100
AcDbPoint
 10
172.079949619976
 20
143.5243708573029
 30
0.0
  0
POINT
  5
2748
330
273F
100
AcDbEntity
  8
Defpoints
 62
     0
100
AcDbPoint
 10
172.079949619976
 20
130.1368446560878
 30
0.0
  0
ENDBLK
  5
274A
330
273F
100
AcDbEntity
  8
0
100
AcDbBlockEnd
  0
BLOCK
  5
2757
330
274B
100
AcDbEntity
  8
0
100
AcDbBlockBegin
  2
*D15
 70
     1
 10
0.0
 20
0.0
 30
0.0
  3
*D15
  1
*D15
  0
LINE
  5
274C
330
274B
100
AcDbEntity
  8
0
 62
     0
370
    -2
100
AcDbLine
 10
171.4549496199762
 20
147.0243708573029
 30
0.0
 11
165.9470525562604
 21
147.0243708573029
 31
0.0
  0
LINE
  5
274D
330
274B
100
AcDbEntity
  8
0
 62
     0
370
    -2
100
AcDbLine
 10
171.4549496199762
 20
144.5243708573029
 30
0.0
 11
165.9470525562604
 21
144.5243708573029
 31
0.0
  0
LINE
  5
274E
330
274B
100
AcDbEntity
  8
0
 62
     0
370
    -2
100
AcDbLine
 10
167.1970525562604
 20
142.0243708573029
 30
0.0
 11
167.1970525562604
 21
139.5243708573029
 31
0.0
  0
LINE
  5
274F
330
274B
100
AcDbEntity
  8
0
 62
     0
370
    -2
100
AcDbLine
 10
167.1970525562604
 20
149.5243708573029
 30
0.0
 11
167.1970525562604
 21
158.6910375239695
 31
0.0
  0
LINE
  5
2750
330
274B
100
AcDbEntity
  8
0
 62
     0
370
    -2
100
AcDbLine
 10
167.1970525562604
 20
144.5243708573029
 30
0.0
 11
167.1970525562604
 21
147.0243708573029
 31
0.0
  0
SOLID
  5
2751
330
274B
100
AcDbEntity
  8
0
 62
     0
100
AcDbTrace
 10
166.7803858895937
 20
142.0243708573029
 30
0.0
 11
167.6137192229271
 21
142.0243708573029
 31
0.0
 12
167.1970525562604
 22
144.5243708573029
 32
0.0
 13
167.1970525562604
 23
144.5243708573029
 33
0.0
  0
SOLID
  5
2752
330
274B
100
AcDbEntity
  8
0
 62
     0
100
AcDbTrace
 10
166.7803858895937
 20
149.5243708573029
 30
0.0
 11
167.6137192229271
 21
149.5243708573029
 31
0.0
 12
167.1970525562604
 22
147.0243708573029
 32
0.0
 13
167.1970525562604
 23
147.0243708573029
 33
0.0
  0
MTEXT
  5
2753
330
274B
100
AcDbEntity
  8
0
 62
     0
100
AcDbMText
 10
165.113719222927
 20
155.3577041906363
 30
0.0
 40
2.5
 41
0.0
 46
0.0
 71
     5
 72
     1
  1
2,5
 11
0.0000000000000001
 21
1.0
 31
0.0
 73
     1
 44
1.0
  0
POINT
  5
2754
330
274B
100
AcDbEntity
  8
Defpoints
 62
     0
100
AcDbPoint
 10
172.079949619976
 20
147.0243708573029
 30
0.0
  0
POINT
  5
2755
330
274B
100
AcDbEntity
  8
Defpoints
 62
     0
100
AcDbPoint
 10
172.079949619976
 20
144.5243708573029
 30
0.0
  0
POINT
  5
2756
330
274B
100
AcDbEntity
  8
Defpoints
 62
     0
100
AcDbPoint
 10
167.1970525562604
 20
144.5243708573029
 30
0.0
  0
ENDBLK
  5
2758
330
274B
100
AcDbEntity
  8
0
100
AcDbBlockEnd
  0
BLOCK
  5
2762
330
2759
100
AcDbEntity
  8
0
100
AcDbBlockBegin
  2
*D16
 70
     1
 10
0.0
 20
0.0
 30
0.0
  3
*D16
  1
*D16
  0
LINE
  5
275A
330
2759
100
AcDbEntity
  8
0
 62
     0
370
    -2
100
AcDbLine
 10
229.2460802370018
 20
150.9140530885325
 30
0.0
 11
210.5231101574966
 21
163.0179095546272
 31
0.0
  0
LINE
  5
275B
330
2759
100
AcDbEntity
  8
0
 62
     0
370
    -2
100
AcDbLine
 10
203.6367890824558
 20
167.4697161599785
 30
0.0
 11
201.5373009498214
 21
168.8269742713661
 31
0.0
  0
MTEXT
  5
275C
330
2759
100
AcDbEntity
  8
0
 62
     0
100
AcDbMText
 10
224.4904314557979
 20
156.2211289943242
 30
0.0
 40
2.5
 41
0.0
 46
0.0
 71
     5
 72
     1
  1
4-%%c3.2
 11
0.8397952530537502
 21
-0.5429032445550386
 31
0.0
 73
     1
 44
1.0
  0
LINE
  5
275D
330
2759
100
AcDbEntity
  8
0
 62
     0
370
    -2
100
AcDbLine
 10
205.7362772150901
 20
166.1124580485909
 30
0.0
 11
208.4236220248622
 21
164.3751676660148
 31
0.0
  0
SOLID
  5
275E
330
2759
100
AcDbEntity
  8
0
 62
     0
100
AcDbTrace
 10
203.862998767687
 20
167.819630848751
 30
0.0
 11
203.4105793972245
 21
167.1198014712062
 31
0.0
 12
205.7362772150901
 22
166.1124580485909
 32
0.0
 13
205.7362772150901
 23
166.1124580485909
 33
0.0
  0
SOLID
  5
275F
330
2759
100
AcDbEntity
  8
0
 62
     0
100
AcDbTrace
 10
210.7493198427278
 20
163.3678242433996
 30
0.0
 11
210.2969004722652
 21
162.6679948658549
 31
0.0
 12
208.4236220248622
 22
164.3751676660148
 32
0.0
 13
208.4236220248622
 23
164.3751676660148
 33
0.0
  0
POINT
  5
2760
330
2759
100
AcDbEntity
  8
Defpoints
 62
     0
100
AcDbPoint
 10
208.4236220248622
 20
164.3751676660148
 30
0.0
  0
POINT
  5
2761
330
2759
100
AcDbEntity
  8
Defpoints
 62
     0
100
AcDbPoint
 10
205.7362772150901
 20
166.1124580485909
 30
0.0
  0
ENDBLK
  5
2763
330
2759
100
AcDbEntity
  8
0
100
AcDbBlockEnd
  0
BLOCK
  5
2770
330
2764
100
AcDbEntity
  8
0
100
AcDbBlockBegin
  2
*D17
 70
     1
 10
0.0
 20
0.0
 30
0.0
  3
*D17
  1
*D17
  0
LINE
  5
2765
330
2764
100
AcDbEntity
  8
0
 62
     0
370
    -2
100
AcDbLine
 10
216.2049496199761
 20
144.5243708573029
 30
0.0
 11
225.4934390810709
 21
144.5243708573029
 31
0.0
  0
LINE
  5
2766
330
2764
100
AcDbEntity
  8
0
 62
     0
370
    -2
100
AcDbLine
 10
216.2049496199761
 20
140.5243708573029
 30
0.0
 11
225.4934390810709
 21
140.5243708573029
 31
0.0
  0
LINE
  5
2767
330
2764
100
AcDbEntity
  8
0
 62
     0
370
    -2
100
AcDbLine
 10
224.2434390810709
 20
147.0243708573029
 30
0.0
 11
224.2434390810709
 21
149.5243708573029
 31
0.0
  0
LINE
  5
2768
330
2764
100
AcDbEntity
  8
0
 62
     0
370
    -2
100
AcDbLine
 10
224.2434390810709
 20
138.0243708573029
 30
0.0
 11
224.2434390810709
 21
135.5243708573029
 31
0.0
  0
LINE
  5
2769
330
2764
100
AcDbEntity
  8
0
 62
     0
370
    -2
100
AcDbLine
 10
224.2434390810709
 20
144.5243708573029
 30
0.0
 11
224.2434390810709
 21
140.5243708573029
 31
0.0
  0
SOLID
  5
276A
330
2764
100
AcDbEntity
  8
0
 62
     0
100
AcDbTrace
 10
223.8267724144042
 20
147.0243708573029
 30
0.0
 11
224.6601057477376
 21
147.0243708573029
 31
0.0
 12
224.2434390810709
 22
144.5243708573029
 32
0.0
 13
224.2434390810709
 23
144.5243708573029
 33
0.0
  0
SOLID
  5
276B
330
2764
100
AcDbEntity
  8
0
 62
     0
100
AcDbTrace
 10
223.8267724144042
 20
138.0243708573029
 30
0.0
 11
224.6601057477376
 21
138.0243708573029
 31
0.0
 12
224.2434390810709
 22
140.5243708573029
 32
0.0
 13
224.2434390810709
 23
140.5243708573029
 33
0.0
  0
MTEXT
  5
276C
330
2764
100
AcDbEntity
  8
0
 62
     0
100
AcDbMText
 10
222.3684390810709
 20
142.5243708573029
 30
0.0
 40
2.5
 41
0.0
 46
0.0
 71
     5
 72
     1
  1
4
 11
0.0000000000000001
 21
1.0
 31
0.0
 73
     1
 44
1.0
  0
POINT
  5
276D
330
2764
100
AcDbEntity
  8
Defpoints
 62
     0
100
AcDbPoint
 10
215.5799496199761
 20
144.5243708573029
 30
0.0
  0
POINT
  5
276E
330
2764
100
AcDbEntity
  8
Defpoints
 62
     0
100
AcDbPoint
 10
215.5799496199761
 20
140.5243708573029
 30
0.0
  0
POINT
  5
276F
330
2764
100
AcDbEntity
  8
Defpoints
 62
     0
100
AcDbPoint
 10
224.2434390810709
 20
140.5243708573029
 30
0.0
  0
ENDBLK
  5
2771
330
2764
100
AcDbEntity
  8
0
100
AcDbBlockEnd
  0
BLOCK
  5
280A
330
2772
100
AcDbEntity
  8
0
100
AcDbBlockBegin
  2
A$C27BD67DC
 70
     0
 10
0.0
 20
0.0
 30
0.0
  3
A$C27BD67DC
  1
A$C27BD67DC
  0
LEADER
  5
2773
330
2772
100
AcDbEntity
  8
0
100
AcDbLeader
  3
ISO-25
 76
     2
 10
124.3772345200254
 20
21.90521495118309
 30
0.0
 10
130.372929216126
 20
15.33601465841211
 30
0.0
1001
ACAD
1000
DSTYLE
1002
{
1070
   147
1040
0.625
1070
    77
1070
     0
1002
}
  0
DIMENSION
  5
2774
102
{ACAD_XDICTIONARY
360
2775
102
}
102
{ACAD_REACTORS
330
2776
102
}
330
2772
100
AcDbEntity
  8
0
100
AcDbDimension
280
     0
  2
*D16
 10
123.0335621151394
 20
49.99330214247115
 30
0.0
 11
140.7697727723065
 21
38.5273569887286
 31
0.0
 12
-82.70271509995074
 22
-116.1191559061198
 32
0.0
 70
   131
  1
4-%%c3.2
 71
     5
 42
3.200000000000017
 73
     0
 74
     0
 75
     0
  3
ISO-25
100
AcDbDiametricDimension
 15
125.7209069249114
 25
48.25601175989501
 35
0.0
 40
0.0
1001
ACAD
1000
DSTYLE
1002
{
1070
   288
1070
     1
1002
}
  0
DIMENSION
  5
2777
102
{ACAD_XDICTIONARY
360
2778
102
}
102
{ACAD_REACTORS
330
2779
102
}
330
2772
100
AcDbEntity
  8
0
100
AcDbDimension
280
     0
  2
*D9
 10
127.8772345200254
 20
90.03236956525467
 30
0.0
 11
119.543901186692
 21
92.11570289858801
 31
0.0
 12
-82.70271509995074
 22
-116.1191559061198
 32
0.0
 70
    32
 71
     5
 42
5.5
 73
     0
 74
     0
 75
     0
  3
ISO-25
100
AcDbAlignedDimension
 13
133.3772345200254
 23
69.62465695118311
 33
0.0
 14
127.8772345200254
 24
78.12465695118311
 34
0.0
100
AcDbRotatedDimension
  0
DIMENSION
  5
277A
102
{ACAD_XDICTIONARY
360
277B
102
}
102
{ACAD_REACTORS
330
277C
102
}
330
2772
100
AcDbEntity
  8
0
100
AcDbDimension
280
     0
  2
*D5
 10
127.8772345200254
 20
90.03236956525467
 30
0.0
 11
89.51090001490356
 21
90.03236956525467
 31
0.0
 12
-82.70271509995074
 22
-116.1191559061198
 32
0.0
 70
   128
 71
     5
 42
76.99999999999997
 73
     0
 74
     0
 75
     0
  3
ISO-25
100
AcDbAlignedDimension
 13
50.87723452002546
 23
78.12465695118311
 33
0.0
 14
127.8772345200254
 24
78.12465695118311
 34
0.0
100
AcDbRotatedDimension
  0
LINE
  5
277D
330
2772
100
AcDbEntity
  8
CENTER
100
AcDbLine
 10
128.3772345200254
 20
74.12465695118311
 30
0.0
 11
120.3772345200254
 21
74.12465695118311
 31
0.0
  0
CIRCLE
  5
277E
330
2772
100
AcDbEntity
  8
DOTTED
100
AcDbCircle
 10
124.3772345200254
 20
49.12465695118311
 30
0.0
 40
3.0
  0
LINE
  5
277F
330
2772
100
AcDbEntity
  8
CENTER
100
AcDbLine
 10
128.3772345200254
 20
49.12465695118311
 30
0.0
 11
120.3772345200254
 21
49.12465695118311
 31
0.0
  0
LINE
  5
2780
330
2772
100
AcDbEntity
  8
DOTTED
100
AcDbLine
 10
110.3772345200254
 20
70.12465695118311
 30
0.0
 11
127.8772345200254
 21
70.12465695118311
 31
0.0
  0
LINE
  5
2781
330
2772
100
AcDbEntity
  8
DOTTED
100
AcDbLine
 10
110.3772345200254
 20
53.12465695118311
 30
0.0
 11
127.8772345200254
 21
53.12465695118311
 31
0.0
  0
CIRCLE
  5
2782
330
2772
100
AcDbEntity
  8
DOTTED
100
AcDbCircle
 10
124.3772345200254
 20
74.12465695118311
 30
0.0
 40
3.0
  0
LINE
  5
2783
330
2772
100
AcDbEntity
  8
DOTTED
100
AcDbLine
 10
127.3772345200254
 20
26.90521495118309
 30
0.0
 11
121.3772345200254
 21
26.90521495118309
 31
0.0
  0
LINE
  5
2784
102
{ACAD_REACTORS
330
2798
102
}
330
2772
100
AcDbEntity
  8
CONTINUOUS
100
AcDbLine
 10
110.3772345200254
 20
22.90521495118309
 30
0.0
 11
127.8772345200254
 21
22.90521495118309
 31
0.0
  0
LINE
  5
2785
330
2772
100
AcDbEntity
  8
DOTTED
100
AcDbLine
 10
110.3772345200254
 20
24.40521495118309
 30
0.0
 11
127.8772345200254
 21
24.40521495118309
 31
0.0
  0
LINE
  5
2786
330
2772
100
AcDbEntity
  8
DOTTED
100
AcDbLine
 10
110.3772345200254
 20
28.40521495118309
 30
0.0
 11
127.8772345200254
 21
28.40521495118309
 31
0.0
  0
LINE
  5
2787
102
{ACAD_REACTORS
330
277C
102
}
330
2772
100
AcDbEntity
  8
CONTINUOUS
100
AcDbLine
 10
50.87723452002546
 20
78.12465695118311
 30
0.0
 11
127.8772345200254
 21
78.12465695118311
 31
0.0
  0
LINE
  5
2788
102
{ACAD_REACTORS
330
27B4
102
}
330
2772
100
AcDbEntity
  8
CONTINUOUS
100
AcDbLine
 10
50.87723452002546
 20
45.12465695118311
 30
0.0
 11
127.8772345200254
 21
45.12465695118311
 31
0.0
  0
LINE
  5
2789
330
2772
100
AcDbEntity
  8
CENTER
100
AcDbLine
 10
49.87723452002548
 20
61.62465695118311
 30
0.0
 11
128.8772345200254
 21
61.62465695118311
 31
0.0
  0
LINE
  5
278A
102
{ACAD_REACTORS
330
278D
102
}
330
2772
100
AcDbEntity
  8
CONTINUOUS
100
AcDbLine
 10
50.87723452002546
 20
30.90521495118309
 30
0.0
 11
127.8772345200254
 21
30.90521495118309
 31
0.0
  0
DIMENSION
  5
278B
102
{ACAD_XDICTIONARY
360
278C
102
}
102
{ACAD_REACTORS
330
278D
102
}
330
2772
100
AcDbEntity
  8
0
100
AcDbDimension
280
     0
  2
*D15
 10
84.49433745630969
 20
28.40521495118309
 30
0.0
 11
84.49433745630967
 21
39.23854828451647
 31
0.0
 12
-82.70271509995074
 22
-116.1191559061198
 32
0.0
 70
   128
 71
     5
 42
2.5
 73
     0
 74
     0
 75
     0
  3
ISO-25
100
AcDbAlignedDimension
 13
89.37723452002543
 23
30.90521495118309
 33
0.0
 14
89.37723452002543
 24
28.40521495118309
 34
0.0
 50
90.0
100
AcDbRotatedDimension
  0
LINE
  5
278E
102
{ACAD_REACTORS
330
2798
102
}
330
2772
100
AcDbEntity
  8
CONTINUOUS
100
AcDbLine
 10
50.87723452002546
 20
22.90521495118309
 30
0.0
 11
74.87723452002544
 21
22.90521495118309
 31
0.0
  0
LINE
  5
278F
330
2772
100
AcDbEntity
  8
DOTTED
100
AcDbLine
 10
51.37723452002546
 20
26.90521495118309
 30
0.0
 11
57.37723452002548
 21
26.90521495118309
 31
0.0
  0
LINE
  5
2790
330
2772
100
AcDbEntity
  8
DOTTED
100
AcDbLine
 10
51.37723452002546
 20
26.90521495118309
 30
0.0
 11
51.37723452002546
 21
22.90521495118309
 31
0.0
  0
LINE
  5
2791
330
2772
100
AcDbEntity
  8
CONTINUOUS
100
AcDbLine
 10
50.87723452002546
 20
30.90521495118309
 30
0.0
 11
50.87723452002546
 21
22.90521495118309
 31
0.0
  0
LINE
  5
2792
330
2772
100
AcDbEntity
  8
DOTTED
100
AcDbLine
 10
52.77723452002543
 20
30.90521495118309
 30
0.0
 11
52.77723452002543
 21
26.90521495118309
 31
0.0
  0
LINE
  5
2793
330
2772
100
AcDbEntity
  8
DOTTED
100
AcDbLine
 10
57.37723452002548
 20
26.90521495118309
 30
0.0
 11
57.37723452002548
 21
22.90521495118309
 31
0.0
  0
LINE
  5
2794
330
2772
100
AcDbEntity
  8
CENTER
100
AcDbLine
 10
54.37723452002547
 20
31.90521495118309
 30
0.0
 11
54.37723452002547
 21
21.90521495118309
 31
0.0
  0
LINE
  5
2795
330
2772
100
AcDbEntity
  8
DOTTED
100
AcDbLine
 10
55.97723452002544
 20
30.90521495118309
 30
0.0
 11
55.97723452002544
 21
26.90521495118309
 31
0.0
  0
DIMENSION
  5
2796
102
{ACAD_XDICTIONARY
360
2797
102
}
102
{ACAD_REACTORS
330
2798
102
}
330
2772
100
AcDbEntity
  8
0
100
AcDbDimension
280
     0
  2
*D13
 10
110.3772345200254
 20
1.249999784244579
 30
0.0
 11
92.62723452002544
 21
3.333333117577907
 31
0.0
 12
-82.70271509995074
 22
-116.1191559061198
 32
0.0
 70
    32
 71
     5
 42
35.5
 73
     0
 74
     0
 75
     0
  3
ISO-25
100
AcDbAlignedDimension
 13
74.87723452002544
 23
22.90521495118309
 33
0.0
 14
110.3772345200254
 24
22.90521495118309
 34
0.0
100
AcDbRotatedDimension
  0
LINE
  5
2799
102
{ACAD_REACTORS
330
278D
102
}
330
2772
100
AcDbEntity
  8
CONTINUOUS
100
AcDbLine
 10
74.87723452002544
 20
28.40521495118309
 30
0.0
 11
110.3772345200254
 21
28.40521495118309
 31
0.0
  0
DIMENSION
  5
279A
102
{ACAD_XDICTIONARY
360
279B
102
}
102
{ACAD_REACTORS
330
279C
102
}
330
2772
100
AcDbEntity
  8
0
100
AcDbDimension
280
     0
  2
*D14
 10
89.37723452002543
 20
14.01768874996801
 30
0.0
 11
82.12723452002544
 21
16.10102208330135
 31
0.0
 12
-82.70271509995074
 22
-116.1191559061198
 32
0.0
 70
    32
 71
     5
 42
14.5
 73
     0
 74
     0
 75
     0
  3
ISO-25
100
AcDbAlignedDimension
 13
74.87723452002544
 23
22.28021495118309
 33
0.0
 14
89.37723452002543
 24
27.4052149511831
 34
0.0
100
AcDbRotatedDimension
  0
LINE
  5
279D
330
2772
100
AcDbEntity
  8
CONTINUOUS
100
AcDbLine
 10
76.37723452002544
 20
26.90521495118309
 30
0.0
 11
76.87723452002543
 21
26.4052149511831
 31
0.0
  0
LINE
  5
279E
330
2772
100
AcDbEntity
  8
CONTINUOUS
100
AcDbLine
 10
74.87723452002544
 20
22.90521495118309
 30
0.0
 11
74.87723452002544
 21
28.40521495118309
 31
0.0
  0
LINE
  5
279F
330
2772
100
AcDbEntity
  8
CONTINUOUS
100
AcDbLine
 10
76.87723452002543
 20
26.4052149511831
 30
0.0
 11
76.87723452002543
 21
25.90521495118309
 31
0.0
  0
LINE
  5
27A0
330
2772
100
AcDbEntity
  8
CONTINUOUS
100
AcDbLine
 10
76.87723452002543
 20
25.90521495118309
 30
0.0
 11
74.87723452002544
 21
22.90521495118309
 31
0.0
  0
LINE
  5
27A1
330
2772
100
AcDbEntity
  8
CONTINUOUS
100
AcDbLine
 10
74.87723452002544
 20
26.90521495118309
 30
0.0
 11
76.37723452002544
 21
26.90521495118309
 31
0.0
  0
LINE
  5
27A2
102
{ACAD_REACTORS
330
279C
330
278D
102
}
330
2772
100
AcDbEntity
  8
CENTER
100
AcDbLine
 10
89.37723452002543
 20
31.90521495118309
 30
0.0
 11
89.37723452002543
 21
27.4052149511831
 31
0.0
  0
LINE
  5
27A3
330
2772
100
AcDbEntity
  8
CONTINUOUS
100
AcDbLine
 10
110.3772345200254
 20
28.40521495118309
 30
0.0
 11
110.3772345200254
 21
22.90521495118309
 31
0.0
  0
LINE
  5
27A4
330
2772
100
AcDbEntity
  8
CONTINUOUS
100
AcDbLine
 10
107.5894215200254
 20
26.72839295118313
 30
0.0
 11
110.3772345200254
 21
24.40521495118309
 31
0.0
  0
LINE
  5
27A5
330
2772
100
AcDbEntity
  8
CONTINUOUS
100
AcDbLine
 10
108.8772345200254
 20
28.40521495118309
 30
0.0
 11
108.8772345200254
 21
26.90521495118309
 31
0.0
  0
ARC
  5
27A6
330
2772
100
AcDbEntity
  8
CONTINUOUS
100
AcDbCircle
 10
107.6534395200254
 20
26.80521495118313
 30
0.0
 40
0.1
100
AcDbArc
 50
90.0
 51
230.1944289999996
  0
LINE
  5
27A7
330
2772
100
AcDbEntity
  8
CONTINUOUS
100
AcDbLine
 10
107.6534395200254
 20
26.90521495118309
 30
0.0
 11
108.8772345200254
 21
26.90521495118309
 31
0.0
  0
LINE
  5
27A8
330
2772
100
AcDbEntity
  8
DOTTED
100
AcDbLine
 10
121.3772345200254
 20
26.90521495118309
 30
0.0
 11
121.3772345200254
 21
22.90521495118309
 31
0.0
  0
LINE
  5
27A9
330
2772
100
AcDbEntity
  8
CENTER
100
AcDbLine
 10
124.3772345200254
 20
31.90521495118309
 30
0.0
 11
124.3772345200254
 21
21.90521495118309
 31
0.0
  0
LINE
  5
27AA
330
2772
100
AcDbEntity
  8
DOTTED
100
AcDbLine
 10
122.7772345200254
 20
30.90521495118309
 30
0.0
 11
122.7772345200254
 21
26.90521495118309
 31
0.0
  0
LINE
  5
27AB
330
2772
100
AcDbEntity
  8
DOTTED
100
AcDbLine
 10
125.9772345200254
 20
30.90521495118309
 30
0.0
 11
125.9772345200254
 21
26.90521495118309
 31
0.0
  0
DIMENSION
  5
27AC
102
{ACAD_XDICTIONARY
360
27AD
102
}
102
{ACAD_REACTORS
330
27AE
102
}
330
2772
100
AcDbEntity
  8
DOTTED
  6
Continuous
100
AcDbDimension
280
     0
  2
*D11
 10
124.3772345200254
 20
81.56184641790416
 30
0.0
 11
89.37723452002547
 21
83.43684641790416
 31
0.0
 12
-82.70271509995074
 22
-116.1191559061198
 32
0.0
 70
    32
 71
     5
 42
69.99999999999997
 73
     0
 74
     0
 75
     0
  3
ISO-25
100
AcDbAlignedDimension
 13
54.37723452002547
 23
78.12465695118311
 33
0.0
 14
124.3772345200254
 24
78.12465695118311
 34
0.0
100
AcDbRotatedDimension
  0
DIMENSION
  5
27AF
102
{ACAD_XDICTIONARY
360
27B0
102
}
102
{ACAD_REACTORS
330
27B1
102
}
330
2772
100
AcDbEntity
  8
DOTTED
  6
Continuous
100
AcDbDimension
280
     0
  2
*D10
 10
47.8241698943861
 20
49.12465695118311
 30
0.0
 11
45.94916989438607
 21
61.62465695118314
 31
0.0
 12
-82.70271509995074
 22
-116.1191559061198
 32
0.0
 70
    32
 71
     5
 42
25.0
 73
     0
 74
     0
 75
     0
  3
ISO-25
100
AcDbAlignedDimension
 13
50.37723452002548
 23
74.12465695118311
 33
0.0
 14
50.37723452002548
 24
49.12465695118311
 34
0.0
 50
90.0
100
AcDbRotatedDimension
  0
DIMENSION
  5
27B2
102
{ACAD_XDICTIONARY
360
27B3
102
}
102
{ACAD_REACTORS
330
27B4
102
}
330
2772
100
AcDbEntity
  8
0
100
AcDbDimension
280
     0
  2
*D6
 10
38.23140221161464
 20
45.12465695118311
 30
0.0
 11
36.35640221161461
 21
61.62465695118314
 31
0.0
 12
-82.70271509995074
 22
-116.1191559061198
 32
0.0
 70
    32
 71
     5
 42
33.0
 73
     0
 74
     0
 75
     0
  3
ISO-25
100
AcDbAlignedDimension
 13
50.87723452002546
 23
78.12465695118311
 33
0.0
 14
50.87723452002546
 24
45.12465695118311
 34
0.0
 50
90.0
100
AcDbRotatedDimension
  0
LINE
  5
27B5
330
2772
100
AcDbEntity
  8
CONTINUOUS
100
AcDbLine
 10
50.87723452002546
 20
78.12465695118311
 30
0.0
 11
50.87723452002546
 21
45.12465695118311
 31
0.0
  0
CIRCLE
  5
27B6
330
2772
100
AcDbEntity
  8
DOTTED
100
AcDbCircle
 10
54.37723452002547
 20
49.12465695118311
 30
0.0
 40
3.0
  0
CIRCLE
  5
27B7
330
2772
100
AcDbEntity
  8
CONTINUOUS
100
AcDbCircle
 10
54.37723452002547
 20
49.12465695118311
 30
0.0
 40
1.6
  0
LINE
  5
27B8
102
{ACAD_REACTORS
330
27B1
102
}
330
2772
100
AcDbEntity
  8
CENTER
100
AcDbLine
 10
58.37723452002546
 20
49.12465695118311
 30
0.0
 11
50.37723452002548
 21
49.12465695118311
 31
0.0
  0
LINE
  5
27B9
330
2772
100
AcDbEntity
  8
CENTER
100
AcDbLine
 10
54.37723452002547
 20
53.12465695118311
 30
0.0
 11
54.37723452002547
 21
45.12465695118311
 31
0.0
  0
CIRCLE
  5
27BA
330
2772
100
AcDbEntity
  8
CONTINUOUS
100
AcDbCircle
 10
54.37723452002547
 20
74.12465695118311
 30
0.0
 40
1.6
  0
LINE
  5
27BB
102
{ACAD_REACTORS
330
27B1
102
}
330
2772
100
AcDbEntity
  8
CENTER
100
AcDbLine
 10
58.37723452002546
 20
74.12465695118311
 30
0.0
 11
50.37723452002548
 21
74.12465695118311
 31
0.0
  0
CIRCLE
  5
27BC
330
2772
100
AcDbEntity
  8
DOTTED
100
AcDbCircle
 10
54.37723452002547
 20
74.12465695118311
 30
0.0
 40
3.0
  0
LINE
  5
27BD
102
{ACAD_REACTORS
330
27AE
102
}
330
2772
100
AcDbEntity
  8
CENTER
100
AcDbLine
 10
54.37723452002547
 20
78.12465695118311
 30
0.0
 11
54.37723452002547
 21
70.12465695118311
 31
0.0
  0
LINE
  5
27BE
330
2772
100
AcDbEntity
  8
CENTER
100
AcDbLine
 10
89.37723452002543
 20
79.12465695118311
 30
0.0
 11
89.37723452002543
 21
44.12465695118311
 31
0.0
  0
LINE
  5
27BF
330
2772
100
AcDbEntity
  8
DOTTED
100
AcDbLine
 10
74.87723452002544
 20
78.12465695118311
 30
0.0
 11
74.87723452002544
 21
45.12465695118311
 31
0.0
  0
LINE
  5
27C0
330
2772
100
AcDbEntity
  8
DOTTED
100
AcDbLine
 10
76.87723452002543
 20
51.62465695118311
 30
0.0
 11
76.87723452002543
 21
48.62465695118311
 31
0.0
  0
LINE
  5
27C1
330
2772
100
AcDbEntity
  8
DOTTED
100
AcDbLine
 10
76.87723452002543
 20
48.62465695118311
 30
0.0
 11
74.87723452002544
 21
48.62465695118311
 31
0.0
  0
LINE
  5
27C2
330
2772
100
AcDbEntity
  8
DOTTED
100
AcDbLine
 10
74.87723452002544
 20
51.62465695118311
 30
0.0
 11
76.87723452002543
 21
51.62465695118311
 31
0.0
  0
LINE
  5
27C3
330
2772
100
AcDbEntity
  8
DOTTED
100
AcDbLine
 10
76.87723452002543
 20
74.62465695118311
 30
0.0
 11
76.87723452002543
 21
71.62465695118311
 31
0.0
  0
LINE
  5
27C4
330
2772
100
AcDbEntity
  8
DOTTED
100
AcDbLine
 10
74.87723452002544
 20
71.62465695118311
 30
0.0
 11
76.87723452002543
 21
71.62465695118311
 31
0.0
  0
LINE
  5
27C5
330
2772
100
AcDbEntity
  8
DOTTED
100
AcDbLine
 10
74.87723452002544
 20
74.62465695118311
 30
0.0
 11
76.87723452002543
 21
74.62465695118311
 31
0.0
  0
LINE
  5
27C6
330
2772
100
AcDbEntity
  8
DOTTED
100
AcDbLine
 10
107.3772345200254
 20
68.87465695118311
 30
0.0
 11
107.3772345200254
 21
54.37465695118311
 31
0.0
  0
LINE
  5
27C7
330
2772
100
AcDbEntity
  8
DOTTED
100
AcDbLine
 10
110.3772345200254
 20
78.12465695118311
 30
0.0
 11
110.3772345200254
 21
45.12465695118311
 31
0.0
  0
LINE
  5
27C8
330
2772
100
AcDbEntity
  8
DOTTED
100
AcDbLine
 10
110.3772345200254
 20
54.37465695118311
 30
0.0
 11
107.3772345200254
 21
54.37465695118311
 31
0.0
  0
LINE
  5
27C9
330
2772
100
AcDbEntity
  8
CENTER
100
AcDbLine
 10
124.3772345200254
 20
53.12465695118311
 30
0.0
 11
124.3772345200254
 21
45.12465695118311
 31
0.0
  0
CIRCLE
  5
27CA
102
{ACAD_REACTORS
330
2776
102
}
330
2772
100
AcDbEntity
  8
CONTINUOUS
100
AcDbCircle
 10
124.3772345200254
 20
49.12465695118311
 30
0.0
 40
1.6
  0
LINE
  5
27CB
330
2772
100
AcDbEntity
  8
DOTTED
100
AcDbLine
 10
107.3772345200254
 20
68.87465695118311
 30
0.0
 11
110.3772345200254
 21
68.87465695118311
 31
0.0
  0
CIRCLE
  5
27CC
330
2772
100
AcDbEntity
  8
CONTINUOUS
100
AcDbCircle
 10
124.3772345200254
 20
74.12465695118311
 30
0.0
 40
1.6
  0
LINE
  5
27CD
102
{ACAD_REACTORS
330
27AE
102
}
330
2772
100
AcDbEntity
  8
CENTER
100
AcDbLine
 10
124.3772345200254
 20
78.12465695118311
 30
0.0
 11
124.3772345200254
 21
70.12465695118311
 31
0.0
  0
DIMENSION
  5
27CE
102
{ACAD_XDICTIONARY
360
27CF
102
}
102
{ACAD_REACTORS
330
27D0
102
}
330
2772
100
AcDbEntity
  8
0
100
AcDbDimension
280
     0
  2
*D17
 10
141.5407239811202
 20
24.40521495118309
 30
0.0
 11
139.6657239811201
 21
26.40521495118315
 31
0.0
 12
-82.70271509995074
 22
-116.1191559061198
 32
0.0
 70
    32
 71
     5
 42
4.0
 73
     0
 74
     0
 75
     0
  3
ISO-25
100
AcDbAlignedDimension
 13
132.8772345200254
 23
28.40521495118309
 33
0.0
 14
132.8772345200254
 24
24.40521495118309
 34
0.0
 50
90.0
100
AcDbRotatedDimension
  0
MTEXT
  5
27D1
330
2772
100
AcDbEntity
  8
0
100
AcDbMText
 10
127.5840091692676
 20
14.18810364899849
 30
0.0
 40
2.5
 41
24.44409999999999
 46
0.0
 71
     1
 72
     5
  1
M3{\fMS UI Gothic|b0|i0|c128|p17;ネジ用穴}
 73
     1
 44
1.0
  0
LINE
  5
27D2
330
2772
100
AcDbEntity
  8
CONTINUOUS
100
AcDbLine
 10
133.3772345200254
 20
27.90521495118309
 30
0.0
 11
133.3772345200254
 21
24.9052149511831
 31
0.0
  0
LINE
  5
27D3
330
2772
100
AcDbEntity
  8
DOTTED
100
AcDbLine
 10
128.8772345200254
 20
28.40521495118309
 30
0.0
 11
128.8772345200254
 21
24.40521495118309
 31
0.0
  0
LINE
  5
27D4
102
{ACAD_REACTORS
330
27D0
102
}
330
2772
100
AcDbEntity
  8
DOTTED
100
AcDbLine
 10
132.8772345200254
 20
28.40521495118309
 30
0.0
 11
132.8772345200254
 21
24.40521495118309
 31
0.0
  0
LINE
  5
27D5
330
2772
100
AcDbEntity
  8
DOTTED
100
AcDbLine
 10
130.8772345200254
 20
28.40521495118309
 30
0.0
 11
130.8772345200254
 21
24.40521495118309
 31
0.0
  0
LINE
  5
27D6
330
2772
100
AcDbEntity
  8
DOTTED
100
AcDbLine
 10
127.3772345200254
 20
26.90521495118309
 30
0.0
 11
127.3772345200254
 21
22.90521495118309
 31
0.0
  0
LINE
  5
27D7
330
2772
100
AcDbEntity
  8
CONTINUOUS
100
AcDbLine
 10
127.8772345200254
 20
30.90521495118309
 30
0.0
 11
127.8772345200254
 21
22.90521495118309
 31
0.0
  0
LINE
  5
27D8
330
2772
100
AcDbEntity
  8
CONTINUOUS
100
AcDbLine
 10
127.8772345200254
 20
24.40521495118309
 30
0.0
 11
132.8772345200254
 21
24.40521495118309
 31
0.0
  0
ARC
  5
27D9
330
2772
100
AcDbEntity
  8
CONTINUOUS
100
AcDbCircle
 10
132.8772345200254
 20
24.9052149511831
 30
0.0
 40
0.5
100
AcDbArc
 50
270.0
 51
0.0
  0
LINE
  5
27DA
330
2772
100
AcDbEntity
  8
CONTINUOUS
100
AcDbLine
 10
127.8772345200254
 20
28.40521495118309
 30
0.0
 11
132.8772345200254
 21
28.40521495118309
 31
0.0
  0
ARC
  5
27DB
330
2772
100
AcDbEntity
  8
CONTINUOUS
100
AcDbCircle
 10
132.8772345200254
 20
27.90521495118309
 30
0.0
 40
0.5
100
AcDbArc
 50
0.0
 51
90.0
  0
DIMENSION
  5
27DC
102
{ACAD_XDICTIONARY
360
27DD
102
}
102
{ACAD_REACTORS
330
27DE
102
}
330
2772
100
AcDbEntity
  8
DOTTED
  6
Continuous
100
AcDbDimension
280
     0
  2
*D12
 10
151.2535705200254
 20
81.56184641790416
 30
0.0
 11
153.2535705200254
 21
83.43684641790416
 31
0.0
 12
-82.70271509995074
 22
-116.1191559061198
 32
0.0
 70
    32
 71
     5
 42
4.0
 73
     0
 74
     0
 75
     0
  3
ISO-25
100
AcDbAlignedDimension
 13
155.2535705200254
 23
77.12465695118311
 33
0.0
 14
151.2535705200254
 24
78.12465695118311
 34
0.0
100
AcDbRotatedDimension
  0
DIMENSION
  5
27DF
102
{ACAD_XDICTIONARY
360
27E0
102
}
102
{ACAD_REACTORS
330
27E1
102
}
330
2772
100
AcDbEntity
  8
0
100
AcDbDimension
280
     0
  2
*D7
 10
159.2535705200254
 20
90.03236956525467
 30
0.0
 11
155.2535705200254
 21
91.90736956525467
 31
0.0
 12
-82.70271509995074
 22
-116.1191559061198
 32
0.0
 70
    32
 71
     5
 42
8.0
 73
     0
 74
     0
 75
     0
  3
ISO-25
100
AcDbAlignedDimension
 13
151.2535705200254
 23
78.12465695118311
 33
0.0
 14
159.2535705200254
 24
78.12465695118311
 34
0.0
100
AcDbRotatedDimension
  0
LINE
  5
27E2
330
2772
100
AcDbEntity
  8
CENTER
100
AcDbLine
 10
150.2535705200254
 20
74.12465695118311
 30
0.0
 11
160.2535705200254
 21
74.12465695118311
 31
0.0
  0
LINE
  5
27E3
330
2772
100
AcDbEntity
  8
CENTER
100
AcDbLine
 10
150.2535705200254
 20
49.12465695118311
 30
0.0
 11
160.2535705200254
 21
49.12465695118311
 31
0.0
  0
DIMENSION
  5
27E4
102
{ACAD_XDICTIONARY
360
27E5
102
}
102
{ACAD_REACTORS
330
27E6
102
}
330
2772
100
AcDbEntity
  8
0
100
AcDbDimension
280
     0
  2
*D8
 10
141.4838011136295
 20
53.12465695118311
 30
0.0
 11
139.6088011136294
 21
61.62465695118317
 31
0.0
 12
-82.70271509995074
 22
-116.1191559061198
 32
0.0
 70
    32
 71
     5
 42
17.0
 73
     0
 74
     0
 75
     0
  3
ISO-25
100
AcDbAlignedDimension
 13
132.8772345200254
 23
70.12465695118311
 33
0.0
 14
132.8772345200254
 24
53.12465695118311
 34
0.0
 50
90.0
100
AcDbRotatedDimension
  0
LINE
  5
27E7
330
2772
100
AcDbEntity
  8
CONTINUOUS
100
AcDbLine
 10
153.7535705200254
 20
70.12465695118311
 30
0.0
 11
153.7535705200254
 21
53.12465695118311
 31
0.0
  0
LINE
  5
27E8
330
2772
100
AcDbEntity
  8
CONTINUOUS
100
AcDbLine
 10
157.7535705200254
 20
70.12465695118311
 30
0.0
 11
157.7535705200254
 21
53.12465695118311
 31
0.0
  0
LINE
  5
27E9
102
{ACAD_REACTORS
330
27E1
102
}
330
2772
100
AcDbEntity
  8
CONTINUOUS
100
AcDbLine
 10
151.2535705200254
 20
78.12465695118311
 30
0.0
 11
151.2535705200254
 21
45.12465695118311
 31
0.0
  0
LINE
  5
27EA
102
{ACAD_REACTORS
330
2779
102
}
330
2772
100
AcDbEntity
  8
CONTINUOUS
100
AcDbLine
 10
133.3772345200254
 20
69.62465695118311
 30
0.0
 11
133.3772345200254
 21
53.62465695118311
 31
0.0
  0
LINE
  5
27EB
330
2772
100
AcDbEntity
  8
CONTINUOUS
100
AcDbLine
 10
127.8772345200254
 20
78.12465695118311
 30
0.0
 11
127.8772345200254
 21
45.12465695118311
 31
0.0
  0
LINE
  5
27EC
102
{ACAD_REACTORS
330
27E6
102
}
330
2772
100
AcDbEntity
  8
CONTINUOUS
100
AcDbLine
 10
127.8772345200254
 20
53.12465695118311
 30
0.0
 11
132.8772345200254
 21
53.12465695118311
 31
0.0
  0
ARC
  5
27ED
330
2772
100
AcDbEntity
  8
CONTINUOUS
100
AcDbCircle
 10
132.8772345200254
 20
53.62465695118311
 30
0.0
 40
0.5
100
AcDbArc
 50
270.0
 51
0.0
  0
LINE
  5
27EE
330
2772
100
AcDbEntity
  8
DOTTED
100
AcDbLine
 10
151.2535705200254
 20
50.7246569511831
 30
0.0
 11
155.2535705200254
 21
50.7246569511831
 31
0.0
  0
LINE
  5
27EF
330
2772
100
AcDbEntity
  8
DOTTED
100
AcDbLine
 10
151.2535705200254
 20
47.52465695118312
 30
0.0
 11
155.2535705200254
 21
47.52465695118312
 31
0.0
  0
LINE
  5
27F0
330
2772
100
AcDbEntity
  8
CONTINUOUS
100
AcDbLine
 10
151.2535705200254
 20
45.12465695118311
 30
0.0
 11
159.2535705200254
 21
45.12465695118311
 31
0.0
  0
LINE
  5
27F1
330
2772
100
AcDbEntity
  8
CONTINUOUS
100
AcDbLine
 10
159.2535705200254
 20
54.12465695118311
 30
0.0
 11
159.2535705200254
 21
45.12465695118311
 31
0.0
  0
LINE
  5
27F2
330
2772
100
AcDbEntity
  8
DOTTED
100
AcDbLine
 10
155.2535705200254
 20
46.12465695118311
 30
0.0
 11
155.2535705200254
 21
52.12465695118311
 31
0.0
  0
LINE
  5
27F3
330
2772
100
AcDbEntity
  8
DOTTED
100
AcDbLine
 10
155.2535705200254
 20
46.12465695118311
 30
0.0
 11
159.2535705200254
 21
46.12465695118311
 31
0.0
  0
LINE
  5
27F4
330
2772
100
AcDbEntity
  8
CONTINUOUS
100
AcDbLine
 10
153.7535705200254
 20
53.12465695118311
 30
0.0
 11
157.7535705200254
 21
53.12465695118311
 31
0.0
  0
LINE
  5
27F5
330
2772
100
AcDbEntity
  8
DOTTED
100
AcDbLine
 10
155.2535705200254
 20
52.12465695118311
 30
0.0
 11
159.2535705200254
 21
52.12465695118311
 31
0.0
  0
LINE
  5
27F6
330
2772
100
AcDbEntity
  8
CONTINUOUS
100
AcDbLine
 10
157.7535705200254
 20
54.12465695118311
 30
0.0
 11
159.2535705200254
 21
54.12465695118311
 31
0.0
  0
ARC
  5
27F7
330
2772
100
AcDbEntity
  8
CONTINUOUS
100
AcDbCircle
 10
130.8772345200254
 20
61.62465695118311
 30
0.0
 40
2.0
100
AcDbArc
 50
270.0
 51
90.0
  0
LINE
  5
27F8
330
2772
100
AcDbEntity
  8
CONTINUOUS
100
AcDbLine
 10
128.8772345200254
 20
65.62465695118311
 30
0.0
 11
128.8772345200254
 21
57.62465695118311
 31
0.0
  0
LINE
  5
27F9
330
2772
100
AcDbEntity
  8
CONTINUOUS
100
AcDbLine
 10
128.8772345200254
 20
57.62465695118311
 30
0.0
 11
130.8772345200254
 21
57.62465695118311
 31
0.0
  0
LINE
  5
27FA
330
2772
100
AcDbEntity
  8
CONTINUOUS
100
AcDbLine
 10
130.8772345200254
 20
59.62465695118311
 30
0.0
 11
130.8772345200254
 21
57.62465695118311
 31
0.0
  0
LINE
  5
27FB
330
2772
100
AcDbEntity
  8
CONTINUOUS
100
AcDbLine
 10
130.8772345200254
 20
65.62465695118311
 30
0.0
 11
130.8772345200254
 21
63.62465695118311
 31
0.0
  0
LINE
  5
27FC
330
2772
100
AcDbEntity
  8
CONTINUOUS
100
AcDbLine
 10
128.8772345200254
 20
65.62465695118311
 30
0.0
 11
130.8772345200254
 21
65.62465695118311
 31
0.0
  0
LINE
  5
27FD
102
{ACAD_REACTORS
330
27E6
102
}
330
2772
100
AcDbEntity
  8
CONTINUOUS
100
AcDbLine
 10
127.8772345200254
 20
70.12465695118311
 30
0.0
 11
132.8772345200254
 21
70.12465695118311
 31
0.0
  0
ARC
  5
27FE
330
2772
100
AcDbEntity
  8
CONTINUOUS
100
AcDbCircle
 10
132.8772345200254
 20
69.62465695118311
 30
0.0
 40
0.5
100
AcDbArc
 50
0.0
 51
90.0
  0
LINE
  5
27FF
330
2772
100
AcDbEntity
  8
CENTER
100
AcDbLine
 10
150.2535705200254
 20
61.62465695118311
 30
0.0
 11
158.7535705200254
 21
61.62465695118311
 31
0.0
  0
LINE
  5
2800
102
{ACAD_REACTORS
330
27E1
102
}
330
2772
100
AcDbEntity
  8
CONTINUOUS
100
AcDbLine
 10
151.2535705200254
 20
78.12465695118311
 30
0.0
 11
159.2535705200254
 21
78.12465695118311
 31
0.0
  0
LINE
  5
2801
330
2772
100
AcDbEntity
  8
DOTTED
100
AcDbLine
 10
151.2535705200254
 20
75.72465695118309
 30
0.0
 11
155.2535705200254
 21
75.72465695118309
 31
0.0
  0
LINE
  5
2802
330
2772
100
AcDbEntity
  8
DOTTED
100
AcDbLine
 10
151.2535705200254
 20
72.52465695118313
 30
0.0
 11
155.2535705200254
 21
72.52465695118313
 31
0.0
  0
LINE
  5
2803
330
2772
100
AcDbEntity
  8
CONTINUOUS
100
AcDbLine
 10
159.2535705200254
 20
78.12465695118311
 30
0.0
 11
159.2535705200254
 21
69.12465695118311
 31
0.0
  0
LINE
  5
2804
102
{ACAD_REACTORS
330
27DE
102
}
330
2772
100
AcDbEntity
  8
DOTTED
100
AcDbLine
 10
155.2535705200254
 20
77.12465695118311
 30
0.0
 11
155.2535705200254
 21
71.12465695118311
 31
0.0
  0
LINE
  5
2805
330
2772
100
AcDbEntity
  8
CONTINUOUS
100
AcDbLine
 10
153.7535705200254
 20
70.12465695118311
 30
0.0
 11
157.7535705200254
 21
70.12465695118311
 31
0.0
  0
LINE
  5
2806
330
2772
100
AcDbEntity
  8
DOTTED
100
AcDbLine
 10
155.2535705200254
 20
71.12465695118311
 30
0.0
 11
159.2535705200254
 21
71.12465695118311
 31
0.0
  0
LINE
  5
2807
330
2772
100
AcDbEntity
  8
CONTINUOUS
100
AcDbLine
 10
157.7535705200254
 20
69.12465695118311
 30
0.0
 11
159.2535705200254
 21
69.12465695118311
 31
0.0
  0
LINE
  5
2808
330
2772
100
AcDbEntity
  8
DOTTED
100
AcDbLine
 10
155.2535705200254
 20
77.12465695118311
 30
0.0
 11
159.2535705200254
 21
77.12465695118311
 31
0.0
  0
MTEXT
  5
2809
330
2772
100
AcDbEntity
  8
GAIKEI
100
AcDbMText
 10
-0.000000287488092
 20
136.5341353288614
 30
0.0
 40
3.0
 41
106.2100999999999
 46
0.0
 71
     1
 72
     5
  1
{\Fsimplex.shx,bigfont.shx;DINレール取付プレート 外形図\P型番：SI-DIN70}
 73
     1
 44
1.0
  0
ENDBLK
  5
280B
330
2772
100
AcDbEntity
  8
0
100
AcDbBlockEnd
  0
BLOCK
  5
4E5E
330
4E5D
100
AcDbEntity
  8
0
100
AcDbBlockBegin
  2
*D101
 70
     1
 10
0.0
 20
0.0
 30
0.0
  3
*D101
  1

  0
LINE
  5
4FAA
330
4E5D
100
AcDbEntity
  8
寸法
440
 16777216
100
AcDbLine
 10
58.67649785687252
 20
191.8200947569666
 30
0.0
 11
58.67649785687252
 21
194.68345812002
 31
0.0
  0
LINE
  5
4FAB
330
4E5D
100
AcDbEntity
  8
寸法
440
 16777216
100
AcDbLine
 10
84.17650008133694
 20
177.5700959576176
 30
0.0
 11
84.17650008133694
 21
194.68345812002
 31
0.0
  0
LINE
  5
4FAC
330
4E5D
100
AcDbEntity
  8
寸法
440
 16777216
100
AcDbLine
 10
60.67649785687251
 20
193.68345812002
 30
0.0
 11
82.17650008133693
 21
193.68345812002
 31
0.0
  0
SOLID
  5
4FAD
330
4E5D
100
AcDbEntity
  8
寸法
440
 16777216
100
AcDbTrace
 10
60.67649785687251
 20
194.0167914533533
 30
0.0
 11
60.67649785687251
 21
193.3501247866866
 31
0.0
 12
58.67649785687252
 22
193.68345812002
 32
0.0
 13
58.67649785687252
 23
193.68345812002
 33
0.0
  0
SOLID
  5
4FAE
330
4E5D
100
AcDbEntity
  8
寸法
440
 16777216
100
AcDbTrace
 10
82.17650008133693
 20
194.0167914533533
 30
0.0
 11
82.17650008133693
 21
193.3501247866866
 31
0.0
 12
84.17650008133694
 22
193.68345812002
 32
0.0
 13
84.17650008133694
 23
193.68345812002
 33
0.0
  0
MTEXT
  5
4FAF
330
4E5D
100
AcDbEntity
  8
寸法
440
 16777216
100
AcDbMText
 10
72.67650008133694
 20
195.93345812002
 30
0.0
 40
2.5
 41
0.0
 46
0.0
 71
     5
 72
     1
  1
\A1;25.5
 73
     1
 44
1.0
  0
POINT
  5
4FB0
330
4E5D
100
AcDbEntity
  8
Defpoints
 62
     0
440
 16777216
100
AcDbPoint
 10
58.67649785687252
 20
190.8200947569666
 30
0.0
  0
POINT
  5
4FB1
330
4E5D
100
AcDbEntity
  8
Defpoints
 62
     0
440
 16777216
100
AcDbPoint
 10
84.17650008133694
 20
176.5700959576176
 30
0.0
  0
POINT
  5
4FB2
330
4E5D
100
AcDbEntity
  8
Defpoints
 62
     0
440
 16777216
100
AcDbPoint
 10
84.17650008133694
 20
193.68345812002
 30
0.0
  0
ENDBLK
  5
4E5F
330
4E5D
100
AcDbEntity
  8
0
100
AcDbBlockEnd
  0
BLOCK
  5
4E6A
330
4E69
100
AcDbEntity
  8
0
100
AcDbBlockBegin
  2
*D102
 70
     1
 10
0.0
 20
0.0
 30
0.0
  3
*D102
  1

  0
LINE
  5
4FB3
330
4E69
100
AcDbEntity
  8
寸法
440
 16777216
100
AcDbLine
 10
33.17650008133694
 20
177.5700959576176
 30
0.0
 11
33.17650008133694
 21
194.6834577492761
 31
0.0
  0
LINE
  5
4FB4
330
4E69
100
AcDbEntity
  8
寸法
440
 16777216
100
AcDbLine
 10
58.67650008133693
 20
191.8200959576178
 30
0.0
 11
58.67650008133693
 21
194.6834577492761
 31
0.0
  0
LINE
  5
4FB5
330
4E69
100
AcDbEntity
  8
寸法
440
 16777216
100
AcDbLine
 10
35.17650008133694
 20
193.6834577492761
 30
0.0
 11
56.67650008133694
 21
193.6834577492761
 31
0.0
  0
SOLID
  5
4FB6
330
4E69
100
AcDbEntity
  8
寸法
440
 16777216
100
AcDbTrace
 10
35.17650008133694
 20
194.0167910826094
 30
0.0
 11
35.17650008133694
 21
193.3501244159428
 31
0.0
 12
33.17650008133694
 22
193.6834577492761
 32
0.0
 13
33.17650008133694
 23
193.6834577492761
 33
0.0
  0
SOLID
  5
4FB7
330
4E69
100
AcDbEntity
  8
寸法
440
 16777216
100
AcDbTrace
 10
56.67650008133694
 20
194.0167910826094
 30
0.0
 11
56.67650008133694
 21
193.3501244159428
 31
0.0
 12
58.67650008133693
 22
193.6834577492761
 32
0.0
 13
58.67650008133693
 23
193.6834577492761
 33
0.0
  0
MTEXT
  5
4FB8
330
4E69
100
AcDbEntity
  8
寸法
440
 16777216
100
AcDbMText
 10
44.67650008133694
 20
195.9334577492761
 30
0.0
 40
2.5
 41
0.0
 46
0.0
 71
     5
 72
     1
  1
\A1;25.5
 73
     1
 44
1.0
  0
POINT
  5
4FB9
330
4E69
100
AcDbEntity
  8
Defpoints
 62
     0
440
 16777216
100
AcDbPoint
 10
33.17650008133694
 20
176.5700959576176
 30
0.0
  0
POINT
  5
4FBA
330
4E69
100
AcDbEntity
  8
Defpoints
 62
     0
440
 16777216
100
AcDbPoint
 10
58.67650008133693
 20
190.8200959576178
 30
0.0
  0
POINT
  5
4FBB
330
4E69
100
AcDbEntity
  8
Defpoints
 62
     0
440
 16777216
100
AcDbPoint
 10
58.67650008133693
 20
193.6834577492761
 30
0.0
  0
ENDBLK
  5
4E6B
330
4E69
100
AcDbEntity
  8
0
100
AcDbBlockEnd
  0
BLOCK
  5
4E76
330
4E75
100
AcDbEntity
  8
0
100
AcDbBlockBegin
  2
*D103
 70
     1
 10
0.0
 20
0.0
 30
0.0
  3
*D103
  1

  0
LINE
  5
4F90
330
4E75
100
AcDbEntity
  8
寸法
440
 16777216
100
AcDbLine
 10
18.18010047552808
 20
156.4275813843386
 30
0.0
 11
27.62988652850638
 21
149.8738386709773
 31
0.0
  0
LINE
  5
4F91
330
4E75
100
AcDbEntity
  8
寸法
440
 16777216
100
AcDbLine
 10
38.72311363417387
 20
142.1803146161637
 30
0.0
 11
40.36655468686574
 21
141.0405332747095
 31
0.0
  0
MTEXT
  5
4F92
330
4E75
100
AcDbEntity
  8
寸法
440
 16777216
100
AcDbMText
 10
23.36552698480721
 20
155.5694718826634
 30
0.0
 40
2.5
 41
0.0
 46
0.0
 71
     5
 72
     1
  1
\A1;∅9.5
 11
0.8217205263459394
 21
-0.5698906707270722
 31
0.0
 73
     1
 44
1.0
  0
LINE
  5
4F93
330
4E75
100
AcDbEntity
  8
寸法
440
 16777216
100
AcDbLine
 10
37.07967258148199
 20
143.3200959576178
 30
0.0
 11
29.27332758119826
 21
148.7340573295232
 31
0.0
  0
SOLID
  5
4F94
330
4E75
100
AcDbEntity
  8
寸法
440
 16777216
100
AcDbTrace
 10
38.9130771910829
 20
142.454221458279
 30
0.0
 11
38.53315007726483
 21
141.9064077740483
 31
0.0
 12
37.07967258148199
 22
143.3200959576178
 32
0.0
 13
37.07967258148199
 23
143.3200959576178
 33
0.0
  0
SOLID
  5
4F95
330
4E75
100
AcDbEntity
  8
寸法
440
 16777216
100
AcDbTrace
 10
27.81985008541542
 20
150.1477455130926
 30
0.0
 11
27.43992297159735
 21
149.599931828862
 31
0.0
 12
29.27332758119826
 22
148.7340573295232
 32
0.0
 13
29.27332758119826
 23
148.7340573295232
 33
0.0
  0
POINT
  5
4F96
330
4E75
100
AcDbEntity
  8
Defpoints
 62
     0
440
 16777216
100
AcDbPoint
 10
29.27332758119826
 20
148.7340573295232
 30
0.0
  0
POINT
  5
4F97
330
4E75
100
AcDbEntity
  8
Defpoints
 62
     0
440
 16777216
100
AcDbPoint
 10
37.07967258148199
 20
143.3200959576178
 30
0.0
  0
ENDBLK
  5
4E77
330
4E75
100
AcDbEntity
  8
0
100
AcDbBlockEnd
  0
BLOCK
  5
4E81
330
4E80
100
AcDbEntity
  8
0
100
AcDbBlockBegin
  2
*D104
 70
     1
 10
0.0
 20
0.0
 30
0.0
  3
*D104
  1

  0
LINE
  5
505D
330
4E80
100
AcDbEntity
  8
寸法
440
 16777216
100
AcDbLine
 10
177.5801211214879
 20
182.3200959576181
 30
0.0
 11
177.5801211214879
 21
198.7500246587903
 31
0.0
  0
LINE
  5
505E
330
4E80
100
AcDbEntity
  8
寸法
440
 16777216
100
AcDbLine
 10
203.0801211214874
 20
179.6745196676883
 30
0.0
 11
203.0801211214874
 21
198.7500246587903
 31
0.0
  0
LINE
  5
505F
330
4E80
100
AcDbEntity
  8
寸法
440
 16777216
100
AcDbLine
 10
179.5801211214879
 20
197.7500246587903
 30
0.0
 11
201.0801211214874
 21
197.7500246587903
 31
0.0
  0
SOLID
  5
5060
330
4E80
100
AcDbEntity
  8
寸法
440
 16777216
100
AcDbTrace
 10
179.5801211214879
 20
198.0833579921236
 30
0.0
 11
179.5801211214879
 21
197.416691325457
 31
0.0
 12
177.5801211214879
 22
197.7500246587903
 32
0.0
 13
177.5801211214879
 23
197.7500246587903
 33
0.0
  0
SOLID
  5
5061
330
4E80
100
AcDbEntity
  8
寸法
440
 16777216
100
AcDbTrace
 10
201.0801211214874
 20
198.0833579921236
 30
0.0
 11
201.0801211214874
 21
197.416691325457
 31
0.0
 12
203.0801211214874
 22
197.7500246587903
 32
0.0
 13
203.0801211214874
 23
197.7500246587903
 33
0.0
  0
MTEXT
  5
5062
330
4E80
100
AcDbEntity
  8
寸法
440
 16777216
100
AcDbMText
 10
190.3301211214876
 20
200.0000246587903
 30
0.0
 40
2.5
 41
0.0
 46
0.0
 71
     5
 72
     1
  1
\A1;25.5
 73
     1
 44
1.0
  0
POINT
  5
5063
330
4E80
100
AcDbEntity
  8
Defpoints
 62
     0
440
 16777216
100
AcDbPoint
 10
177.5801211214879
 20
181.3200959576181
 30
0.0
  0
POINT
  5
5064
330
4E80
100
AcDbEntity
  8
Defpoints
 62
     0
440
 16777216
100
AcDbPoint
 10
203.0801211214874
 20
178.6745196676883
 30
0.0
  0
POINT
  5
5065
330
4E80
100
AcDbEntity
  8
Defpoints
 62
     0
440
 16777216
100
AcDbPoint
 10
203.0801211214874
 20
197.7500246587903
 30
0.0
  0
ENDBLK
  5
4E82
330
4E80
100
AcDbEntity
  8
0
100
AcDbBlockEnd
  0
BLOCK
  5
4E8D
330
4E8C
100
AcDbEntity
  8
0
100
AcDbBlockBegin
  2
*D105
 70
     1
 10
0.0
 20
0.0
 30
0.0
  3
*D105
  1

  0
LINE
  5
5043
330
4E8C
100
AcDbEntity
  8
寸法
440
 16777216
100
AcDbLine
 10
238.8233548545513
 20
194.5345243210228
 30
0.0
 11
200.3618845671201
 21
171.3517489515342
 31
0.0
  0
LINE
  5
5044
330
4E8C
100
AcDbEntity
  8
寸法
440
 16777216
100
AcDbLine
 10
194.1183576758554
 20
167.5884429637012
 30
0.0
 11
192.405455922422
 21
166.5559859025674
 31
0.0
  0
MTEXT
  5
5045
330
4E8C
100
AcDbEntity
  8
寸法
440
 16777216
100
AcDbMText
 10
226.7687962516147
 20
190.326940453255
 30
0.0
 40
2.5
 41
0.0
 46
0.0
 71
     5
 72
     1
  1
\A1;2-∅3.3キリ穴
 11
0.8564508767166525
 21
0.5162285305669158
 31
0.0
 73
     1
 44
1.0
  0
LINE
  5
5046
330
4E8C
100
AcDbEntity
  8
寸法
440
 16777216
100
AcDbLine
 10
195.8312594292886
 20
168.620900024835
 30
0.0
 11
198.6489828136868
 21
170.3192918904004
 31
0.0
  0
SOLID
  5
5047
330
4E8C
100
AcDbEntity
  8
寸法
440
 16777216
100
AcDbTrace
 10
193.9462814989997
 20
167.8739265892734
 30
0.0
 11
194.290433852711
 21
167.302959338129
 31
0.0
 12
195.8312594292886
 22
168.620900024835
 32
0.0
 13
195.8312594292886
 23
168.620900024835
 33
0.0
  0
SOLID
  5
5048
330
4E8C
100
AcDbEntity
  8
寸法
440
 16777216
100
AcDbTrace
 10
200.1898083902645
 20
171.6372325771065
 30
0.0
 11
200.5339607439757
 21
171.066265325962
 31
0.0
 12
198.6489828136868
 22
170.3192918904004
 32
0.0
 13
198.6489828136868
 23
170.3192918904004
 33
0.0
  0
POINT
  5
5049
330
4E8C
100
AcDbEntity
  8
Defpoints
 62
     0
440
 16777216
100
AcDbPoint
 10
198.6489828136868
 20
170.3192918904004
 30
0.0
  0
POINT
  5
504A
330
4E8C
100
AcDbEntity
  8
Defpoints
 62
     0
440
 16777216
100
AcDbPoint
 10
195.8312594292886
 20
168.620900024835
 30
0.0
  0
ENDBLK
  5
4E8E
330
4E8C
100
AcDbEntity
  8
0
100
AcDbBlockEnd
  0
BLOCK
  5
4E98
330
4E97
100
AcDbEntity
  8
0
100
AcDbBlockBegin
  2
*D106
 70
     1
 10
0.0
 20
0.0
 30
0.0
  3
*D106
  1

  0
LINE
  5
4FCF
330
4E97
100
AcDbEntity
  8
寸法
440
 16777216
100
AcDbLine
 10
208.7051211214879
 20
161.3200959576178
 30
0.0
 11
213.7192880274533
 21
161.3200959576178
 31
0.0
  0
LINE
  5
4FD0
330
4E97
100
AcDbEntity
  8
寸法
440
 16777216
100
AcDbLine
 10
195.0100655700656
 20
163.3200959576178
 30
0.0
 11
213.7192880274533
 21
163.3200959576178
 31
0.0
  0
LINE
  5
4FD1
330
4E97
100
AcDbEntity
  8
寸法
440
 16777216
100
AcDbLine
 10
212.4692880274532
 20
158.8200959576179
 30
0.0
 11
212.4692880274532
 21
156.3200959576178
 31
0.0
  0
LINE
  5
4FD2
330
4E97
100
AcDbEntity
  8
寸法
440
 16777216
100
AcDbLine
 10
212.4692880274532
 20
165.8200959576178
 30
0.0
 11
212.4692880274532
 21
171.6534292909517
 31
0.0
  0
LINE
  5
4FD3
330
4E97
100
AcDbEntity
  8
寸法
440
 16777216
100
AcDbLine
 10
212.4692880274532
 20
161.3200959576178
 30
0.0
 11
212.4692880274532
 21
163.3200959576178
 31
0.0
  0
SOLID
  5
4FD4
330
4E97
100
AcDbEntity
  8
寸法
440
 16777216
100
AcDbTrace
 10
212.0526213607866
 20
158.8200959576179
 30
0.0
 11
212.8859546941199
 21
158.8200959576179
 31
0.0
 12
212.4692880274532
 22
161.3200959576178
 32
0.0
 13
212.4692880274532
 23
161.3200959576178
 33
0.0
  0
SOLID
  5
4FD5
330
4E97
100
AcDbEntity
  8
寸法
440
 16777216
100
AcDbTrace
 10
212.0526213607866
 20
165.8200959576178
 30
0.0
 11
212.8859546941199
 21
165.8200959576178
 31
0.0
 12
212.4692880274532
 22
163.3200959576178
 32
0.0
 13
212.4692880274532
 23
163.3200959576178
 33
0.0
  0
MTEXT
  5
4FD6
330
4E97
100
AcDbEntity
  8
寸法
440
 16777216
100
AcDbMText
 10
210.4692880274532
 20
169.986762624285
 30
0.0
 40
2.0
 41
0.0
 46
0.0
 71
     5
 72
     1
  1
\A1;2
  7
0615
 11
0.0000000000000001
 21
1.0
 31
0.0
 73
     1
 44
1.0
  0
POINT
  5
4FD7
330
4E97
100
AcDbEntity
  8
Defpoints
 62
     0
440
 16777216
100
AcDbPoint
 10
208.0801211214879
 20
161.3200959576178
 30
0.0
  0
POINT
  5
4FD8
330
4E97
100
AcDbEntity
  8
Defpoints
 62
     0
440
 16777216
100
AcDbPoint
 10
194.3850655700656
 20
163.3200959576178
 30
0.0
  0
POINT
  5
4FD9
330
4E97
100
AcDbEntity
  8
Defpoints
 62
     0
440
 16777216
100
AcDbPoint
 10
212.4692880274532
 20
163.3200959576178
 30
0.0
  0
ENDBLK
  5
4E99
330
4E97
100
AcDbEntity
  8
0
100
AcDbBlockEnd
  0
BLOCK
  5
4EA6
330
4EA5
100
AcDbEntity
  8
0
100
AcDbBlockBegin
  2
*D107
 70
     1
 10
0.0
 20
0.0
 30
0.0
  3
*D107
  1

  0
LINE
  5
504B
330
4EA5
100
AcDbEntity
  8
寸法
440
 16777216
100
AcDbLine
 10
177.5801211214879
 20
197.7500246587903
 30
0.0
 11
177.5801211214879
 21
198.7500246587908
 31
0.0
  0
LINE
  5
504C
330
4EA5
100
AcDbEntity
  8
寸法
440
 16777216
100
AcDbLine
 10
152.0801211214874
 20
179.6745196676883
 30
0.0
 11
152.0801211214874
 21
198.7500246587908
 31
0.0
  0
LINE
  5
504D
330
4EA5
100
AcDbEntity
  8
寸法
440
 16777216
100
AcDbLine
 10
175.5801211214879
 20
197.7500246587908
 30
0.0
 11
154.0801211214874
 21
197.7500246587908
 31
0.0
  0
SOLID
  5
504E
330
4EA5
100
AcDbEntity
  8
寸法
440
 16777216
100
AcDbTrace
 10
175.5801211214879
 20
198.0833579921241
 30
0.0
 11
175.5801211214879
 21
197.4166913254574
 31
0.0
 12
177.5801211214879
 22
197.7500246587908
 32
0.0
 13
177.5801211214879
 23
197.7500246587908
 33
0.0
  0
SOLID
  5
504F
330
4EA5
100
AcDbEntity
  8
寸法
440
 16777216
100
AcDbTrace
 10
154.0801211214874
 20
198.0833579921241
 30
0.0
 11
154.0801211214874
 21
197.4166913254574
 31
0.0
 12
152.0801211214874
 22
197.7500246587908
 32
0.0
 13
152.0801211214874
 23
197.7500246587908
 33
0.0
  0
MTEXT
  5
5050
330
4EA5
100
AcDbEntity
  8
寸法
440
 16777216
100
AcDbMText
 10
164.8301211214876
 20
200.0000246587908
 30
0.0
 40
2.5
 41
0.0
 46
0.0
 71
     5
 72
     1
  1
\A1;25.5
 73
     1
 44
1.0
  0
POINT
  5
5051
330
4EA5
100
AcDbEntity
  8
Defpoints
 62
     0
440
 16777216
100
AcDbPoint
 10
177.5801211214879
 20
196.7500246587903
 30
0.0
  0
POINT
  5
5052
330
4EA5
100
AcDbEntity
  8
Defpoints
 62
     0
440
 16777216
100
AcDbPoint
 10
152.0801211214874
 20
178.6745196676883
 30
0.0
  0
POINT
  5
5053
330
4EA5
100
AcDbEntity
  8
Defpoints
 62
     0
440
 16777216
100
AcDbPoint
 10
152.0801211214874
 20
197.7500246587908
 30
0.0
  0
ENDBLK
  5
4EA7
330
4EA5
100
AcDbEntity
  8
0
100
AcDbBlockEnd
  0
BLOCK
  5
4EB2
330
4EB1
100
AcDbEntity
  8
0
100
AcDbBlockBegin
  2
*D108
 70
     1
 10
0.0
 20
0.0
 30
0.0
  3
*D108
  1

  0
LINE
  5
5054
330
4EB1
100
AcDbEntity
  8
寸法
440
 16777216
100
AcDbLine
 10
149.0801211214878
 20
180.3200959576178
 30
0.0
 11
149.0801211214878
 21
203.5457477807533
 31
0.0
  0
LINE
  5
5055
330
4EB1
100
AcDbEntity
  8
寸法
440
 16777216
100
AcDbLine
 10
206.0801211214879
 20
180.3200959576181
 30
0.0
 11
206.0801211214879
 21
203.5457477807533
 31
0.0
  0
LINE
  5
5056
330
4EB1
100
AcDbEntity
  8
寸法
440
 16777216
100
AcDbLine
 10
151.0801211214879
 20
202.5457477807533
 30
0.0
 11
204.0801211214879
 21
202.5457477807533
 31
0.0
  0
SOLID
  5
5057
330
4EB1
100
AcDbEntity
  8
寸法
440
 16777216
100
AcDbTrace
 10
151.0801211214879
 20
202.8790811140866
 30
0.0
 11
151.0801211214879
 21
202.2124144474199
 31
0.0
 12
149.0801211214878
 22
202.5457477807533
 32
0.0
 13
149.0801211214878
 23
202.5457477807533
 33
0.0
  0
SOLID
  5
5058
330
4EB1
100
AcDbEntity
  8
寸法
440
 16777216
100
AcDbTrace
 10
204.0801211214879
 20
202.8790811140866
 30
0.0
 11
204.0801211214879
 21
202.2124144474199
 31
0.0
 12
206.0801211214879
 22
202.5457477807533
 32
0.0
 13
206.0801211214879
 23
202.5457477807533
 33
0.0
  0
MTEXT
  5
5059
330
4EB1
100
AcDbEntity
  8
寸法
440
 16777216
100
AcDbMText
 10
179.8490058543874
 20
204.7957477807533
 30
0.0
 40
2.5
 41
0.0
 46
0.0
 71
     5
 72
     1
  1
\A1;57
 73
     1
 44
1.0
  0
POINT
  5
505A
330
4EB1
100
AcDbEntity
  8
Defpoints
 62
     0
440
 16777216
100
AcDbPoint
 10
149.0801211214878
 20
179.3200959576178
 30
0.0
  0
POINT
  5
505B
330
4EB1
100
AcDbEntity
  8
Defpoints
 62
     0
440
 16777216
100
AcDbPoint
 10
206.0801211214879
 20
179.3200959576181
 30
0.0
  0
POINT
  5
505C
330
4EB1
100
AcDbEntity
  8
Defpoints
 62
     0
440
 16777216
100
AcDbPoint
 10
206.0801211214879
 20
202.5457477807533
 30
0.0
  0
ENDBLK
  5
4EB3
330
4EB1
100
AcDbEntity
  8
0
100
AcDbBlockEnd
  0
BLOCK
  5
4ED0
330
4ECF
100
AcDbEntity
  8
0
100
AcDbBlockBegin
  2
*D109
 70
     1
 10
0.0
 20
0.0
 30
0.0
  3
*D109
  1

  0
LINE
  5
5095
330
4ECF
100
AcDbEntity
  8
寸法
440
 16777216
100
AcDbLine
 10
147.8659835690254
 20
176.5700959576176
 30
0.0
 11
123.7135119779695
 21
176.5700959576176
 31
0.0
  0
LINE
  5
5096
330
4ECF
100
AcDbEntity
  8
寸法
440
 16777216
100
AcDbLine
 10
147.8659835690254
 20
146.0700959576178
 30
0.0
 11
123.7135119779694
 21
146.0700959576178
 31
0.0
  0
LINE
  5
5097
330
4ECF
100
AcDbEntity
  8
寸法
440
 16777216
100
AcDbLine
 10
124.7135119779695
 20
174.5700959576176
 30
0.0
 11
124.7135119779694
 21
148.0700959576178
 31
0.0
  0
SOLID
  5
5098
330
4ECF
100
AcDbEntity
  8
寸法
440
 16777216
100
AcDbTrace
 10
124.3801786446361
 20
174.5700959576176
 30
0.0
 11
125.0468453113028
 21
174.5700959576176
 31
0.0
 12
124.7135119779695
 22
176.5700959576176
 32
0.0
 13
124.7135119779695
 23
176.5700959576176
 33
0.0
  0
SOLID
  5
5099
330
4ECF
100
AcDbEntity
  8
寸法
440
 16777216
100
AcDbTrace
 10
124.3801786446361
 20
148.0700959576178
 30
0.0
 11
125.0468453113028
 21
148.0700959576178
 31
0.0
 12
124.7135119779694
 22
146.0700959576178
 32
0.0
 13
124.7135119779694
 23
146.0700959576178
 33
0.0
  0
MTEXT
  5
509A
330
4ECF
100
AcDbEntity
  8
寸法
440
 16777216
100
AcDbMText
 10
122.4635119779694
 20
165.2738248984355
 30
0.0
 40
2.5
 41
0.0
 46
0.0
 71
     5
 72
     1
  1
\A1;30.5
 11
0.0000000000000001
 21
1.0
 31
0.0
 73
     1
 44
1.0
  0
POINT
  5
509B
330
4ECF
100
AcDbEntity
  8
Defpoints
 62
     0
440
 16777216
100
AcDbPoint
 10
148.8659835690254
 20
176.5700959576176
 30
0.0
  0
POINT
  5
509C
330
4ECF
100
AcDbEntity
  8
Defpoints
 62
     0
440
 16777216
100
AcDbPoint
 10
148.8659835690254
 20
146.0700959576178
 30
0.0
  0
POINT
  5
509D
330
4ECF
100
AcDbEntity
  8
Defpoints
 62
     0
440
 16777216
100
AcDbPoint
 10
124.7135119779694
 20
146.0700959576178
 30
0.0
  0
ENDBLK
  5
4ED1
330
4ECF
100
AcDbEntity
  8
0
100
AcDbBlockEnd
  0
BLOCK
  5
4EE4
330
4EE3
100
AcDbEntity
  8
0
100
AcDbBlockBegin
  2
*D110
 70
     1
 10
0.0
 20
0.0
 30
0.0
  3
*D110
  1

  0
LINE
  5
50D9
330
4EE3
100
AcDbEntity
  8
寸法
440
 16777216
100
AcDbLine
 10
207.0801211214874
 20
179.3200959576178
 30
0.0
 11
222.0997620445381
 21
179.3200959576178
 31
0.0
  0
LINE
  5
50DA
330
4EE3
100
AcDbEntity
  8
寸法
440
 16777216
100
AcDbLine
 10
207.0801211214879
 20
143.3200959576181
 30
0.0
 11
222.0997620445381
 21
143.3200959576181
 31
0.0
  0
LINE
  5
50DB
330
4EE3
100
AcDbEntity
  8
寸法
440
 16777216
100
AcDbLine
 10
221.0997620445382
 20
177.3200959576178
 30
0.0
 11
221.0997620445382
 21
145.3200959576181
 31
0.0
  0
SOLID
  5
50DC
330
4EE3
100
AcDbEntity
  8
寸法
440
 16777216
100
AcDbTrace
 10
220.7664287112048
 20
177.3200959576178
 30
0.0
 11
221.4330953778715
 21
177.3200959576178
 31
0.0
 12
221.0997620445382
 22
179.3200959576178
 32
0.0
 13
221.0997620445382
 23
179.3200959576178
 33
0.0
  0
SOLID
  5
50DD
330
4EE3
100
AcDbEntity
  8
寸法
440
 16777216
100
AcDbTrace
 10
220.7664287112048
 20
145.3200959576181
 30
0.0
 11
221.4330953778715
 21
145.3200959576181
 31
0.0
 12
221.0997620445382
 22
143.3200959576181
 32
0.0
 13
221.0997620445382
 23
143.3200959576181
 33
0.0
  0
MTEXT
  5
50DE
330
4EE3
100
AcDbEntity
  8
寸法
440
 16777216
100
AcDbMText
 10
218.8497620445381
 20
165.7529122307489
 30
0.0
 40
2.5
 41
0.0
 46
0.0
 71
     5
 72
     1
  1
\A1;36
 11
0.0000000000000001
 21
1.0
 31
0.0
 73
     1
 44
1.0
  0
POINT
  5
50DF
330
4EE3
100
AcDbEntity
  8
Defpoints
 62
     0
440
 16777216
100
AcDbPoint
 10
206.0801211214874
 20
179.3200959576178
 30
0.0
  0
POINT
  5
50E0
330
4EE3
100
AcDbEntity
  8
Defpoints
 62
     0
440
 16777216
100
AcDbPoint
 10
206.0801211214879
 20
143.3200959576181
 30
0.0
  0
POINT
  5
50E1
330
4EE3
100
AcDbEntity
  8
Defpoints
 62
     0
440
 16777216
100
AcDbPoint
 10
221.0997620445382
 20
143.3200959576181
 30
0.0
  0
ENDBLK
  5
4EE5
330
4EE3
100
AcDbEntity
  8
0
100
AcDbBlockEnd
  0
BLOCK
  5
4EF0
330
4EEF
100
AcDbEntity
  8
0
100
AcDbBlockBegin
  2
*D111
 70
     1
 10
0.0
 20
0.0
 30
0.0
  3
*D111
  1

  0
LINE
  5
5038
330
4EEF
100
AcDbEntity
  8
寸法
440
 16777216
100
AcDbLine
 10
206.0801211214874
 20
180.3200959576176
 30
0.0
 11
206.0801211214874
 21
190.222105848371
 31
0.0
  0
LINE
  5
5039
330
4EEF
100
AcDbEntity
  8
寸法
440
 16777216
100
AcDbLine
 10
208.0801211214879
 20
172.4450959576178
 30
0.0
 11
208.0801211214879
 21
190.222105848371
 31
0.0
  0
LINE
  5
503A
330
4EEF
100
AcDbEntity
  8
寸法
440
 16777216
100
AcDbLine
 10
204.0801211214874
 20
189.2221058483711
 30
0.0
 11
202.0801211214874
 21
189.2221058483711
 31
0.0
  0
LINE
  5
503B
330
4EEF
100
AcDbEntity
  8
寸法
440
 16777216
100
AcDbLine
 10
210.0801211214879
 20
189.2221058483711
 30
0.0
 11
219.5325020738686
 21
189.2221058483711
 31
0.0
  0
LINE
  5
503C
330
4EEF
100
AcDbEntity
  8
寸法
440
 16777216
100
AcDbLine
 10
206.0801211214874
 20
189.2221058483711
 30
0.0
 11
208.0801211214879
 21
189.2221058483711
 31
0.0
  0
SOLID
  5
503D
330
4EEF
100
AcDbEntity
  8
寸法
440
 16777216
100
AcDbTrace
 10
204.0801211214874
 20
189.5554391817044
 30
0.0
 11
204.0801211214874
 21
188.8887725150377
 31
0.0
 12
206.0801211214874
 22
189.2221058483711
 32
0.0
 13
206.0801211214874
 23
189.2221058483711
 33
0.0
  0
SOLID
  5
503E
330
4EEF
100
AcDbEntity
  8
寸法
440
 16777216
100
AcDbTrace
 10
210.0801211214879
 20
189.5554391817044
 30
0.0
 11
210.0801211214879
 21
188.8887725150377
 31
0.0
 12
208.0801211214879
 22
189.2221058483711
 32
0.0
 13
208.0801211214879
 23
189.2221058483711
 33
0.0
  0
MTEXT
  5
503F
330
4EEF
100
AcDbEntity
  8
寸法
440
 16777216
100
AcDbMText
 10
216.0325020738686
 20
191.472105848371
 30
0.0
 40
2.5
 41
0.0
 46
0.0
 71
     5
 72
     1
  1
\A1;(2)
 73
     1
 44
1.0
  0
POINT
  5
5040
330
4EEF
100
AcDbEntity
  8
Defpoints
 62
     0
440
 16777216
100
AcDbPoint
 10
206.0801211214874
 20
179.3200959576176
 30
0.0
  0
POINT
  5
5041
330
4EEF
100
AcDbEntity
  8
Defpoints
 62
     0
440
 16777216
100
AcDbPoint
 10
208.0801211214879
 20
171.4450959576178
 30
0.0
  0
POINT
  5
5042
330
4EEF
100
AcDbEntity
  8
Defpoints
 62
     0
440
 16777216
100
AcDbPoint
 10
208.0801211214879
 20
189.2221058483711
 30
0.0
  0
ENDBLK
  5
4EF1
330
4EEF
100
AcDbEntity
  8
0
100
AcDbBlockEnd
  0
BLOCK
  5
4F07
330
4F06
100
AcDbEntity
  8
0
100
AcDbBlockBegin
  2
*D112
 70
     1
 10
0.0
 20
0.0
 30
0.0
  3
*D112
  1

  0
LINE
  5
50C9
330
4F06
100
AcDbEntity
  8
寸法
440
 16777216
100
AcDbLine
 10
123.0469742883618
 20
130.0933976101603
 30
0.0
 11
148.9261323575297
 21
144.3344822687992
 31
0.0
  0
LINE
  5
50CA
330
4F06
100
AcDbEntity
  8
寸法
440
 16777216
100
AcDbLine
 10
155.2341098854494
 20
147.8057096464364
 30
0.0
 11
156.9863258654271
 21
148.7699394735578
 31
0.0
  0
MTEXT
  5
50CB
330
4F06
100
AcDbEntity
  8
寸法
440
 16777216
100
AcDbMText
 10
132.7321932135362
 20
138.412813424229
 30
0.0
 40
2.5
 41
0.0
 46
0.0
 71
     5
 72
     1
  1
\A1;3-∅3.2キリ穴
 11
0.8761079899888642
 21
0.482114913560732
 31
0.0
 73
     1
 44
1.0
  0
LINE
  5
50CC
330
4F06
100
AcDbEntity
  8
寸法
440
 16777216
100
AcDbLine
 10
153.4818939054717
 20
146.8414798193149
 30
0.0
 11
150.6783483375074
 21
145.2987120959207
 31
0.0
  0
SOLID
  5
50CD
330
4F06
100
AcDbEntity
  8
寸法
440
 16777216
100
AcDbTrace
 10
155.0734049142625
 20
148.0977456430993
 30
0.0
 11
155.3948148566363
 21
147.5136736497734
 31
0.0
 12
153.4818939054717
 22
146.8414798193149
 32
0.0
 13
153.4818939054717
 23
146.8414798193149
 33
0.0
  0
SOLID
  5
50CE
330
4F06
100
AcDbEntity
  8
寸法
440
 16777216
100
AcDbTrace
 10
148.7654273863428
 20
144.6265182654621
 30
0.0
 11
149.0868373287166
 21
144.0424462721362
 31
0.0
 12
150.6783483375074
 22
145.2987120959207
 32
0.0
 13
150.6783483375074
 23
145.2987120959207
 33
0.0
  0
POINT
  5
50CF
330
4F06
100
AcDbEntity
  8
Defpoints
 62
     0
440
 16777216
100
AcDbPoint
 10
150.6783483375074
 20
145.2987120959207
 30
0.0
  0
POINT
  5
50D0
330
4F06
100
AcDbEntity
  8
Defpoints
 62
     0
440
 16777216
100
AcDbPoint
 10
153.4818939054717
 20
146.8414798193149
 30
0.0
  0
ENDBLK
  5
4F08
330
4F06
100
AcDbEntity
  8
0
100
AcDbBlockEnd
  0
BLOCK
  5
4F1A
330
4F19
100
AcDbEntity
  8
0
100
AcDbBlockBegin
  2
*D113
 70
     1
 10
0.0
 20
0.0
 30
0.0
  3
*D113
  1

  0
LINE
  5
5066
330
4F19
100
AcDbEntity
  8
寸法
440
 16777216
100
AcDbLine
 10
188.3501211214878
 20
160.5100959576179
 30
0.0
 11
188.3501211214878
 21
193.4111725185987
 31
0.0
  0
LINE
  5
5067
330
4F19
100
AcDbEntity
  8
寸法
440
 16777216
100
AcDbLine
 10
206.0801211214874
 20
180.3200959576178
 30
0.0
 11
206.0801211214874
 21
193.4111725185987
 31
0.0
  0
LINE
  5
5068
330
4F19
100
AcDbEntity
  8
寸法
440
 16777216
100
AcDbLine
 10
190.3501211214878
 20
192.4111725185986
 30
0.0
 11
204.0801211214874
 21
192.4111725185986
 31
0.0
  0
SOLID
  5
5069
330
4F19
100
AcDbEntity
  8
寸法
440
 16777216
100
AcDbTrace
 10
190.3501211214878
 20
192.744505851932
 30
0.0
 11
190.3501211214878
 21
192.0778391852653
 31
0.0
 12
188.3501211214878
 22
192.4111725185986
 32
0.0
 13
188.3501211214878
 23
192.4111725185986
 33
0.0
  0
SOLID
  5
506A
330
4F19
100
AcDbEntity
  8
寸法
440
 16777216
100
AcDbTrace
 10
204.0801211214874
 20
192.744505851932
 30
0.0
 11
204.0801211214874
 21
192.0778391852653
 31
0.0
 12
206.0801211214874
 22
192.4111725185986
 32
0.0
 13
206.0801211214874
 23
192.4111725185986
 33
0.0
  0
MTEXT
  5
506B
330
4F19
100
AcDbEntity
  8
寸法
440
 16777216
100
AcDbMText
 10
197.2151211214876
 20
194.6611725185987
 30
0.0
 40
2.5
 41
0.0
 46
0.0
 71
     5
 72
     1
  1
\A1;17.7
 73
     1
 44
1.0
  0
POINT
  5
506C
330
4F19
100
AcDbEntity
  8
Defpoints
 62
     0
440
 16777216
100
AcDbPoint
 10
188.3501211214878
 20
159.5100959576179
 30
0.0
  0
POINT
  5
506D
330
4F19
100
AcDbEntity
  8
Defpoints
 62
     0
440
 16777216
100
AcDbPoint
 10
206.0801211214874
 20
179.3200959576178
 30
0.0
  0
POINT
  5
506E
330
4F19
100
AcDbEntity
  8
Defpoints
 62
     0
440
 16777216
100
AcDbPoint
 10
206.0801211214874
 20
192.4111725185986
 30
0.0
  0
ENDBLK
  5
4F1B
330
4F19
100
AcDbEntity
  8
0
100
AcDbBlockEnd
  0
BLOCK
  5
4F26
330
4F25
100
AcDbEntity
  8
0
100
AcDbBlockBegin
  2
*D114
 70
     1
 10
0.0
 20
0.0
 30
0.0
  3
*D114
  1

  0
LINE
  5
50D1
330
4F25
100
AcDbEntity
  8
寸法
440
 16777216
100
AcDbLine
 10
220.7913401567152
 20
119.4199951405656
 30
0.0
 11
205.0727158159999
 21
143.0718353979916
 31
0.0
  0
LINE
  5
50D2
330
4F25
100
AcDbEntity
  8
寸法
440
 16777216
100
AcDbLine
 10
201.08752642698
 20
149.0683565172436
 30
0.0
 11
199.9805293744743
 21
150.734056828147
 31
0.0
  0
MTEXT
  5
50D3
330
4F25
100
AcDbEntity
  8
寸法
440
 16777216
100
AcDbMText
 10
215.6788563254051
 20
131.8707160622256
 30
0.0
 40
2.5
 41
0.0
 46
0.0
 71
     5
 72
     1
  1
\A1;∅3.2 THランド
 11
0.5534985262528087
 21
-0.8328501554517288
 31
0.0
 73
     1
 44
1.0
  0
LINE
  5
50D4
330
4F25
100
AcDbEntity
  8
寸法
440
 16777216
100
AcDbLine
 10
202.1945234794856
 20
147.4026562063401
 30
0.0
 11
203.9657187634942
 21
144.7375357088951
 31
0.0
  0
SOLID
  5
50D5
330
4F25
100
AcDbEntity
  8
寸法
440
 16777216
100
AcDbTrace
 10
201.3651431454639
 20
149.2528560259945
 30
0.0
 11
200.8099097084961
 21
148.8838570084926
 31
0.0
 12
202.1945234794856
 22
147.4026562063401
 32
0.0
 13
202.1945234794856
 23
147.4026562063401
 33
0.0
  0
SOLID
  5
50D6
330
4F25
100
AcDbEntity
  8
寸法
440
 16777216
100
AcDbTrace
 10
205.3503325344838
 20
143.2563349067426
 30
0.0
 11
204.7950990975159
 21
142.8873358892407
 31
0.0
 12
203.9657187634942
 22
144.7375357088951
 32
0.0
 13
203.9657187634942
 23
144.7375357088951
 33
0.0
  0
POINT
  5
50D7
330
4F25
100
AcDbEntity
  8
Defpoints
 62
     0
440
 16777216
100
AcDbPoint
 10
203.9657187634942
 20
144.7375357088951
 30
0.0
  0
POINT
  5
50D8
330
4F25
100
AcDbEntity
  8
Defpoints
 62
     0
440
 16777216
100
AcDbPoint
 10
202.1945234794856
 20
147.4026562063401
 30
0.0
  0
ENDBLK
  5
4F27
330
4F25
100
AcDbEntity
  8
0
100
AcDbBlockEnd
  0
BLOCK
  5
4F3C
330
4F3B
100
AcDbEntity
  8
0
100
AcDbBlockBegin
  2
*D115
 70
     1
 10
0.0
 20
0.0
 30
0.0
  3
*D115
  1

  0
LINE
  5
5078
330
4F3B
100
AcDbEntity
  8
寸法
440
 16777216
100
AcDbLine
 10
169.5801211214878
 20
176.3200959576181
 30
0.0
 11
169.5801211214878
 21
187.194010736347
 31
0.0
  0
LINE
  5
5079
330
4F3B
100
AcDbEntity
  8
寸法
440
 16777216
100
AcDbLine
 10
161.5801211214878
 20
176.3200959576181
 30
0.0
 11
161.5801211214878
 21
187.194010736347
 31
0.0
  0
LINE
  5
507A
330
4F3B
100
AcDbEntity
  8
寸法
440
 16777216
100
AcDbLine
 10
167.5801211214879
 20
186.194010736347
 30
0.0
 11
163.5801211214879
 21
186.194010736347
 31
0.0
  0
SOLID
  5
507B
330
4F3B
100
AcDbEntity
  8
寸法
440
 16777216
100
AcDbTrace
 10
167.5801211214879
 20
186.5273440696803
 30
0.0
 11
167.5801211214879
 21
185.8606774030137
 31
0.0
 12
169.5801211214878
 22
186.194010736347
 32
0.0
 13
169.5801211214878
 23
186.194010736347
 33
0.0
  0
SOLID
  5
507C
330
4F3B
100
AcDbEntity
  8
寸法
440
 16777216
100
AcDbTrace
 10
163.5801211214879
 20
186.5273440696803
 30
0.0
 11
163.5801211214879
 21
185.8606774030137
 31
0.0
 12
161.5801211214878
 22
186.194010736347
 32
0.0
 13
161.5801211214878
 23
186.194010736347
 33
0.0
  0
MTEXT
  5
507D
330
4F3B
100
AcDbEntity
  8
寸法
440
 16777216
100
AcDbMText
 10
165.5801211214878
 20
188.444010736347
 30
0.0
 40
2.5
 41
0.0
 46
0.0
 71
     5
 72
     1
  1
\A1;8
 73
     1
 44
1.0
  0
POINT
  5
507E
330
4F3B
100
AcDbEntity
  8
Defpoints
 62
     0
440
 16777216
100
AcDbPoint
 10
169.5801211214878
 20
175.3200959576181
 30
0.0
  0
POINT
  5
507F
330
4F3B
100
AcDbEntity
  8
Defpoints
 62
     0
440
 16777216
100
AcDbPoint
 10
161.5801211214878
 20
175.3200959576181
 30
0.0
  0
POINT
  5
5080
330
4F3B
100
AcDbEntity
  8
Defpoints
 62
     0
440
 16777216
100
AcDbPoint
 10
161.5801211214878
 20
186.194010736347
 30
0.0
  0
ENDBLK
  5
4F3D
330
4F3B
100
AcDbEntity
  8
0
100
AcDbBlockEnd
  0
BLOCK
  5
4F48
330
4F47
100
AcDbEntity
  8
0
100
AcDbBlockBegin
  2
*D116
 70
     1
 10
0.0
 20
0.0
 30
0.0
  3
*D116
  1

  0
LINE
  5
50C0
330
4F47
100
AcDbEntity
  8
寸法
440
 16777216
100
AcDbLine
 10
152.0801211214897
 20
142.9656722475471
 30
0.0
 11
152.0801211214897
 21
136.5234417341546
 31
0.0
  0
LINE
  5
50C1
330
4F47
100
AcDbEntity
  8
寸法
440
 16777216
100
AcDbLine
 10
159.7001211214873
 20
148.8900959576173
 30
0.0
 11
159.7001211214873
 21
136.5234417341546
 31
0.0
  0
LINE
  5
50C2
330
4F47
100
AcDbEntity
  8
寸法
440
 16777216
100
AcDbLine
 10
154.0801211214897
 20
137.5234417341546
 30
0.0
 11
157.7001211214873
 21
137.5234417341546
 31
0.0
  0
SOLID
  5
50C3
330
4F47
100
AcDbEntity
  8
寸法
440
 16777216
100
AcDbTrace
 10
154.0801211214897
 20
137.8567750674879
 30
0.0
 11
154.0801211214897
 21
137.1901084008212
 31
0.0
 12
152.0801211214897
 22
137.5234417341546
 32
0.0
 13
152.0801211214897
 23
137.5234417341546
 33
0.0
  0
SOLID
  5
50C4
330
4F47
100
AcDbEntity
  8
寸法
440
 16777216
100
AcDbTrace
 10
157.7001211214873
 20
137.8567750674879
 30
0.0
 11
157.7001211214873
 21
137.1901084008212
 31
0.0
 12
159.7001211214873
 22
137.5234417341546
 32
0.0
 13
159.7001211214873
 23
137.5234417341546
 33
0.0
  0
MTEXT
  5
50C5
330
4F47
100
AcDbEntity
  8
寸法
440
 16777216
100
AcDbMText
 10
155.8901211214885
 20
139.7734417341546
 30
0.0
 40
2.5
 41
0.0
 46
0.0
 71
     5
 72
     1
  1
\A1;7.6
 73
     1
 44
1.0
  0
POINT
  5
50C6
330
4F47
100
AcDbEntity
  8
Defpoints
 62
     0
440
 16777216
100
AcDbPoint
 10
152.0801211214897
 20
143.9656722475471
 30
0.0
  0
POINT
  5
50C7
330
4F47
100
AcDbEntity
  8
Defpoints
 62
     0
440
 16777216
100
AcDbPoint
 10
159.7001211214873
 20
149.8900959576173
 30
0.0
  0
POINT
  5
50C8
330
4F47
100
AcDbEntity
  8
Defpoints
 62
     0
440
 16777216
100
AcDbPoint
 10
159.7001211214873
 20
137.5234417341546
 30
0.0
  0
ENDBLK
  5
4F49
330
4F47
100
AcDbEntity
  8
0
100
AcDbBlockEnd
  0
BLOCK
  5
4F54
330
4F53
100
AcDbEntity
  8
0
100
AcDbBlockBegin
  2
*D117
 70
     1
 10
0.0
 20
0.0
 30
0.0
  3
*D117
  1

  0
LINE
  5
5081
330
4F53
100
AcDbEntity
  8
寸法
440
 16777216
100
AcDbLine
 10
192.9596525150094
 20
175.3200959576181
 30
0.0
 11
196.5303250541668
 21
175.3200959576181
 31
0.0
  0
LINE
  5
5082
330
4F53
100
AcDbEntity
  8
寸法
440
 16777216
100
AcDbLine
 10
194.6553250541673
 20
179.3200959576181
 30
0.0
 11
194.0303250541668
 21
179.3200959576181
 31
0.0
  0
LINE
  5
5083
330
4F53
100
AcDbEntity
  8
寸法
440
 16777216
100
AcDbLine
 10
195.2803250541668
 20
172.8200959576181
 30
0.0
 11
195.2803250541668
 21
170.3200959576181
 31
0.0
  0
LINE
  5
5084
330
4F53
100
AcDbEntity
  8
寸法
440
 16777216
100
AcDbLine
 10
195.2803250541668
 20
181.8200959576181
 30
0.0
 11
195.2803250541668
 21
187.7486673861899
 31
0.0
  0
LINE
  5
5085
330
4F53
100
AcDbEntity
  8
寸法
440
 16777216
100
AcDbLine
 10
195.2803250541668
 20
175.3200959576181
 30
0.0
 11
195.2803250541668
 21
179.3200959576181
 31
0.0
  0
SOLID
  5
5086
330
4F53
100
AcDbEntity
  8
寸法
440
 16777216
100
AcDbTrace
 10
194.8636583875002
 20
172.8200959576181
 30
0.0
 11
195.6969917208335
 21
172.8200959576181
 31
0.0
 12
195.2803250541668
 22
175.3200959576181
 32
0.0
 13
195.2803250541668
 23
175.3200959576181
 33
0.0
  0
SOLID
  5
5087
330
4F53
100
AcDbEntity
  8
寸法
440
 16777216
100
AcDbTrace
 10
194.8636583875002
 20
181.8200959576181
 30
0.0
 11
195.6969917208335
 21
181.8200959576181
 31
0.0
 12
195.2803250541668
 22
179.3200959576181
 32
0.0
 13
195.2803250541668
 23
179.3200959576181
 33
0.0
  0
MTEXT
  5
5088
330
4F53
100
AcDbEntity
  8
寸法
440
 16777216
100
AcDbMText
 10
193.2803250541668
 20
186.0343816719043
 30
0.0
 40
2.0
 41
0.0
 46
0.0
 71
     5
 72
     1
  1
\A1;4
  7
0615
 11
0.0000000000000001
 21
1.0
 31
0.0
 73
     1
 44
1.0
  0
POINT
  5
5089
330
4F53
100
AcDbEntity
  8
Defpoints
 62
     0
440
 16777216
100
AcDbPoint
 10
192.3346525150094
 20
175.3200959576181
 30
0.0
  0
POINT
  5
508A
330
4F53
100
AcDbEntity
  8
Defpoints
 62
     0
440
 16777216
100
AcDbPoint
 10
195.2803250541673
 20
179.3200959576181
 30
0.0
  0
POINT
  5
508B
330
4F53
100
AcDbEntity
  8
Defpoints
 62
     0
440
 16777216
100
AcDbPoint
 10
195.2803250541668
 20
179.3200959576181
 30
0.0
  0
ENDBLK
  5
4F55
330
4F53
100
AcDbEntity
  8
0
100
AcDbBlockEnd
  0
BLOCK
  5
4F62
330
4F61
100
AcDbEntity
  8
0
100
AcDbBlockBegin
  2
*D118
 70
     1
 10
0.0
 20
0.0
 30
0.0
  3
*D118
  1

  0
LINE
  5
506F
330
4F61
100
AcDbEntity
  8
寸法
440
 16777216
100
AcDbLine
 10
177.5801211214879
 20
182.3200959576181
 30
0.0
 11
177.5801211214879
 21
187.194010736347
 31
0.0
  0
LINE
  5
5070
330
4F61
100
AcDbEntity
  8
寸法
440
 16777216
100
AcDbLine
 10
169.5801211214878
 20
176.3200959576181
 30
0.0
 11
169.5801211214878
 21
187.194010736347
 31
0.0
  0
LINE
  5
5071
330
4F61
100
AcDbEntity
  8
寸法
440
 16777216
100
AcDbLine
 10
175.5801211214879
 20
186.194010736347
 30
0.0
 11
171.5801211214879
 21
186.194010736347
 31
0.0
  0
SOLID
  5
5072
330
4F61
100
AcDbEntity
  8
寸法
440
 16777216
100
AcDbTrace
 10
175.5801211214879
 20
186.5273440696803
 30
0.0
 11
175.5801211214879
 21
185.8606774030137
 31
0.0
 12
177.5801211214879
 22
186.194010736347
 32
0.0
 13
177.5801211214879
 23
186.194010736347
 33
0.0
  0
SOLID
  5
5073
330
4F61
100
AcDbEntity
  8
寸法
440
 16777216
100
AcDbTrace
 10
171.5801211214879
 20
186.5273440696803
 30
0.0
 11
171.5801211214879
 21
185.8606774030137
 31
0.0
 12
169.5801211214878
 22
186.194010736347
 32
0.0
 13
169.5801211214878
 23
186.194010736347
 33
0.0
  0
MTEXT
  5
5074
330
4F61
100
AcDbEntity
  8
寸法
440
 16777216
100
AcDbMText
 10
173.5801211214879
 20
188.444010736347
 30
0.0
 40
2.5
 41
0.0
 46
0.0
 71
     5
 72
     1
  1
\A1;8
 73
     1
 44
1.0
  0
POINT
  5
5075
330
4F61
100
AcDbEntity
  8
Defpoints
 62
     0
440
 16777216
100
AcDbPoint
 10
177.5801211214879
 20
181.3200959576181
 30
0.0
  0
POINT
  5
5076
330
4F61
100
AcDbEntity
  8
Defpoints
 62
     0
440
 16777216
100
AcDbPoint
 10
169.5801211214878
 20
175.3200959576181
 30
0.0
  0
POINT
  5
5077
330
4F61
100
AcDbEntity
  8
Defpoints
 62
     0
440
 16777216
100
AcDbPoint
 10
169.5801211214878
 20
186.194010736347
 30
0.0
  0
ENDBLK
  5
4F63
330
4F61
100
AcDbEntity
  8
0
100
AcDbBlockEnd
  0
ENDSEC
  0
SECTION
  2
ENTITIES
  0
LINE
  5
4DD3
330
1F
100
AcDbEntity
  8
中心線
100
AcDbLine
 10
177.5801211214879
 20
181.8968872247989
 30
0.0
 11
177.5801211214879
 21
137.9847041745758
 31
0.0
  0
DIMENSION
  5
4DD4
102
{ACAD_XDICTIONARY
360
4DD5
102
}
102
{ACAD_REACTORS
330
4DD6
102
}
330
1F
100
AcDbEntity
  8
寸法
100
AcDbDimension
280
     0
  2
*D107
 10
152.0801211214874
 20
197.7500246587908
 30
0.0
 11
164.8301211214876
 21
200.0000246587908
 31
0.0
 70
    32
 71
     5
 42
25.50000000000046
 73
     0
 74
     0
 75
     0
  3
LINEEYE
100
AcDbAlignedDimension
 13
177.5801211214879
 23
196.7500246587903
 33
0.0
 14
152.0801211214874
 24
178.6745196676883
 34
0.0
100
AcDbRotatedDimension
  0
DIMENSION
  5
4DD7
102
{ACAD_XDICTIONARY
360
4DD8
102
}
102
{ACAD_REACTORS
330
4DD9
102
}
330
1F
100
AcDbEntity
  8
寸法
100
AcDbDimension
280
     0
  2
*D108
 10
206.0801211214879
 20
202.5457477807533
 30
0.0
 11
179.8490058543874
 21
202.5457477807533
 31
0.0
 70
   160
 71
     5
 42
57.0
 73
     0
 74
     0
 75
     0
  3
LINEEYE
100
AcDbAlignedDimension
 13
149.0801211214878
 23
179.3200959576178
 33
0.0
 14
206.0801211214879
 24
179.3200959576181
 34
0.0
100
AcDbRotatedDimension
  0
LINE
  5
4DDA
330
1F
100
AcDbEntity
  8
外形１
100
AcDbLine
 10
149.0801211214883
 20
143.3200959576178
 30
0.0
 11
206.0801211214879
 21
143.3200959576181
 31
0.0
  0
LINE
  5
4DDB
330
1F
100
AcDbEntity
  8
外形１
100
AcDbLine
 10
206.0801211214874
 20
179.3200959576181
 30
0.0
 11
149.0801211214878
 21
179.3200959576178
 31
0.0
  0
LINE
  5
4DDC
330
1F
100
AcDbEntity
  8
中心線
100
AcDbLine
 10
14.10171401025479
 20
161.3200959576178
 30
0.0
 11
242.6514382792469
 21
161.3200959576178
 31
0.0
  0
DIMENSION
  5
4DDD
330
1F
100
AcDbEntity
  8
寸法
100
AcDbDimension
280
     0
  2
*D101
 10
84.17650008133694
 20
193.68345812002
 30
0.0
 11
72.67650008133694
 21
193.68345812002
 31
0.0
 70
   160
 71
     5
 42
25.50000222446442
 73
     0
 74
     0
 75
     0
  3
LINEEYE
100
AcDbAlignedDimension
 13
58.67649785687252
 23
190.8200947569666
 33
0.0
 14
84.17650008133694
 24
176.5700959576176
 34
0.0
100
AcDbRotatedDimension
  0
DIMENSION
  5
4DDE
330
1F
100
AcDbEntity
  8
寸法
100
AcDbDimension
280
     0
  2
*D102
 10
58.67650008133693
 20
193.6834577492761
 30
0.0
 11
44.67650008133694
 21
193.6834577492761
 31
0.0
 70
   160
 71
     5
 42
25.5
 73
     0
 74
     0
 75
     0
  3
LINEEYE
100
AcDbAlignedDimension
 13
33.17650008133694
 23
176.5700959576176
 33
0.0
 14
58.67650008133693
 24
190.8200959576178
 34
0.0
100
AcDbRotatedDimension
  0
DIMENSION
  5
4DDF
102
{ACAD_XDICTIONARY
360
4DE0
102
}
102
{ACAD_REACTORS
330
4DE1
102
}
330
1F
100
AcDbEntity
  8
寸法
100
AcDbDimension
280
     0
  2
*D109
 10
124.7135119779694
 20
146.0700959576178
 30
0.0
 11
124.7135119779694
 21
165.2738248984355
 31
0.0
 70
   160
 71
     5
 42
30.49999999999978
 73
     0
 74
     0
 75
     0
  3
LINEEYE
100
AcDbAlignedDimension
 13
148.8659835690254
 23
176.5700959576176
 33
0.0
 14
148.8659835690254
 24
146.0700959576178
 34
0.0
 50
90.0
100
AcDbRotatedDimension
  0
LINE
  5
4DE2
330
1F
100
AcDbEntity
  8
中心線
100
AcDbLine
 10
58.67650008133693
 20
196.5170076690839
 30
0.0
 11
58.67650008133693
 21
139.8232689449466
 31
0.0
  0
LINE
  5
4DE3
102
{ACAD_REACTORS
330
4E3A
102
}
330
1F
100
AcDbEntity
  8
中心線
100
AcDbLine
 10
192.3346525150094
 20
175.3200959576181
 30
0.0
 11
157.9692105128
 21
175.3200959576181
 31
0.0
  0
CIRCLE
  5
4DE4
102
{ACAD_REACTORS
330
4E30
102
}
330
1F
100
AcDbEntity
  8
外形１
100
AcDbCircle
 10
161.5801211214878
 20
175.3200959576181
 30
0.0
 40
1.5
  0
LINE
  5
4DE5
102
{ACAD_REACTORS
330
4DD9
102
}
330
1F
100
AcDbEntity
  8
外形１
100
AcDbLine
 10
149.0801211214878
 20
179.3200959576178
 30
0.0
 11
149.0801211214874
 21
143.3200959576176
 31
0.0
  0
DIMENSION
  5
4DE6
330
1F
100
AcDbEntity
  8
寸法
100
AcDbDimension
280
     0
  2
*D103
 10
37.07967258148199
 20
143.3200959576178
 30
0.0
 11
23.36552698480721
 21
155.5694718826634
 31
0.0
 70
    35
 71
     5
 42
9.499999999996731
 73
     0
 74
     0
 75
     0
  3
LINEEYE
100
AcDbDiametricDimension
 15
29.27332758119826
 25
148.7340573295232
 35
0.0
 40
0.0
1001
ACAD
1000
DSTYLE
1002
{
1070
   288
1070
     1
1002
}
  0
MTEXT
  5
4DE7
330
1F
100
AcDbEntity
  8
寸法
100
AcDbMText
 10
62.21932884945352
 20
139.5697439264767
 30
0.0
 40
2.0
 41
23.10203405882294
 46
8.692693182833332
 71
     1
 72
     5
  1
XPortの実装面（表）は\PFG面とする
  7
LINEEYE
 73
     1
 44
1.0
  0
LEADER
  5
4DE8
330
1F
100
AcDbEntity
  8
寸法
100
AcDbLeader
  3
LINEEYE
 76
     3
 10
65.43462399475345
 20
157.056159839981
 30
0.0
 10
59.83957688657199
 20
133.7681039870178
 30
0.0
 10
84.34263705418414
 20
133.7681039870178
 30
0.0
1001
ACAD
1000
DSTYLE
1002
{
1070
   147
1040
1.0
1070
    77
1070
     0
1002
}
  0
LINE
  5
4DE9
102
{ACAD_REACTORS
330
4DE1
102
}
330
1F
100
AcDbEntity
  8
中心線
100
AcDbLine
 10
148.8659835690272
 20
146.0700959576178
 30
0.0
 11
155.263509898153
 21
146.0700959576178
 31
0.0
  0
CIRCLE
  5
4DEA
102
{ACAD_REACTORS
330
4E12
102
}
330
1F
100
AcDbEntity
  8
外形１
100
AcDbCircle
 10
152.0801211214897
 20
146.0700959576178
 30
0.0
 40
1.599999999999999
  0
LINE
  5
4DEB
330
1F
100
AcDbEntity
  8
中心線
100
AcDbLine
 10
152.0801211214897
 20
148.1745196676885
 30
0.0
 11
152.0801211214897
 21
143.9656722475471
 31
0.0
  0
CIRCLE
  5
4DEC
330
1F
100
AcDbEntity
  8
外形１
100
AcDbCircle
 10
188.3501211214878
 20
175.3200959576181
 30
0.0
 40
1.5
  0
LINE
  5
4DED
330
1F
100
AcDbEntity
  8
0
100
AcDbLine
 10
188.3501211214878
 20
174.343328084312
 30
0.0
 11
188.3501211214878
 21
176.1381618276916
 31
0.0
  0
LINE
  5
4DEF
330
1F
100
AcDbEntity
  8
中心線
100
AcDbLine
 10
161.5801211214878
 20
174.3393557378241
 30
0.0
 11
161.5801211214878
 21
176.1341894812037
 31
0.0
  0
LINE
  5
4DF0
330
1F
100
AcDbEntity
  8
中心線
100
AcDbLine
 10
169.5801211214878
 20
174.343328084312
 30
0.0
 11
169.5801211214878
 21
176.1381618276916
 31
0.0
  0
CIRCLE
  5
4DF1
102
{ACAD_REACTORS
330
4E30
330
4E42
102
}
330
1F
100
AcDbEntity
  8
外形１
100
AcDbCircle
 10
169.5801211214878
 20
175.3200959576181
 30
0.0
 40
1.5
  0
LINE
  5
4DF2
102
{ACAD_REACTORS
330
4DE1
102
}
330
1F
100
AcDbEntity
  8
中心線
100
AcDbLine
 10
148.8659835690254
 20
176.5700959576176
 30
0.0
 11
155.2635098981512
 21
176.5700959576181
 31
0.0
  0
LINE
  5
4DF3
102
{ACAD_REACTORS
330
4DD6
102
}
330
1F
100
AcDbEntity
  8
中心線
100
AcDbLine
 10
152.0801211214874
 20
174.3703704328006
 30
0.0
 11
152.0801211214874
 21
178.6745196676883
 31
0.0
  0
DIMENSION
  5
4DF4
102
{ACAD_XDICTIONARY
360
4DF5
102
}
102
{ACAD_REACTORS
330
4DF6
102
}
330
1F
100
AcDbEntity
  8
寸法
100
AcDbDimension
280
     0
  2
*D110
 10
221.0997620445382
 20
143.3200959576181
 30
0.0
 11
221.0997620445381
 21
165.7529122307489
 31
0.0
 70
   160
 71
     5
 42
35.99999999999977
 73
     0
 74
     0
 75
     0
  3
LINEEYE
100
AcDbAlignedDimension
 13
206.0801211214874
 23
179.3200959576178
 33
0.0
 14
206.0801211214879
 24
143.3200959576181
 34
0.0
 50
90.0
100
AcDbRotatedDimension
  0
LINE
  5
4DF7
102
{ACAD_REACTORS
330
4DD9
330
4DF6
330
4DFA
330
4E16
102
}
330
1F
100
AcDbEntity
  8
外形１
100
AcDbLine
 10
206.0801211214879
 20
143.3200959576181
 30
0.0
 11
206.0801211214874
 21
179.3200959576178
 31
0.0
  0
DIMENSION
  5
4DF8
102
{ACAD_XDICTIONARY
360
4DF9
102
}
102
{ACAD_REACTORS
330
4DFA
102
}
330
1F
100
AcDbEntity
  8
寸法
100
AcDbDimension
280
     0
  2
*D111
 10
208.0801211214879
 20
189.2221058483711
 30
0.0
 11
216.0325020738686
 21
189.2221058483711
 31
0.0
 70
   160
  1
(2)
 71
     5
 42
2.000000000000454
 73
     0
 74
     0
 75
     0
  3
LINEEYE
100
AcDbAlignedDimension
 13
206.0801211214874
 23
179.3200959576176
 33
0.0
 14
208.0801211214879
 24
171.4450959576178
 34
0.0
100
AcDbRotatedDimension
  0
LINE
  5
4DFB
330
1F
100
AcDbEntity
  8
中心線
100
AcDbLine
 10
199.8659835690272
 20
146.0700959576178
 30
0.0
 11
206.2635098981531
 21
146.0700959576178
 31
0.0
  0
LINE
  5
4DFC
330
1F
100
AcDbEntity
  8
中心線
100
AcDbLine
 10
199.8659835690254
 20
176.5700959576176
 30
0.0
 11
206.2635098981512
 21
176.5700959576181
 31
0.0
  0
LINE
  5
4DFD
330
1F
100
AcDbEntity
  8
中心線
100
AcDbLine
 10
203.0801211214897
 20
148.1745196676885
 30
0.0
 11
203.0801211214897
 21
143.9656722475471
 31
0.0
  0
LINE
  5
4DFE
330
1F
100
AcDbEntity
  8
中心線
100
AcDbLine
 10
203.0801211214879
 20
174.4656722475469
 30
0.0
 11
203.0801211214874
 21
178.6745196676883
 31
0.0
  0
DIMENSION
  5
4DFF
330
1F
100
AcDbEntity
  8
寸法
100
AcDbDimension
280
     0
  2
*D104
 10
203.0801211214874
 20
197.7500246587903
 30
0.0
 11
190.3301211214876
 21
200.0000246587903
 31
0.0
 70
    32
 71
     5
 42
25.49999999999954
 73
     0
 74
     0
 75
     0
  3
LINEEYE
100
AcDbAlignedDimension
 13
177.5801211214879
 23
181.3200959576181
 33
0.0
 14
203.0801211214874
 24
178.6745196676883
 34
0.0
100
AcDbRotatedDimension
  0
LINE
  5
4E00
330
1F
100
AcDbEntity
  8
外形１
100
AcDbLine
 10
30.1765000813374
 20
143.3200959576178
 30
0.0
 11
87.17650008133693
 21
143.3200959576181
 31
0.0
  0
LINE
  5
4E01
330
1F
100
AcDbEntity
  8
外形１
100
AcDbLine
 10
87.17650008133649
 20
179.3200959576181
 30
0.0
 11
30.17650008133694
 21
179.3200959576178
 31
0.0
  0
LINE
  5
4E02
330
1F
100
AcDbEntity
  8
外形１
100
AcDbLine
 10
30.17650008133694
 20
179.3200959576178
 30
0.0
 11
30.17650008133649
 21
143.3200959576176
 31
0.0
  0
LINE
  5
4E03
330
1F
100
AcDbEntity
  8
中心線
100
AcDbLine
 10
29.96236252887627
 20
146.0700959576178
 30
0.0
 11
36.35988885800214
 21
146.0700959576178
 31
0.0
  0
CIRCLE
  5
4E04
330
1F
100
AcDbEntity
  8
外形１
100
AcDbCircle
 10
33.17650008133876
 20
146.0700959576178
 30
0.0
 40
1.7
  0
LINE
  5
4E05
330
1F
100
AcDbEntity
  8
中心線
100
AcDbLine
 10
33.17650008133876
 20
148.1745196676885
 30
0.0
 11
33.17650008133876
 21
143.9656722475471
 31
0.0
  0
LINE
  5
4E06
330
1F
100
AcDbEntity
  8
中心線
100
AcDbLine
 10
29.96236252887445
 20
176.5700959576176
 30
0.0
 11
36.35988885800032
 21
176.5700959576181
 31
0.0
  0
LINE
  5
4E07
330
1F
100
AcDbEntity
  8
中心線
100
AcDbLine
 10
33.17650008133694
 20
174.4656722475469
 30
0.0
 11
33.17650008133649
 21
178.6745196676883
 31
0.0
  0
CIRCLE
  5
4E08
330
1F
100
AcDbEntity
  8
外形１
100
AcDbCircle
 10
33.17650008133694
 20
176.5700959576176
 30
0.0
 40
1.7
  0
LINE
  5
4E09
330
1F
100
AcDbEntity
  8
外形１
100
AcDbLine
 10
87.17650008133693
 20
143.3200959576181
 30
0.0
 11
87.17650008133649
 21
179.3200959576178
 31
0.0
  0
LINE
  5
4E0A
330
1F
100
AcDbEntity
  8
中心線
100
AcDbLine
 10
80.96236252887626
 20
146.0700959576178
 30
0.0
 11
87.35988885800214
 21
146.0700959576178
 31
0.0
  0
CIRCLE
  5
4E0B
330
1F
100
AcDbEntity
  8
外形１
100
AcDbCircle
 10
84.17650008133875
 20
146.0700959576178
 30
0.0
 40
1.7
  0
LINE
  5
4E0C
330
1F
100
AcDbEntity
  8
中心線
100
AcDbLine
 10
80.96236252887445
 20
176.5700959576176
 30
0.0
 11
87.35988885800031
 21
176.5700959576181
 31
0.0
  0
CIRCLE
  5
4E0D
330
1F
100
AcDbEntity
  8
外形１
100
AcDbCircle
 10
84.17650008133694
 20
176.5700959576176
 30
0.0
 40
1.7
  0
LINE
  5
4E0E
330
1F
100
AcDbEntity
  8
中心線
100
AcDbLine
 10
84.17650008133875
 20
148.1745196676885
 30
0.0
 11
84.17650008133875
 21
143.9656722475471
 31
0.0
  0
LINE
  5
4E0F
330
1F
100
AcDbEntity
  8
中心線
100
AcDbLine
 10
84.17650008133694
 20
174.4656722475469
 30
0.0
 11
84.17650008133648
 21
178.6745196676883
 31
0.0
  0
DIMENSION
  5
4E10
102
{ACAD_XDICTIONARY
360
4E11
102
}
102
{ACAD_REACTORS
330
4E12
102
}
330
1F
100
AcDbEntity
  8
寸法
100
AcDbDimension
280
     0
  2
*D112
 10
153.4818939054717
 20
146.8414798193149
 30
0.0
 11
133.9950055723515
 21
136.118007836815
 31
0.0
 70
   163
  1
3-<>キリ穴
 71
     5
 42
3.199999999999846
 73
     0
 74
     0
 75
     0
  3
LINEEYE
100
AcDbDiametricDimension
 15
150.6783483375074
 25
145.2987120959207
 35
0.0
 40
0.0
1001
ACAD_DSTYLE_DIMRADIAL_EXTENSION
1070
   387
1070
     1
1070
   388
1040
0.0
1070
   390
1040
0.0
1001
ACAD
1000
DSTYLE
1002
{
1070
   288
1070
     1
1002
}
  0
DIMENSION
  5
4E13
330
1F
100
AcDbEntity
  8
寸法
100
AcDbDimension
280
     0
  2
*D105
 10
195.8312594292886
 20
168.620900024835
 30
0.0
 11
228.1209630277019
 21
188.083623100037
 31
0.0
 70
   163
  1
2-<>キリ穴
 71
     5
 42
3.290000000000361
 73
     0
 74
     0
 75
     0
  3
LINEEYE
100
AcDbDiametricDimension
 15
198.6489828136868
 25
170.3192918904004
 35
0.0
 40
0.0
1001
ACAD_DSTYLE_DIMRADIAL_EXTENSION
1070
   387
1070
     1
1070
   388
1040
0.0
1070
   390
1040
0.0
1001
ACAD
1000
DSTYLE
1002
{
1070
   288
1070
     1
1002
}
  0
DIMENSION
  5
4E14
102
{ACAD_XDICTIONARY
360
4E15
102
}
102
{ACAD_REACTORS
330
4E16
102
}
330
1F
100
AcDbEntity
  8
寸法
100
AcDbDimension
280
     0
  2
*D113
 10
206.0801211214874
 20
192.4111725185986
 30
0.0
 11
197.2151211214876
 21
194.6611725185987
 31
0.0
 70
    32
 71
     5
 42
17.72999999999956
 73
     0
 74
     0
 75
     0
  3
LINEEYE
100
AcDbAlignedDimension
 13
188.3501211214878
 23
159.5100959576179
 33
0.0
 14
206.0801211214874
 24
179.3200959576178
 34
0.0
100
AcDbRotatedDimension
  0
CIRCLE
  5
4E17
102
{ACAD_REACTORS
330
4E1C
102
}
330
1F
100
AcDbEntity
  8
外形１
100
AcDbCircle
 10
203.0801211214897
 20
146.0700959576178
 30
0.0
 40
1.599999999999999
  0
CIRCLE
  5
4E18
330
1F
100
AcDbEntity
  8
外形１
100
AcDbCircle
 10
203.0801211214879
 20
176.5700959576176
 30
0.0
 40
1.599999999999999
  0
CIRCLE
  5
4E19
330
1F
100
AcDbEntity
  8
外形１
100
AcDbCircle
 10
152.0801211214878
 20
176.5700959576176
 30
0.0
 40
1.599999999999999
  0
DIMENSION
  5
4E1A
102
{ACAD_XDICTIONARY
360
4E1B
102
}
102
{ACAD_REACTORS
330
4E1C
102
}
330
1F
100
AcDbEntity
  8
寸法
100
AcDbDimension
280
     0
  2
*D114
 10
202.1945234794856
 20
147.4026562063401
 30
0.0
 11
215.6788563254051
 21
131.8707160622256
 31
0.0
 70
    35
  1
<> THランド
 71
     5
 42
3.199999999999405
 73
     0
 74
     0
 75
     0
  3
LINEEYE
100
AcDbDiametricDimension
 15
203.9657187634942
 25
144.7375357088951
 35
0.0
 40
0.0
1001
ACAD
1000
DSTYLE
1002
{
1070
   288
1070
     1
1002
}
1001
ACAD_DSTYLE_DIMRADIAL_EXTENSION
1070
   387
1070
     1
1070
   388
1040
0.0
1070
   390
1040
0.0
  0
LWPOLYLINE
  5
4E1D
330
1F
100
AcDbEntity
  8
外形１
100
AcDbPolyline
 90
        4
 70
     1
 43
0.0
 10
149.5401211214874
 20
151.1600959576178
 10
154.6201211214874
 20
151.1600959576178
 10
154.6201211214874
 20
171.4800959576179
 10
149.5401211214874
 20
171.4800959576179
  0
CIRCLE
  5
4E1E
330
1F
100
AcDbEntity
  8
外形１
100
AcDbCircle
 10
152.0801211214874
 20
152.4300959576177
 30
0.0
 40
0.45
  0
CIRCLE
  5
4E1F
330
1F
100
AcDbEntity
  8
外形１
100
AcDbCircle
 10
152.0801211214874
 20
154.9700959576177
 30
0.0
 40
0.45
  0
CIRCLE
  5
4E20
330
1F
100
AcDbEntity
  8
外形１
100
AcDbCircle
 10
152.0801211214874
 20
157.5100959576177
 30
0.0
 40
0.45
  0
CIRCLE
  5
4E21
330
1F
100
AcDbEntity
  8
外形１
100
AcDbCircle
 10
152.0801211214874
 20
160.0500959576176
 30
0.0
 40
0.45
  0
CIRCLE
  5
4E22
330
1F
100
AcDbEntity
  8
外形１
100
AcDbCircle
 10
152.0801211214874
 20
162.5900959576176
 30
0.0
 40
0.45
  0
CIRCLE
  5
4E23
330
1F
100
AcDbEntity
  8
外形１
100
AcDbCircle
 10
152.0801211214874
 20
165.1300959576176
 30
0.0
 40
0.45
  0
CIRCLE
  5
4E24
330
1F
100
AcDbEntity
  8
外形１
100
AcDbCircle
 10
152.0801211214874
 20
167.6700959576175
 30
0.0
 40
0.45
  0
CIRCLE
  5
4E25
330
1F
100
AcDbEntity
  8
外形１
100
AcDbCircle
 10
152.0801211214874
 20
170.2100959576175
 30
0.0
 40
0.45
  0
CIRCLE
  5
4E26
330
1F
100
AcDbEntity
  8
隠れ線
  6
DASHED2
100
AcDbCircle
 10
33.17650008133876
 20
146.0270766435712
 30
0.0
 40
4.75
  0
CIRCLE
  5
4E27
330
1F
100
AcDbEntity
  8
隠れ線
  6
DASHED2
100
AcDbCircle
 10
33.17650008133694
 20
176.5700959576176
 30
0.0
 40
4.75
  0
CIRCLE
  5
4E28
330
1F
100
AcDbEntity
  8
隠れ線
  6
DASHED2
100
AcDbCircle
 10
84.17650008133694
 20
176.5700959576176
 30
0.0
 40
4.75
  0
CIRCLE
  5
4E29
330
1F
100
AcDbEntity
  8
隠れ線
  6
DASHED2
100
AcDbCircle
 10
84.17650008133875
 20
146.0700959576178
 30
0.0
 40
4.75
  0
LWPOLYLINE
  5
4E2A
330
1F
100
AcDbEntity
  8
外形１
100
AcDbPolyline
 90
        4
 70
     1
 43
0.0
 10
157.1601211214873
 20
148.6200959576173
 10
162.2401211214873
 20
148.6200959576173
 10
162.2401211214873
 20
153.7000959576177
 10
157.1601211214873
 20
153.7000959576177
  0
CIRCLE
  5
4E2B
102
{ACAD_REACTORS
330
4E37
102
}
330
1F
100
AcDbEntity
  8
外形１
100
AcDbCircle
 10
159.7001211214873
 20
149.8900959576173
 30
0.0
 40
0.45
  0
CIRCLE
  5
4E2C
330
1F
100
AcDbEntity
  8
外形１
100
AcDbCircle
 10
159.7001211214873
 20
152.4300959576173
 30
0.0
 40
0.45
  0
DIMENSION
  5
4E2D
330
1F
100
AcDbEntity
  8
寸法
100
AcDbDimension
280
     0
  2
*D106
 10
212.4692880274532
 20
163.3200959576178
 30
0.0
 11
212.4692880274532
 21
169.986762624285
 31
0.0
 70
   160
 71
     5
 42
2.0
 73
     0
 74
     0
 75
     0
  3
LINEEYE(寸法線の傾きに合わせる)
100
AcDbAlignedDimension
 13
208.0801211214879
 23
161.3200959576178
 33
0.0
 14
194.3850655700656
 24
163.3200959576178
 34
0.0
 50
90.0
100
AcDbRotatedDimension
  0
DIMENSION
  5
4E2E
102
{ACAD_XDICTIONARY
360
4E2F
102
}
102
{ACAD_REACTORS
330
4E30
102
}
330
1F
100
AcDbEntity
  8
寸法
100
AcDbDimension
280
     0
  2
*D115
 10
161.5801211214878
 20
186.194010736347
 30
0.0
 11
165.5801211214878
 21
188.444010736347
 31
0.0
 70
    32
 71
     5
 42
8.0
 73
     0
 74
     0
 75
     0
  3
LINEEYE
100
AcDbAlignedDimension
 13
169.5801211214878
 23
175.3200959576181
 33
0.0
 14
161.5801211214878
 24
175.3200959576181
 34
0.0
100
AcDbRotatedDimension
  0
TEXT
  5
4E31
330
1F
100
AcDbEntity
  8
外形１
100
AcDbText
 10
150.7195256542231
 20
169.5023866550838
 30
0.0
 40
1.0
  1
1
  7
0615
 72
     4
 11
150.8385732732707
 21
170.0023866550838
 31
0.0
100
AcDbText
  0
TEXT
  5
4E32
330
1F
100
AcDbEntity
  8
外形１
100
AcDbText
 10
150.4495081930349
 20
151.8829194601373
 30
0.0
 40
1.0
  1
8
  7
0615
 72
     4
 11
150.7828415263683
 21
152.3829194601373
 31
0.0
100
AcDbText
  0
TEXT
  5
4E33
330
1F
100
AcDbEntity
  8
外形１
100
AcDbText
 10
163.0810735024397
 20
151.9300959576173
 30
0.0
 40
1.0
  1
1
  7
0615
 72
     4
 11
163.2001211214873
 21
152.4300959576173
 31
0.0
100
AcDbText
  0
TEXT
  5
4E34
330
1F
100
AcDbEntity
  8
外形１
100
AcDbText
 10
162.8667877881539
 20
149.3900959576173
 30
0.0
 40
1.0
  1
2
  7
0615
 72
     4
 11
163.2001211214873
 21
149.8900959576173
 31
0.0
100
AcDbText
  0
DIMENSION
  5
4E35
102
{ACAD_XDICTIONARY
360
4E36
102
}
102
{ACAD_REACTORS
330
4E37
102
}
330
1F
100
AcDbEntity
  8
寸法
100
AcDbDimension
280
     0
  2
*D116
 10
159.7001211214873
 20
137.5234417341546
 30
0.0
 11
155.8901211214885
 21
139.7734417341546
 31
0.0
 70
    32
 71
     5
 42
7.619999999997617
 73
     0
 74
     0
 75
     0
  3
LINEEYE
100
AcDbAlignedDimension
 13
152.0801211214897
 23
143.9656722475471
 33
0.0
 14
159.7001211214873
 24
149.8900959576173
 34
0.0
100
AcDbRotatedDimension
  0
DIMENSION
  5
4E38
102
{ACAD_XDICTIONARY
360
4E39
102
}
102
{ACAD_REACTORS
330
4E3A
102
}
330
1F
100
AcDbEntity
  8
寸法
100
AcDbDimension
280
     0
  2
*D117
 10
195.2803250541668
 20
179.3200959576181
 30
0.0
 11
195.2803250541668
 21
186.0343816719043
 31
0.0
 70
   160
 71
     5
 42
4.0
 73
     0
 74
     0
 75
     0
  3
LINEEYE(寸法線の傾きに合わせる)
100
AcDbAlignedDimension
 13
192.3346525150094
 23
175.3200959576181
 33
0.0
 14
195.2803250541673
 24
179.3200959576181
 34
0.0
 50
90.0
100
AcDbRotatedDimension
  0
MULTILEADER
  5
4E3B
330
1F
100
AcDbEntity
  8
寸法
160
               920
310
98030000190000000C00000016000000000000C00C00000033000000000000000C00000013000000993A0000E000000026000000D3BFA21942966040EB4CF9E575A86540000000000000000000000000000000000000000000000000000000000000F03F000000000000F03F000000000000000000000000000000004C0045
310
00440020003100200000005C00060000000100000000000000000000409A9999999999E93F65732D3852C1D03F000000000000F03F00000000000000000000000000000000000000000000000000000000010000000000000000000000730069006D0070006C00650078002E00730068007800000062006900670066006F00
310
6E0074002E007300680078000000C40000002600000030C52BDDAD856140EB4CF9E575A86540000000000000000000000000000000000000000000000000000000000000F03F000000000000F03F000000000000000000000000000000007EFF9DFF80FF70FF00000000040000000100000000000000000000409A99999999
310
99E93F65732D3852C1D03F000000000000F03F0000000000000000000000000000000000000000000000000000000001000000320000002DFF33FF200030FFB430B730C330AF300000000000000000000065000C00000033000000000000000C00000010000000030000000C00000016000000000000C00C00000012000000
310
FF7F00000C00000013000000010000000C0000001400000001000000540000000700000003000000460820A87AE16340437B49C57FE8654000000000000000004C902B5A90326440AEB1E0393EEA6540000000000000000040CE9D7D6DE66340404485AD4BCE654000000000000000000C00000013000000891300003C0000
310
00060000000200000043EBDE12F4E36340C25F67B965DB654000000000000000003C475FDF749262401E802C19A99B654000000000000000000C00000013000000112700003C00000006000000020000003C475FDF749262401E802C19A99B6540000000000000000050F5A6C0EF8662401E802C19A99B6540000000000000
310
00000C00000016000000000000C00C00000012000000FF7F00000C00000017000000000000000C000000130000009A3A00003C0000000600000002000000D3BFA219429660401E802C19A99B6540000000000000000050F5A6C0EF8662401E802C19A99B654000000000000000000C00000016000000000000C00C00000012
310
000000FF7F00000C00000017000000FFFFFFFF0C0000003300000000000000
100
AcDbMLeader
270
     2
300
CONTEXT_DATA{
 40
1.0
 10
130.6955688646981
 20
173.1484827957209
 30
0.0
 41
2.0
140
2.5
145
2.0
174
     6
175
     5
176
     2
177
     0
290
     1
304
LED 1 {\fMS PGothic|b0|i0|c128|p50;ｾﾝﾀｰ}
 11
0.0
 21
0.0
 31
1.0
340
4A15
 12
146.2167666684058
 22
175.5484827957209
 32
0.0
 13
1.0
 23
0.0
 33
0.0
 42
0.0
 43
0.0
 44
0.0
 45
0.6
170
     1
 90
-1073741824
171
     3
172
     5
 91
-1073741824
141
0.0
 92
        0
291
     0
292
     0
173
     0
293
     0
142
0.0
143
0.0
294
     0
295
     0
296
     0
110
161.5801211214878
120
175.3200959576183
130
0.0
111
1.0
121
0.0
131
0.0
112
0.0
122
1.0
132
0.0
297
     0
302
LEADER{
290
     1
291
     1
 10
148.5767666684058
 20
172.86439188663
 30
0.0
 11
-1.0
 21
0.0
 31
0.0
 90
        0
 40
0.36
304
LEADER_LINE{
 10
161.5801211214878
 20
175.3200959576183
 30
0.0
 91
        0
305
}
271
     0
303
}
272
     9
273
     9
301
}
340
36FA
 90
 33906176
170
     1
 91
-1056964608
341
14
171
    -2
290
     1
291
     1
 41
0.36
 42
2.5
172
     2
343
4A15
173
     6
 95
        5
174
     1
175
     2
 92
-1056964608
292
     0
 93
-1056964608
 10
1.0
 20
1.0
 30
1.0
 43
0.0
176
     0
293
     0
294
     0
178
     0
179
     3
 45
1.0
271
     0
272
     9
273
     9
295
     1
  0
MULTILEADER
  5
4E3E
330
1F
100
AcDbEntity
  8
寸法
160
               920
310
98030000190000000C00000016000000000000C00C00000033000000000000000C00000013000000993A0000E000000026000000F350EE09097B60402125C120E7FF6440000000000000000000000000000000000000000000000000000000000000F03F000000000000F03F000000000000000000000000000000004C0045
310
00440020003200200000005C00060000000100000000000000000000409A9999999999E93F65732D3852C1D03F000000000000F03F00000000000000000000000000000000000000000000000000000000010000000000000000000000730069006D0070006C00650078002E00730068007800000062006900670066006F00
310
6E0074002E007300680078000000C400000026000000EC168169357461402125C120E7FF6440000000000000000000000000000000000000000000000000000000000000F03F000000000000F03F000000000000000000000000000000007EFF9DFF80FF70FF00000000040000000100000000000000000000409A99999999
310
99E93F65732D3852C1D03F000000000000F03F0000000000000000000000000000000000000000000000000000000001000000320000002DFF33FF200030FFB430B730C330AF300000000000000000000065000C00000033000000000000000C00000010000000030000000C00000016000000000000C00C00000012000000
310
FF7F00000C00000013000000010000000C0000001400000001000000540000000700000003000000F3A70C89C1E26440C0A590E1CDDB654000000000000000004C902B5A90326540A6B1E0393EEA654000000000000000007A04EAB7C0EB644064920079B3C2654000000000000000000C00000013000000891300003C0000
310
00060000000200000036567B2041E76440129C48AD40CF65400000000000000000FC98B46BFC8062404E58F4531AF3644000000000000000000C00000013000000112700003C0000000600000002000000FC98B46BFC8062404E58F4531AF3644000000000000000001047FC4C777562404E58F4531AF36440000000000000
310
00000C00000016000000000000C00C00000012000000FF7F00000C00000017000000000000000C000000130000009A3A00003C0000000600000002000000F750EE09097B60404E58F4531AF3644000000000000000001047FC4C777562404E58F4531AF3644000000000000000000C00000016000000000000C00C00000012
310
000000FF7F00000C00000017000000FFFFFFFF0C0000003300000000000000
100
AcDbMLeader
270
     2
300
CONTEXT_DATA{
 40
1.0
 10
129.8448533682455
 20
167.8810547698279
 30
0.0
 41
2.0
140
2.5
145
2.0
174
     6
175
     5
176
     2
177
     0
290
     1
304
LED 2 {\fMS PGothic|b0|i0|c128|p50;ｾﾝﾀｰ}
 11
0.0
 21
0.0
 31
1.0
340
4A15
 12
145.670813076715
 22
170.2810547698281
 32
0.0
 13
1.0
 23
0.0
 33
0.0
 42
0.0
 43
0.0
 44
0.0
 45
0.6
170
     1
 90
-1073741824
171
     3
172
     5
 91
-1073741824
141
0.0
 92
        0
291
     0
292
     0
173
     0
293
     0
142
0.0
143
0.0
294
     0
295
     0
296
     0
110
169.5801211214878
120
175.3200959576181
130
0.0
111
1.0
121
0.0
131
0.0
112
0.0
122
1.0
132
0.0
297
     0
302
LEADER{
290
     1
291
     1
 10
148.0308130767151
 20
167.596963860737
 30
0.0
 11
-1.0
 21
0.0
 31
0.0
 90
        0
 40
0.36
304
LEADER_LINE{
 10
169.5801211214878
 20
175.3200959576181
 30
0.0
 91
        0
305
}
271
     0
303
}
272
     9
273
     9
301
}
340
36FA
 90
 33906176
170
     1
 91
-1056964608
341
14
171
    -2
290
     1
291
     1
 41
0.36
 42
2.5
172
     2
343
4A15
173
     6
 95
        5
174
     1
175
     2
 92
-1056964608
292
     0
 93
-1056964608
 10
1.0
 20
1.0
 30
1.0
 43
0.0
176
     0
293
     0
294
     0
178
     0
179
     3
 45
1.0
271
     0
272
     9
273
     9
295
     1
  0
MULTILEADER
  5
4E3F
330
1F
100
AcDbEntity
  8
寸法
160
               920
310
98030000190000000C00000016000000000000C00C00000033000000000000000C00000013000000993A0000E000000026000000E303A4FB6B7E604071326CE8375E6440000000000000000000000000000000000000000000000000000000000000F03F000000000000F03F000000000000000000000000000000004C0045
310
00440020003300200000005C00060000000100000000000000000000409A9999999999E93F65732D3852C1D03F000000000000F03F00000000000000000000000000000000000000000000000000000000010000000000000000000000730069006D0070006C00650078002E00730068007800000062006900670066006F00
310
6E0074002E007300680078000000C400000026000000DCC9365B9877614071326CE8375E6440000000000000000000000000000000000000000000000000000000000000F03F000000000000F03F000000000000000000000000000000007EFF9DFF80FF70FF00000000040000000100000000000000000000409A99999999
310
99E93F65732D3852C1D03F000000000000F03F0000000000000000000000000000000000000000000000000000000001000000320000002DFF33FF200030FFB430B730C330AF300000000000000000000065000C00000033000000000000000C00000010000000030000000C00000016000000000000C00C00000012000000
310
FF7F00000C00000013000000010000000C00000014000000010000005400000007000000030000006530AF0AEC3A67400F3E0C49BADE65400000000000000000BCCD3531348B6740A6B1E0393EEA654000000000000000007204C40EFF426740F42C381250C5654000000000000000000C00000013000000891300003C0000
310
0006000000020000006C9AB98CF53E67408235A22D05D265400000000000000000EC4B6A5D5F8462409E659F1B6B51644000000000000000000C00000013000000112700003C0000000600000002000000EC4B6A5D5F8462409E659F1B6B516440000000000000000000FAB13EDA7862409E659F1B6B516440000000000000
310
00000C00000016000000000000C00C00000012000000FF7F00000C00000017000000000000000C000000130000009A3A00003C0000000600000002000000E703A4FB6B7E60409E659F1B6B516440000000000000000000FAB13EDA7862409E659F1B6B51644000000000000000000C00000016000000000000C00C00000012
310
000000FF7F00000C00000017000000FFFFFFFF0C0000003300000000000000
100
AcDbMLeader
270
     2
300
CONTEXT_DATA{
 40
1.0
 10
129.9506815150664
 20
162.8284156040316
 30
0.0
 41
2.0
140
2.5
145
2.0
174
     6
175
     5
176
     2
177
     0
290
     1
304
LED 3 {\fMS PGothic|b0|i0|c128|p50;ｾﾝﾀｰ}
 11
0.0
 21
0.0
 31
1.0
340
4A15
 12
145.7766412235359
 22
165.2284156040318
 32
0.0
 13
1.0
 23
0.0
 33
0.0
 42
0.0
 43
0.0
 44
0.0
 45
0.6
170
     1
 90
-1073741824
171
     3
172
     5
 91
-1073741824
141
0.0
 92
        0
291
     0
292
     0
173
     0
293
     0
142
0.0
143
0.0
294
     0
295
     0
296
     0
110
188.3501211214878
120
175.3200959576181
130
0.0
111
1.0
121
0.0
131
0.0
112
0.0
122
1.0
132
0.0
297
     0
302
LEADER{
290
     1
291
     1
 10
148.136641223536
 20
162.5443246949407
 30
0.0
 11
-1.0
 21
0.0
 31
0.0
 90
        0
 40
0.36
304
LEADER_LINE{
 10
188.3501211214878
 20
175.3200959576181
 30
0.0
 91
        0
305
}
271
     0
303
}
272
     9
273
     9
301
}
340
36FA
 90
 33906176
170
     1
 91
-1056964608
341
14
171
    -2
290
     1
291
     1
 41
0.36
 42
2.5
172
     2
343
4A15
173
     6
 95
        5
174
     1
175
     2
 92
-1056964608
292
     0
 93
-1056964608
 10
1.0
 20
1.0
 30
1.0
 43
0.0
176
     0
293
     0
294
     0
178
     0
179
     3
 45
1.0
271
     0
272
     9
273
     9
295
     1
  0
DIMENSION
  5
4E40
102
{ACAD_XDICTIONARY
360
4E41
102
}
102
{ACAD_REACTORS
330
4E42
102
}
330
1F
100
AcDbEntity
  8
寸法
100
AcDbDimension
280
     0
  2
*D118
 10
169.5801211214878
 20
186.194010736347
 30
0.0
 11
173.5801211214879
 21
188.444010736347
 31
0.0
 70
    32
 71
     5
 42
8.0
 73
     0
 74
     0
 75
     0
  3
LINEEYE
100
AcDbAlignedDimension
 13
177.5801211214879
 23
181.3200959576181
 33
0.0
 14
169.5801211214878
 24
175.3200959576181
 34
0.0
100
AcDbRotatedDimension
  0
LINE
  5
4E43
330
1F
100
AcDbEntity
  8
外形１
100
AcDbLine
 10
208.0801211214879
 20
155.2950959576177
 30
0.0
 11
208.0801211214879
 21
171.3450959576179
 31
0.0
  0
LINE
  5
4E44
330
1F
100
AcDbEntity
  8
外形１
100
AcDbLine
 10
174.1801211214878
 20
171.3450959576179
 30
0.0
 11
174.1801211214878
 21
155.2950959576177
 31
0.0
  0
LINE
  5
4E45
330
1F
100
AcDbEntity
  8
外形１
100
AcDbLine
 10
174.1801211214878
 20
155.2950959576177
 30
0.0
 11
208.0801211214879
 21
155.2950959576177
 31
0.0
  0
LINE
  5
4E46
330
1F
100
AcDbEntity
  8
外形１
100
AcDbLine
 10
208.0801211214879
 20
171.3450959576179
 30
0.0
 11
174.1801211214878
 21
171.3450959576179
 31
0.0
  0
LINE
  5
4E47
330
1F
100
AcDbEntity
  8
中心線
100
AcDbLine
 10
197.2401211214877
 20
169.4700959576179
 30
0.0
 11
197.2401211214877
 21
157.1700959576177
 31
0.0
  0
TEXT
  5
4E48
330
1F
100
AcDbEntity
  8
寸法
100
AcDbText
 10
186.9493703195994
 20
167.2698930866121
 30
0.0
 40
1.0
  1
1
  7
0615
 72
     4
 11
187.068417938647
 21
167.7698930866121
 31
0.0
100
AcDbText
  0
TEXT
  5
4E49
330
1F
100
AcDbEntity
  8
寸法
100
AcDbText
 10
191.9066701618926
 20
166.5035875665762
 30
0.0
 40
1.0
  1
2
  7
0615
 72
     4
 11
192.240003495226
 21
167.0035875665762
 31
0.0
100
AcDbText
  0
TEXT
  5
4E4A
330
1F
100
AcDbEntity
  8
寸法
100
AcDbText
 10
186.8442113494907
 20
159.6099061308945
 30
0.0
 40
1.0
  1
7
  7
0615
 72
     4
 11
187.1775446828241
 21
160.1099061308945
 31
0.0
100
AcDbText
  0
TEXT
  5
4E4B
330
1F
100
AcDbEntity
  8
寸法
100
AcDbText
 10
191.9861891985329
 20
158.8571030139591
 30
0.0
 40
1.0
  1
8
  7
0615
 72
     4
 11
192.3195225318662
 21
159.3571030139591
 31
0.0
100
AcDbText
  0
MTEXT
  5
4E4C
330
1F
100
AcDbEntity
  8
寸法
100
AcDbMText
 10
175.7607185446389
 20
158.5539835406704
 30
0.0
 40
2.0
 41
7.88960893004878
 46
0.0
 71
     1
 72
     5
  1
XPort
  7
LINEEYE
 73
     1
 44
1.0
  0
CIRCLE
  5
4E4D
330
1F
100
AcDbEntity
  8
外形１
100
AcDbCircle
 10
197.2401211214877
 20
157.1700959576177
 30
0.0
 40
1.625
  0
CIRCLE
  5
4E4E
330
1F
100
AcDbEntity
  8
外形１
100
AcDbCircle
 10
197.2401211214877
 20
169.4700959576179
 30
0.0
 40
1.625
  0
CIRCLE
  5
4E4F
330
1F
100
AcDbEntity
  8
寸法
100
AcDbCircle
 10
188.3501211214878
 20
167.7650959576178
 30
0.0
 40
0.45
  0
CIRCLE
  5
4E50
330
1F
100
AcDbEntity
  8
寸法
100
AcDbCircle
 10
188.3501211214878
 20
165.2250959576178
 30
0.0
 40
0.45
  0
CIRCLE
  5
4E51
330
1F
100
AcDbEntity
  8
寸法
100
AcDbCircle
 10
188.3501211214878
 20
162.6850959576179
 30
0.0
 40
0.45
  0
CIRCLE
  5
4E52
330
1F
100
AcDbEntity
  8
寸法
100
AcDbCircle
 10
188.3501211214878
 20
160.1450959576179
 30
0.0
 40
0.45
  0
CIRCLE
  5
4E53
330
1F
100
AcDbEntity
  8
寸法
100
AcDbCircle
 10
190.8901211214878
 20
166.4950959576178
 30
0.0
 40
0.45
  0
CIRCLE
  5
4E54
330
1F
100
AcDbEntity
  8
寸法
100
AcDbCircle
 10
190.8901211214878
 20
163.9550959576178
 30
0.0
 40
0.45
  0
CIRCLE
  5
4E55
330
1F
100
AcDbEntity
  8
寸法
100
AcDbCircle
 10
190.8901211214878
 20
161.4150959576179
 30
0.0
 40
0.45
  0
CIRCLE
  5
4E56
330
1F
100
AcDbEntity
  8
寸法
100
AcDbCircle
 10
190.8901211214878
 20
158.8750959576179
 30
0.0
 40
0.45
  0
LINE
  5
4E57
330
1F
100
AcDbEntity
  8
中心線
100
AcDbLine
 10
183.9768528185153
 20
163.3200959576178
 30
0.0
 11
194.3850655700656
 21
163.3200959576178
 31
0.0
  0
LINE
  5
4E58
330
1F
100
AcDbEntity
  8
中心線
100
AcDbLine
 10
188.3501211214878
 20
160.1450959576179
 30
0.0
 11
188.3501211214878
 21
173.33696190062
 31
0.0
  0
LINE
  5
4E59
330
1F
100
AcDbEntity
  8
隠れ線
  6
DASHED2
100
AcDbLine
 10
89.17650008133694
 20
155.295095957618
 30
0.0
 11
89.17650008133694
 21
171.3450959576182
 31
0.0
  0
LINE
  5
4E5A
330
1F
100
AcDbEntity
  8
隠れ線
  6
DASHED2
100
AcDbLine
 10
55.27650008133685
 20
171.3450959576182
 30
0.0
 11
55.27650008133685
 21
155.295095957618
 31
0.0
  0
LINE
  5
4E5B
330
1F
100
AcDbEntity
  8
隠れ線
  6
DASHED2
100
AcDbLine
 10
55.27650008133685
 20
155.295095957618
 30
0.0
 11
89.17650008133694
 21
155.295095957618
 31
0.0
  0
LINE
  5
4E5C
330
1F
100
AcDbEntity
  8
隠れ線
  6
DASHED2
100
AcDbLine
 10
89.17650008133694
 20
171.3450959576182
 30
0.0
 11
55.27650008133685
 21
171.3450959576182
 31
0.0
  0
VIEWPORT
  5
467
330
1B
100
AcDbEntity
 67
     1
  8
0
348
36DF
100
AcDbViewport
 10
167.7379444173766
 20
103.0690550065652
 30
0.0
 40
481.0762018238106
 41
271.8960091388946
 68
     1
 69
     1
 12
167.7379444173766
 22
103.0690550065652
 13
0.0
 23
0.0
 14
10.0
 24
10.0
 15
10.0
 25
10.0
 16
0.0
 26
0.0
 36
1.0
 17
0.0
 27
0.0
 37
0.0
 42
50.0
 43
0.0
 44
0.0
 45
271.8960091388946
 50
0.0
 51
0.0
 72
   100
 90
    32800
  1

281
     0
 71
     1
 74
     0
110
0.0
120
0.0
130
0.0
111
1.0
121
0.0
131
0.0
112
0.0
122
1.0
132
0.0
 79
     0
146
0.0
170
     0
 61
     5
348
36DF
292
     1
282
     1
141
0.0
142
0.0
361
36FF
  0
VIEWPORT
  5
469
102
{ACAD_XDICTIONARY
360
3BFB
102
}
330
1B
100
AcDbEntity
 67
     1
  8
0
348
36DF
100
AcDbViewport
 10
148.1378897606556
 20
99.00850465465111
 30
0.0
 40
257.5080359132773
 41
160.0
 68
     2
 69
     2
 12
0.0
 22
0.0
 13
0.0
 23
0.0
 14
10.0
 24
10.0
 15
10.0
 25
10.0
 16
0.0
 26
0.0
 36
360.9134059317755
 17
131.772498195835
 27
167.8076978898279
 37
0.0
 42
50.0
 43
0.0
 44
0.0
 45
159.9999996273183
 50
0.0
 51
0.0
 72
   100
 90
    32864
  1

281
     0
 71
     1
 74
     0
110
0.0
120
0.0
130
0.0
111
1.0
121
0.0
131
0.0
112
0.0
122
1.0
132
0.0
 79
     0
146
0.0
170
     0
 61
     5
348
36DF
292
     1
282
     1
141
0.0
142
0.0
  0
LINE
  5
3C06
330
1B
100
AcDbEntity
 67
     1
  8
GAIKEI
100
AcDbLine
 10
-0.6161281959830376
 20
-0.9914953453488806
 30
0.0
 11
296.8919077172943
 21
-0.9914953453488806
 31
0.0
  0
LINE
  5
3C07
330
1B
100
AcDbEntity
 67
     1
  8
GAIKEI
100
AcDbLine
 10
296.8919077172943
 20
-0.9914953453488806
 30
0.0
 11
296.8919077172943
 21
209.0085046546511
 31
0.0
  0
LINE
  5
3C08
330
1B
100
AcDbEntity
 67
     1
  8
GAIKEI
100
AcDbLine
 10
296.8919077172943
 20
209.0085046546511
 30
0.0
 11
-0.6161281959830376
 21
209.0085046546511
 31
0.0
  0
LINE
  5
3C09
330
1B
100
AcDbEntity
 67
     1
  8
GAIKEI
100
AcDbLine
 10
-0.6161281959830376
 20
209.0085046546511
 30
0.0
 11
-0.6161281959830376
 21
-0.9914953453488806
 31
0.0
  0
MTEXT
  5
3C1C
330
1B
100
AcDbEntity
 67
     1
  8
0
100
AcDbMText
 10
22.09387197189744
 20
194.2347715348862
 30
0.0
 40
4.0
 41
113.6736322822726
 46
7.006666666666667
 71
     1
 72
     5
  1
{\fMS UI Gothic|b0|i0|c128|p50;XPort組込み評価ボード　UART(3.3V/5V)モデル\P型番 ： EB-XP011}
 73
     1
 44
1.0
1001
ACAD
1000
ACAD_MTEXT_DEFINED_HEIGHT_BEGIN
1070
    46
1040
7.006666666666667
1000
ACAD_MTEXT_DEFINED_HEIGHT_END
  0
MTEXT
  5
3C1D
102
{ACAD_XDICTIONARY
360
3C1E
102
}
330
1B
100
AcDbEntity
 67
     1
  8
文字
100
AcDbMText
 10
223.9823266110419
 20
194.2347715348862
 30
0.0
 40
4.0
 41
43.80805967065966
 46
11.93936756140624
 71
     1
 72
     5
  1
{\fMS UI Gothic|b0|i0|c128|p50;株式会社ラインアイ\P\pi17.831;単位 ： mm}
 73
     1
 44
1.0
  0
ENDSEC
  0
SECTION
  2
OBJECTS
  0
DICTIONARY
  5
C
330
0
100
AcDbDictionary
281
     1
  3
ACAD_CIP_PREVIOUS_PRODUCT_INFO
350
3BBF
  3
ACAD_COLOR
350
371B
  3
ACAD_DETAILVIEWSTYLE
350
3BAC
  3
ACAD_GROUP
350
D
  3
ACAD_IMAGE_VARS
350
36FD
  3
ACAD_LAYOUT
350
1A
  3
ACAD_MATERIAL
350
36F3
  3
ACAD_MLEADERSTYLE
350
36F9
  3
ACAD_MLINESTYLE
350
17
  3
ACAD_PLOTSETTINGS
350
19
  3
ACAD_PLOTSTYLENAME
350
E
  3
ACAD_SCALELIST
350
36B8
  3
ACAD_SECTIONVIEWSTYLE
350
3BAD
  3
ACAD_TABLESTYLE
350
36F7
  3
ACAD_VISUALSTYLE
350
36DA
  3
ACDB_RECOMPOSE_DATA
350
5115
  3
AcDbVariableDictionary
350
193
  3
APPDATA
350
36FB
  0
SUN
  5
36FC
330
36B7
100
AcDbSun
 90
        1
290
     1
 63
     7
421
 16777215
 40
1.0
291
     1
 91
  2455826
 92
 54000000
292
     0
 70
     0
 71
   256
280
     1
  0
DICTIONARY
  5
396B
330
2
100
AcDbDictionary
280
     1
281
     1
  3
ACAD_LAYERSTATES
360
396C
  0
DICTIONARY
  5
370E
330
370D
100
AcDbDictionary
280
     1
281
     1
  3
ADSK_XREC_LAYER_RECONCILED
360
370F
  0
DICTIONARY
  5
F87
330
1F
100
AcDbDictionary
280
     1
281
     1
  3
ACAD_SORTENTS
360
F88
  0
DICTIONARY
  5
3C0A
330
1B
100
AcDbDictionary
280
     1
281
     1
  3
ACAD_SORTENTS
360
3C0B
  0
DICTIONARY
  5
2775
330
2774
100
AcDbDictionary
280
     1
281
     1
  3
ACAD_DIMASSOC
360
2776
  0
DICTIONARY
  5
2778
330
2777
100
AcDbDictionary
280
     1
281
     1
  3
ACAD_DIMASSOC
360
2779
  0
DICTIONARY
  5
277B
330
277A
100
AcDbDictionary
280
     1
281
     1
  3
ACAD_DIMASSOC
360
277C
  0
DICTIONARY
  5
278C
330
278B
100
AcDbDictionary
280
     1
281
     1
  3
ACAD_DIMASSOC
360
278D
  0
DICTIONARY
  5
2797
330
2796
100
AcDbDictionary
280
     1
281
     1
  3
ACAD_DIMASSOC
360
2798
  0
DICTIONARY
  5
279B
330
279A
100
AcDbDictionary
280
     1
281
     1
  3
ACAD_DIMASSOC
360
279C
  0
DICTIONARY
  5
27AD
330
27AC
100
AcDbDictionary
280
     1
281
     1
  3
ACAD_DIMASSOC
360
27AE
  0
DICTIONARY
  5
27B0
330
27AF
100
AcDbDictionary
280
     1
281
     1
  3
ACAD_DIMASSOC
360
27B1
  0
DICTIONARY
  5
27B3
330
27B2
100
AcDbDictionary
280
     1
281
     1
  3
ACAD_DIMASSOC
360
27B4
  0
DICTIONARY
  5
27CF
330
27CE
100
AcDbDictionary
280
     1
281
     1
  3
ACAD_DIMASSOC
360
27D0
  0
DICTIONARY
  5
27DD
330
27DC
100
AcDbDictionary
280
     1
281
     1
  3
ACAD_DIMASSOC
360
27DE
  0
DICTIONARY
  5
27E0
330
27DF
100
AcDbDictionary
280
     1
281
     1
  3
ACAD_DIMASSOC
360
27E1
  0
DICTIONARY
  5
27E5
330
27E4
100
AcDbDictionary
280
     1
281
     1
  3
ACAD_DIMASSOC
360
27E6
  0
DICTIONARY
  5
4DD5
330
4DD4
100
AcDbDictionary
280
     1
281
     1
  3
ACAD_DIMASSOC
360
4DD6
  0
DICTIONARY
  5
4DD8
330
4DD7
100
AcDbDictionary
280
     1
281
     1
  3
ACAD_DIMASSOC
360
4DD9
  0
DICTIONARY
  5
4DE0
330
4DDF
100
AcDbDictionary
280
     1
281
     1
  3
ACAD_DIMASSOC
360
4DE1
  0
DICTIONARY
  5
4DF5
330
4DF4
100
AcDbDictionary
280
     1
281
     1
  3
ACAD_DIMASSOC
360
4DF6
  0
DICTIONARY
  5
4DF9
330
4DF8
100
AcDbDictionary
280
     1
281
     1
  3
ACAD_DIMASSOC
360
4DFA
  0
DICTIONARY
  5
4E11
330
4E10
100
AcDbDictionary
280
     1
281
     1
  3
ACAD_DIMASSOC
360
4E12
  0
DICTIONARY
  5
4E15
330
4E14
100
AcDbDictionary
280
     1
281
     1
  3
ACAD_DIMASSOC
360
4E16
  0
DICTIONARY
  5
4E1B
330
4E1A
100
AcDbDictionary
280
     1
281
     1
  3
ACAD_DIMASSOC
360
4E1C
  0
DICTIONARY
  5
4E2F
330
4E2E
100
AcDbDictionary
280
     1
281
     1
  3
ACAD_DIMASSOC
360
4E30
  0
DICTIONARY
  5
4E36
330
4E35
100
AcDbDictionary
280
     1
281
     1
  3
ACAD_DIMASSOC
360
4E37
  0
DICTIONARY
  5
4E39
330
4E38
100
AcDbDictionary
280
     1
281
     1
  3
ACAD_DIMASSOC
360
4E3A
  0
DICTIONARY
  5
4E41
330
4E40
100
AcDbDictionary
280
     1
281
     1
  3
ACAD_DIMASSOC
360
4E42
  0
SUN
  5
36FF
330
467
100
AcDbSun
 90
        1
290
     1
 63
     7
421
 16777215
 40
1.0
291
     1
 91
  2455826
 92
 54000000
292
     0
 70
     0
 71
   256
280
     1
  0
DICTIONARY
  5
3BFB
330
469
100
AcDbDictionary
280
     1
281
     1
  3
ASDK_XREC_ANNOTATION_SCALE_INFO
360
3BFC
  0
DICTIONARY
  5
3C1E
330
3C1D
100
AcDbDictionary
280
     1
281
     1
  3
ACAD_MTEXT_2008_RT
360
5114
  0
XRECORD
  5
3BBF
102
{ACAD_REACTORS
330
C
102
}
330
C
100
AcDbXrecord
280
     1
300
ACDLT
300
2013
300
ACDLT_F_S
  0
DICTIONARY
  5
371B
102
{ACAD_REACTORS
330
C
102
}
330
C
100
AcDbDictionary
281
     1
  0
DICTIONARY
  5
3BAC
102
{ACAD_REACTORS
330
C
102
}
330
C
100
AcDbDictionary
281
     1
  3
Metric50
350
3BBA
  0
DICTIONARY
  5
D
102
{ACAD_REACTORS
330
C
102
}
330
C
100
AcDbDictionary
281
     1
  0
RASTERVARIABLES
  5
36FD
102
{ACAD_REACTORS
330
C
102
}
330
C
100
AcDbRasterVariables
 90
        0
 70
     1
 71
     1
 72
     1
  0
DICTIONARY
  5
1A
102
{ACAD_REACTORS
330
C
102
}
330
C
100
AcDbDictionary
281
     1
  3
Model
350
22
  3
ﾚｲｱｳﾄ1
350
1E
  0
DICTIONARY
  5
36F3
102
{ACAD_REACTORS
330
C
102
}
330
C
100
AcDbDictionary
281
     1
  3
ByBlock
350
36F5
  3
ByLayer
350
36F4
  3
Global
350
36F6
  0
DICTIONARY
  5
36F9
102
{ACAD_REACTORS
330
C
102
}
330
C
100
AcDbDictionary
281
     1
  3
Standard
350
36FA
  0
DICTIONARY
  5
17
102
{ACAD_REACTORS
330
C
102
}
330
C
100
AcDbDictionary
281
     1
  3
Standard
350
18
  0
DICTIONARY
  5
19
102
{ACAD_REACTORS
330
C
102
}
330
C
100
AcDbDictionary
281
     1
  0
ACDBDICTIONARYWDFLT
  5
E
102
{ACAD_REACTORS
330
C
102
}
330
C
100
AcDbDictionary
281
     1
  3
Normal
350
F
100
AcDbDictionaryWithDefault
340
F
  0
DICTIONARY
  5
36B8
102
{ACAD_REACTORS
330
C
102
}
330
C
100
AcDbDictionary
281
     1
  3
A0
350
36B9
  3
A1
350
36BA
  3
A2
350
36BB
  3
A3
350
36BC
  3
A4
350
36BD
  3
A5
350
36BE
  3
A6
350
36BF
  3
A7
350
36C0
  3
A8
350
36C1
  3
A9
350
36C2
  3
B0
350
36C3
  3
B1
350
36C4
  3
B2
350
36C5
  3
B3
350
36C6
  3
B4
350
36C7
  3
B5
350
36C8
  3
B6
350
36C9
  3
B7
350
36CA
  3
B8
350
36CB
  3
B9
350
36CC
  3
C0
350
36CD
  3
C1
350
36CE
  3
C2
350
36CF
  3
C3
350
36D0
  3
C4
350
36D1
  3
C5
350
36D2
  3
C6
350
36D3
  3
C7
350
36D4
  3
C8
350
36D5
  3
C9
350
36D6
  3
D0
350
36D7
  3
D1
350
36D8
  3
D2
350
36D9
  0
DICTIONARY
  5
3BAD
102
{ACAD_REACTORS
330
C
102
}
330
C
100
AcDbDictionary
281
     1
  3
Metric50
350
3BB9
  0
DICTIONARY
  5
36F7
102
{ACAD_REACTORS
330
C
102
}
330
C
100
AcDbDictionary
281
     1
  3
Standard
350
36F8
  0
DICTIONARY
  5
36DA
102
{ACAD_REACTORS
330
C
102
}
330
C
100
AcDbDictionary
281
     1
  3
2dWireframe
350
36DF
  3
Basic
350
36E2
  3
Brighten
350
36E6
  3
ColorChange
350
36EA
  3
Conceptual
350
36E4
  3
Dim
350
36E5
  3
EdgeColorOff
350
36ED
  3
Facepattern
350
36E9
  3
Flat
350
36DB
  3
FlatWithEdges
350
36DC
  3
Gouraud
350
36DD
  3
GouraudWithEdges
350
36DE
  3
Hidden
350
36E1
  3
JitterOff
350
36EB
  3
Linepattern
350
36E8
  3
OverhangOff
350
36EC
  3
Realistic
350
36E3
  3
Shaded
350
36F2
  3
Shaded with edges
350
36F1
  3
Shades of Gray
350
36EE
  3
Sketchy
350
36EF
  3
Thicken
350
36E7
  3
Wireframe
350
36E0
  3
X-Ray
350
36F0
  0
XRECORD
  5
5115
102
{ACAD_REACTORS
330
C
102
}
330
C
100
AcDbXrecord
280
     1
 90
        1
330
36F8
330
3C1D
  0
DICTIONARY
  5
193
102
{ACAD_REACTORS
330
C
102
}
330
C
100
AcDbDictionary
281
     1
  3
CANNOSCALE
350
3BA8
  3
CMLEADERSTYLE
350
3BAA
  3
CTABLESTYLE
350
3BA9
  3
CVIEWDETAILSTYLE
350
3BC3
  3
CVIEWSECTIONSTYLE
350
3BC4
  3
DIMASSOC
350
195
  3
HIDETEXT
350
194
  3
MSLTSCALE
350
3BAB
  3
SORTENTS
350
FE8
  0
DICTIONARY
  5
36FB
102
{ACAD_REACTORS
330
C
102
}
330
C
100
AcDbDictionary
281
     1
  0
DICTIONARY
  5
396C
102
{ACAD_REACTORS
330
396B
102
}
330
396B
100
AcDbDictionary
281
     1
  0
XRECORD
  5
370F
102
{ACAD_REACTORS
330
370E
102
}
330
370E
100
AcDbXrecord
280
     1
290
     1
  0
SORTENTSTABLE
  5
F88
102
{ACAD_REACTORS
330
F87
102
}
330
F87
100
AcDbSortentsTable
330
1F
  0
SORTENTSTABLE
  5
3C0B
102
{ACAD_REACTORS
330
3C0A
102
}
330
3C0A
100
AcDbSortentsTable
330
1B
331
3C06
  5
3C06
331
3C07
  5
3C08
331
3C08
  5
3C0D
331
3C09
  5
3C0F
331
467
  5
467
331
469
  5
469
  0
DIMASSOC
  5
2776
102
{ACAD_REACTORS
330
2775
102
}
330
2775
100
AcDbDimAssoc
330
2774
 90
        2
 70
     0
 71
     0
  1
AcDbOsnapPointRef
 72
     3
331
27CA
 73
     2
 91
        0
 40
0.0
 10
207.0799496199761
 20
165.2438128573029
 30
0.0
 75
     0
  0
DIMASSOC
  5
2779
102
{ACAD_REACTORS
330
2778
102
}
330
2778
100
AcDbDimAssoc
330
2777
 90
        1
 70
     0
 71
     0
  1
AcDbOsnapPointRef
 72
    13
331
27EA
 73
     2
 91
        0
 40
0.0
 10
216.0799496199762
 20
185.7438128573028
 30
0.0
 75
     0
  0
DIMASSOC
  5
277C
102
{ACAD_REACTORS
330
277B
102
}
330
277B
100
AcDbDimAssoc
330
277A
 90
        3
 70
     0
 71
     0
  1
AcDbOsnapPointRef
 72
    13
331
2787
 73
     2
 91
        0
 40
0.0
 10
133.5799496199762
 20
194.2438128573029
 30
0.0
 75
     0
  1
AcDbOsnapPointRef
 72
     1
331
2787
 73
     2
 91
        0
 40
1.0
 10
210.5799496199761
 20
194.2438128573029
 30
0.0
 75
     0
  0
DIMASSOC
  5
278D
102
{ACAD_REACTORS
330
278C
102
}
330
278C
100
AcDbDimAssoc
330
278B
 90
        3
 70
     0
 71
     0
  1
AcDbOsnapPointRef
 72
     6
331
278A
 73
     2
 91
        0
 40
0.5
 10
172.079949619976
 20
147.0243708573029
 30
0.0
332
27A2
 74
     2
 92
        0
 75
     0
  1
AcDbOsnapPointRef
 72
     6
331
2799
 73
     2
 91
        0
 40
0.4084507042253521
 10
172.079949619976
 20
144.5243708573029
 30
0.0
332
27A2
 74
     2
 92
        0
 75
     0
  0
DIMASSOC
  5
2798
102
{ACAD_REACTORS
330
2797
102
}
330
2797
100
AcDbDimAssoc
330
2796
 90
        3
 70
     0
 71
     0
  1
AcDbOsnapPointRef
 72
     1
331
278E
 73
     2
 91
        0
 40
1.0
 10
157.5799496199761
 20
139.0243708573029
 30
0.0
 75
     0
  1
AcDbOsnapPointRef
 72
    13
331
2784
 73
     2
 91
        0
 40
0.0
 10
193.079949619976
 20
139.0243708573029
 30
0.0
 75
     0
  0
DIMASSOC
  5
279C
102
{ACAD_REACTORS
330
279B
102
}
330
279B
100
AcDbDimAssoc
330
279A
 90
        2
 70
     0
 71
     0
  1
AcDbOsnapPointRef
 72
     1
331
27A2
 73
     2
 91
        0
 40
1.0
 10
172.079949619976
 20
143.5243708573029
 30
0.0
 75
     0
  0
DIMASSOC
  5
27AE
102
{ACAD_REACTORS
330
27AD
102
}
330
27AD
100
AcDbDimAssoc
330
27AC
 90
        3
 70
     0
 71
     0
  1
AcDbOsnapPointRef
 72
    13
331
27BD
 73
     2
 91
        0
 40
0.0
 10
137.0799496199762
 20
194.2438128573029
 30
0.0
 75
     0
  1
AcDbOsnapPointRef
 72
    13
331
27CD
 73
     2
 91
        0
 40
0.0
 10
207.0799496199761
 20
194.2438128573029
 30
0.0
 75
     0
  0
DIMASSOC
  5
27B1
102
{ACAD_REACTORS
330
27B0
102
}
330
27B0
100
AcDbDimAssoc
330
27AF
 90
        3
 70
     0
 71
     0
  1
AcDbOsnapPointRef
 72
     1
331
27BB
 73
     2
 91
        0
 40
1.0
 10
133.0799496199762
 20
190.2438128573029
 30
0.0
 75
     0
  1
AcDbOsnapPointRef
 72
     1
331
27B8
 73
     2
 91
        0
 40
1.0
 10
133.0799496199762
 20
165.2438128573029
 30
0.0
 75
     0
  0
DIMASSOC
  5
27B4
102
{ACAD_REACTORS
330
27B3
102
}
330
27B3
100
AcDbDimAssoc
330
27B2
 90
        2
 70
     0
 71
     0
  1
AcDbOsnapPointRef
 72
    13
331
2788
 73
     2
 91
        0
 40
0.0
 10
133.5799496199762
 20
161.2438128573029
 30
0.0
 75
     0
  0
DIMASSOC
  5
27D0
102
{ACAD_REACTORS
330
27CF
102
}
330
27CF
100
AcDbDimAssoc
330
27CE
 90
        3
 70
     0
 71
     0
  1
AcDbOsnapPointRef
 72
    13
331
27D4
 73
     2
 91
        0
 40
0.0
 10
215.5799496199761
 20
144.5243708573029
 30
0.0
 75
     0
  1
AcDbOsnapPointRef
 72
     1
331
27D4
 73
     2
 91
        0
 40
1.0
 10
215.5799496199761
 20
140.5243708573029
 30
0.0
 75
     0
  0
DIMASSOC
  5
27DE
102
{ACAD_REACTORS
330
27DD
102
}
330
27DD
100
AcDbDimAssoc
330
27DC
 90
        1
 70
     0
 71
     0
  1
AcDbOsnapPointRef
 72
    13
331
2804
 73
     2
 91
        0
 40
0.0
 10
237.9562856199762
 20
193.2438128573029
 30
0.0
 75
     0
  0
DIMASSOC
  5
27E1
102
{ACAD_REACTORS
330
27E0
102
}
330
27E0
100
AcDbDimAssoc
330
27DF
 90
        3
 70
     0
 71
     0
  1
AcDbOsnapPointRef
 72
    13
331
27E9
 73
     2
 91
        0
 40
0.0
 10
233.9562856199762
 20
194.2438128573029
 30
0.0
 75
     0
  1
AcDbOsnapPointRef
 72
     1
331
2800
 73
     2
 91
        0
 40
1.0
 10
241.9562856199762
 20
194.2438128573029
 30
0.0
 75
     0
  0
DIMASSOC
  5
27E6
102
{ACAD_REACTORS
330
27E5
102
}
330
27E5
100
AcDbDimAssoc
330
27E4
 90
        3
 70
     0
 71
     0
  1
AcDbOsnapPointRef
 72
     1
331
27FD
 73
     2
 91
        0
 40
1.0
 10
215.5799496199761
 20
186.2438128573029
 30
0.0
 75
     0
  1
AcDbOsnapPointRef
 72
     1
331
27EC
 73
     2
 91
        0
 40
1.0
 10
215.5799496199761
 20
169.2438128573029
 30
0.0
 75
     0
  0
DIMASSOC
  5
4DD6
102
{ACAD_REACTORS
330
4DD5
102
}
330
4DD5
100
AcDbDimAssoc
330
4DD4
 90
        2
 70
     0
 71
     0
  1
AcDbOsnapPointRef
 72
     1
331
4DF3
 73
     2
 91
        0
 40
1.0
 10
626.8451630174055
 20
1324.692901301873
 30
0.0
 75
     0
  0
DIMASSOC
  5
4DD9
102
{ACAD_REACTORS
330
4DD8
102
}
330
4DD8
100
AcDbDimAssoc
330
4DD7
 90
        3
 70
     0
 71
     0
  1
AcDbOsnapPointRef
 72
    13
331
4DE5
 73
     2
 91
        0
 40
0.0
 10
618.8451630174076
 20
1327.588477591804
 30
0.0
 75
     0
  1
AcDbOsnapPointRef
 72
     1
331
4DF7
 73
     2
 91
        0
 40
1.0
 10
697.8451630174076
 20
1327.588477591804
 30
0.0
 75
     0
  0
DIMASSOC
  5
4DE1
102
{ACAD_REACTORS
330
4DE0
102
}
330
4DE0
100
AcDbDimAssoc
330
4DDF
 90
        3
 70
     0
 71
     0
  1
AcDbOsnapPointRef
 72
    13
331
4DF2
 73
     2
 91
        0
 40
0.0
 10
623.6310254649435
 20
1322.588477591802
 30
0.0
 75
     0
  1
AcDbOsnapPointRef
 72
     8
331
4DE9
 73
     2
 91
        0
 40
0.0
 10
623.6310254649435
 20
1280.588477591804
 30
0.0
 75
     1
  1
AcDbOsnapPointRef
 72
    13
331
4DF2
 73
     2
 91
        0
 40
0.0
 10
623.6310254649435
 20
1322.588477591802
 30
0.0
 75
     0
  0
DIMASSOC
  5
4DF6
102
{ACAD_REACTORS
330
4DF5
102
}
330
4DF5
100
AcDbDimAssoc
330
4DF4
 90
        3
 70
     0
 71
     0
  1
AcDbOsnapPointRef
 72
     1
331
4DF7
 73
     2
 91
        0
 40
1.0
 10
697.8451630174076
 20
1327.588477591804
 30
0.0
 75
     0
  1
AcDbOsnapPointRef
 72
    13
331
4DF7
 73
     2
 91
        0
 40
0.0
 10
697.8451630174076
 20
1275.588477591804
 30
0.0
 75
     0
  0
DIMASSOC
  5
4DFA
102
{ACAD_REACTORS
330
4DF9
102
}
330
4DF9
100
AcDbDimAssoc
330
4DF8
 90
        1
 70
     0
 71
     0
  1
AcDbOsnapPointRef
 72
     8
331
4DF7
 73
     2
 91
        0
 40
0.999999999999996
 10
697.8451630174076
 20
1331.088477591804
 30
0.0
 75
     1
  1
AcDbOsnapPointRef
 72
     0
 40
0.0
 10
1049.345163017407
 20
1331.088477591804
 30
0.0
 75
     0
  0
DIMASSOC
  5
4E12
102
{ACAD_REACTORS
330
4E11
102
}
330
4E11
100
AcDbDimAssoc
330
4E10
 90
        2
 70
     0
 71
     0
  1
AcDbOsnapPointRef
 72
     3
331
4DEA
 73
     2
 91
        0
 40
0.0
 10
0.0
 20
0.0
 30
0.0
 75
     0
  0
DIMASSOC
  5
4E16
102
{ACAD_REACTORS
330
4E15
102
}
330
4E15
100
AcDbDimAssoc
330
4E14
 90
        2
 70
     0
 71
     0
  1
AcDbOsnapPointRef
 72
     1
331
4DF7
 73
     2
 91
        0
 40
1.0
 10
0.0
 20
0.0
 30
2.000000000000000E+50
 75
     0
  0
DIMASSOC
  5
4E1C
102
{ACAD_REACTORS
330
4E1B
102
}
330
4E1B
100
AcDbDimAssoc
330
4E1A
 90
        2
 70
     0
 71
     0
  1
AcDbOsnapPointRef
 72
     3
331
4E17
 73
     2
 91
        0
 40
0.0
 10
0.0
 20
0.0
 30
0.0
 75
     0
  0
DIMASSOC
  5
4E30
102
{ACAD_REACTORS
330
4E2F
102
}
330
4E2F
100
AcDbDimAssoc
330
4E2E
 90
        3
 70
     0
 71
     0
  1
AcDbOsnapPointRef
 72
     3
331
4DF1
 73
     2
 91
        0
 40
0.0
 10
0.0
 20
0.0
 30
0.0
 75
     0
  1
AcDbOsnapPointRef
 72
     3
331
4DE4
 73
     2
 91
        0
 40
0.0
 10
0.0
 20
0.0
 30
0.0
 75
     0
  0
DIMASSOC
  5
4E37
102
{ACAD_REACTORS
330
4E36
102
}
330
4E36
100
AcDbDimAssoc
330
4E35
 90
        2
 70
     0
 71
     0
  1
AcDbOsnapPointRef
 72
     3
331
4E2B
 73
     2
 91
        0
 40
0.0
 10
0.0
 20
0.0
 30
0.0
 75
     0
  0
DIMASSOC
  5
4E3A
102
{ACAD_REACTORS
330
4E39
102
}
330
4E39
100
AcDbDimAssoc
330
4E38
 90
        1
 70
     0
 71
     0
  1
AcDbOsnapPointRef
 72
    13
331
4DE3
 73
     2
 91
        0
 40
0.0
 10
0.0
 20
0.0
 30
2.000000000000000E+50
 75
     0
  0
DIMASSOC
  5
4E42
102
{ACAD_REACTORS
330
4E41
102
}
330
4E41
100
AcDbDimAssoc
330
4E40
 90
        2
 70
     0
 71
     0
  1
AcDbOsnapPointRef
 72
     3
331
4DF1
 73
     2
 91
        0
 40
0.0
 10
0.0
 20
0.0
 30
0.0
 75
     0
  0
XRECORD
  5
3BFC
102
{ACAD_REACTORS
330
3BFB
102
}
330
3BFB
100
AcDbXrecord
280
     1
 90
        1
340
36B9
  0
XRECORD
  5
5114
102
{ACAD_REACTORS
330
3C1E
102
}
330
3C1E
100
AcDbXrecord
280
     1
 40
11789949.0
  1
{\fMS UI Gothic|b0|i0|c128|p50;株式会社ラインアイ\P\pxqr;単位 ： mm}
  0
ACDBDETAILVIEWSTYLE
  5
3BBA
102
{ACAD_REACTORS
330
3BAC
102
}
330
3BAC
100
AcDbModelDocViewStyle
 70
     0
  3
Metric50
290
     0
100
AcDbDetailViewStyle
 70
     0
 71
     0
 90
        3
 71
     1
340
11
 62
   256
 40
5.0
340
0
 62
   256
 40
5.0
300

 40
0.0
280
     1
 71
     2
340
16
 90
       25
 62
   256
 71
     3
340
11
 62
   256
 40
5.0
 90
        0
 40
15.0
 90
        1
300
%<\AcVar ViewDetailId>% (%<\AcVar ViewScale \f "%sn">%)
 71
     4
340
16
 90
       25
 62
   256
340
16
 90
       25
 62
   256
280
     0
  0
LAYOUT
  5
22
102
{ACAD_REACTORS
330
1A
102
}
330
1A
100
AcDbPlotSettings
  1

  2
Acrobat PDFWriter
  4
A4
  6

 40
7.143749999999998
 41
7.143741
 42
7.143767999999998
 43
7.143753
 44
297.053009
 45
209.973328
 46
25.48
 47
0.0
 48
1435.704606
 49
1108.925252
140
1540.197795
141
1197.136093
142
1.0
143
0.4507778575326002
 70
 28340
 72
     1
 73
     0
 74
     4
  7
Grayscale.ctb
 75
     0
147
2.218387578914476
 76
     0
 77
     2
 78
   300
148
-1435.704606
149
-1108.925252
100
AcDbLayout
  1
Model
 70
     1
 71
     0
 10
0.0
 20
0.0
 11
12.0
 21
9.0
 12
0.0
 22
0.0
 32
0.0
 14
0.0
 24
0.0
 34
0.0
 15
0.0
 25
0.0
 35
0.0
146
0.0
 13
0.0
 23
0.0
 33
0.0
 16
1.0
 26
0.0
 36
0.0
 17
0.0
 27
1.0
 37
0.0
 76
     0
330
1F
331
36B7
  0
LAYOUT
  5
1E
102
{ACAD_REACTORS
330
1A
102
}
330
1A
100
AcDbPlotSettings
  1

  2
DWG To PDF.pc3
  4
ISO_full_bleed_A4_(297.00_x_210.00_MM)
  6

 40
0.7937499880790711
 41
0.7937499880790711
 42
0.79376220703125
 43
0.7937469482421875
 44
297.0
 45
210.0
 46
0.0
 47
0.0
 48
0.0
 49
0.0
140
0.0
141
0.0
142
1.0
143
1.0
 70
   688
 72
     1
 73
     0
 74
     5
  7
monochrome.ctb
 75
    16
147
1.0
 76
     0
 77
     2
 78
   300
148
0.0
149
0.0
100
AcDbLayout
  1
ﾚｲｱｳﾄ1
 70
     1
 71
     1
 10
-0.7937499880790711
 20
-0.7937499880790711
 11
296.2062500119209
 21
209.2062500119209
 12
0.0
 22
0.0
 32
0.0
 14
-0.6161281959830376
 24
-0.9914953453488806
 34
0.0
 15
296.8919077172943
 25
209.0085046546511
 35
0.0
146
0.0
 13
0.0
 23
0.0
 33
0.0
 16
1.0
 26
0.0
 36
0.0
 17
0.0
 27
1.0
 37
0.0
 76
     0
330
1B
331
467
1001
ACAD_PSEXT
1000
DWG To PDF.pc3
1000
DWG To PDF
1000
ファイル
1000

1070
     0
  0
MATERIAL
  5
36F5
102
{ACAD_REACTORS
330
36F3
102
}
330
36F3
100
AcDbMaterial
  1
ByBlock
  0
MATERIAL
  5
36F4
102
{ACAD_REACTORS
330
36F3
102
}
330
36F3
100
AcDbMaterial
  1
ByLayer
  0
MATERIAL
  5
36F6
102
{ACAD_REACTORS
330
36F3
102
}
330
36F3
100
AcDbMaterial
  1
Global
  0
MLEADERSTYLE
  5
36FA
102
{ACAD_REACTORS
330
36F9
330
4E3B
330
4E3E
330
4E3F
102
}
330
36F9
100
AcDbMLeaderStyle
179
     2
170
     2
171
     1
172
     0
 90
        2
 40
0.0
 41
0.0
173
     1
 91
-1056964608
340
14
 92
       -2
290
     1
 42
2.0
291
     1
 43
8.0
  3
Standard
 44
2.0
300

342
11
174
     5
178
     8
175
     0
176
     0
 93
-1056964608
 45
2.5
292
     0
297
     0
 46
4.0
 94
-1056964608
 47
1.0
 49
1.0
140
1.0
293
     1
141
0.0
294
     1
177
     0
142
1.0
295
     0
296
     0
143
3.75
271
     0
272
     9
273
     9
298
     0
  0
MLINESTYLE
  5
18
102
{ACAD_REACTORS
330
17
102
}
330
17
100
AcDbMlineStyle
  2
STANDARD
 70
     0
  3

 62
   256
 51
90.0
 52
90.0
 71
     2
 49
0.5
 62
   256
  6
BYLAYER
 49
-0.5
 62
   256
  6
BYLAYER
  0
ACDBPLACEHOLDER
  5
F
102
{ACAD_REACTORS
330
E
102
}
330
E
  0
SCALE
  5
36B9
102
{ACAD_REACTORS
330
36B8
102
}
330
36B8
100
AcDbScale
 70
     0
300
1:1
140
1.0
141
1.0
290
     1
  0
SCALE
  5
36BA
102
{ACAD_REACTORS
330
36B8
102
}
330
36B8
100
AcDbScale
 70
     0
300
1:2
140
1.0
141
2.0
290
     0
  0
SCALE
  5
36BB
102
{ACAD_REACTORS
330
36B8
102
}
330
36B8
100
AcDbScale
 70
     0
300
1:4
140
1.0
141
4.0
290
     0
  0
SCALE
  5
36BC
102
{ACAD_REACTORS
330
36B8
102
}
330
36B8
100
AcDbScale
 70
     0
300
1:5
140
1.0
141
5.0
290
     0
  0
SCALE
  5
36BD
102
{ACAD_REACTORS
330
36B8
102
}
330
36B8
100
AcDbScale
 70
     0
300
1:8
140
1.0
141
8.0
290
     0
  0
SCALE
  5
36BE
102
{ACAD_REACTORS
330
36B8
102
}
330
36B8
100
AcDbScale
 70
     0
300
1:10
140
1.0
141
10.0
290
     0
  0
SCALE
  5
36BF
102
{ACAD_REACTORS
330
36B8
102
}
330
36B8
100
AcDbScale
 70
     0
300
1:16
140
1.0
141
16.0
290
     0
  0
SCALE
  5
36C0
102
{ACAD_REACTORS
330
36B8
102
}
330
36B8
100
AcDbScale
 70
     0
300
1:20
140
1.0
141
20.0
290
     0
  0
SCALE
  5
36C1
102
{ACAD_REACTORS
330
36B8
102
}
330
36B8
100
AcDbScale
 70
     0
300
1:30
140
1.0
141
30.0
290
     0
  0
SCALE
  5
36C2
102
{ACAD_REACTORS
330
36B8
102
}
330
36B8
100
AcDbScale
 70
     0
300
1:40
140
1.0
141
40.0
290
     0
  0
SCALE
  5
36C3
102
{ACAD_REACTORS
330
36B8
102
}
330
36B8
100
AcDbScale
 70
     0
300
1:50
140
1.0
141
50.0
290
     0
  0
SCALE
  5
36C4
102
{ACAD_REACTORS
330
36B8
102
}
330
36B8
100
AcDbScale
 70
     0
300
1:100
140
1.0
141
100.0
290
     0
  0
SCALE
  5
36C5
102
{ACAD_REACTORS
330
36B8
102
}
330
36B8
100
AcDbScale
 70
     0
300
2:1
140
2.0
141
1.0
290
     0
  0
SCALE
  5
36C6
102
{ACAD_REACTORS
330
36B8
102
}
330
36B8
100
AcDbScale
 70
     0
300
4:1
140
4.0
141
1.0
290
     0
  0
SCALE
  5
36C7
102
{ACAD_REACTORS
330
36B8
102
}
330
36B8
100
AcDbScale
 70
     0
300
8:1
140
8.0
141
1.0
290
     0
  0
SCALE
  5
36C8
102
{ACAD_REACTORS
330
36B8
102
}
330
36B8
100
AcDbScale
 70
     0
300
10:1
140
10.0
141
1.0
290
     0
  0
SCALE
  5
36C9
102
{ACAD_REACTORS
330
36B8
102
}
330
36B8
100
AcDbScale
 70
     0
300
100:1
140
100.0
141
1.0
290
     0
  0
SCALE
  5
36CA
102
{ACAD_REACTORS
330
36B8
102
}
330
36B8
100
AcDbScale
 70
     0
300
1/128" = 1'-0"
140
0.0078125
141
12.0
290
     0
  0
SCALE
  5
36CB
102
{ACAD_REACTORS
330
36B8
102
}
330
36B8
100
AcDbScale
 70
     0
300
1/64" = 1'-0"
140
0.015625
141
12.0
290
     0
  0
SCALE
  5
36CC
102
{ACAD_REACTORS
330
36B8
102
}
330
36B8
100
AcDbScale
 70
     0
300
1/32" = 1'-0"
140
0.03125
141
12.0
290
     0
  0
SCALE
  5
36CD
102
{ACAD_REACTORS
330
36B8
102
}
330
36B8
100
AcDbScale
 70
     0
300
1/16" = 1'-0"
140
0.0625
141
12.0
290
     0
  0
SCALE
  5
36CE
102
{ACAD_REACTORS
330
36B8
102
}
330
36B8
100
AcDbScale
 70
     0
300
3/32" = 1'-0"
140
0.09375
141
12.0
290
     0
  0
SCALE
  5
36CF
102
{ACAD_REACTORS
330
36B8
102
}
330
36B8
100
AcDbScale
 70
     0
300
1/8" = 1'-0"
140
0.125
141
12.0
290
     0
  0
SCALE
  5
36D0
102
{ACAD_REACTORS
330
36B8
102
}
330
36B8
100
AcDbScale
 70
     0
300
3/16" = 1'-0"
140
0.1875
141
12.0
290
     0
  0
SCALE
  5
36D1
102
{ACAD_REACTORS
330
36B8
102
}
330
36B8
100
AcDbScale
 70
     0
300
1/4" = 1'-0"
140
0.25
141
12.0
290
     0
  0
SCALE
  5
36D2
102
{ACAD_REACTORS
330
36B8
102
}
330
36B8
100
AcDbScale
 70
     0
300
3/8" = 1'-0"
140
0.375
141
12.0
290
     0
  0
SCALE
  5
36D3
102
{ACAD_REACTORS
330
36B8
102
}
330
36B8
100
AcDbScale
 70
     0
300
1/2" = 1'-0"
140
0.5
141
12.0
290
     0
  0
SCALE
  5
36D4
102
{ACAD_REACTORS
330
36B8
102
}
330
36B8
100
AcDbScale
 70
     0
300
3/4" = 1'-0"
140
0.75
141
12.0
290
     0
  0
SCALE
  5
36D5
102
{ACAD_REACTORS
330
36B8
102
}
330
36B8
100
AcDbScale
 70
     0
300
1" = 1'-0"
140
1.0
141
12.0
290
     0
  0
SCALE
  5
36D6
102
{ACAD_REACTORS
330
36B8
102
}
330
36B8
100
AcDbScale
 70
     0
300
1-1/2" = 1'-0"
140
1.5
141
12.0
290
     0
  0
SCALE
  5
36D7
102
{ACAD_REACTORS
330
36B8
102
}
330
36B8
100
AcDbScale
 70
     0
300
3" = 1'-0"
140
3.0
141
12.0
290
     0
  0
SCALE
  5
36D8
102
{ACAD_REACTORS
330
36B8
102
}
330
36B8
100
AcDbScale
 70
     0
300
6" = 1'-0"
140
6.0
141
12.0
290
     0
  0
SCALE
  5
36D9
102
{ACAD_REACTORS
330
36B8
102
}
330
36B8
100
AcDbScale
 70
     0
300
1'-0" = 1'-0"
140
12.0
141
12.0
290
     0
  0
ACDBSECTIONVIEWSTYLE
  5
3BB9
102
{ACAD_REACTORS
330
3BAD
102
}
330
3BAD
100
AcDbModelDocViewStyle
 70
     0
  3
Metric50
290
     0
100
AcDbSectionViewStyle
 70
     0
 71
     0
 90
      102
 71
     1
340
11
 62
   256
 40
5.0
340
0
340
0
 62
   256
 40
5.0
300
I, O, Q, S, X, Z
 40
10.0
 90
        0
 40
2.5
 90
        0
 71
     2
340
16
 90
       25
 62
   256
340
16
 90
       50
 62
   256
 40
5.0
 40
2.5
 40
5.0
 71
     3
340
11
 62
   256
 40
5.0
 90
        0
 40
15.0
 90
        1
300
%<\AcVar ViewSectionStartId>%-%<\AcVar ViewSectionEndId>% (%<\AcVar ViewScale \f "%sn">%)
 71
     4
 62
   256
 62
   257
300
ANSI31
 40
1.0
 90
        0
290
     0
290
     0
 90
        6
 40
0.0
 40
1.570796326794896
 40
0.2617993877991494
 40
1.308996938995747
 40
-0.2617993877991494
 40
1.832595714594046
  0
TABLESTYLE
  5
36F8
102
{ACAD_XDICTIONARY
360
3BB1
102
}
102
{ACAD_REACTORS
330
36F7
102
}
330
36F7
100
AcDbTableStyle
280
     0
  3
Standard
 70
     0
 71
     0
 40
1.5
 41
1.5
280
     0
281
     0
  7
Standard
140
4.5
170
     2
 62
     0
 63
     7
283
     0
 90
        4
 91
        0
  1

274
    -2
284
     1
 64
     0
275
    -2
285
     1
 65
     0
276
    -2
286
     1
 66
     0
277
    -2
287
     1
 67
     0
278
    -2
288
     1
 68
     0
279
    -2
289
     1
 69
     0
  7
Standard
140
6.0
170
     5
 62
     0
 63
     7
283
     0
 90
        4
 91
        0
  1

274
    -2
284
     1
 64
     0
275
    -2
285
     1
 65
     0
276
    -2
286
     1
 66
     0
277
    -2
287
     1
 67
     0
278
    -2
288
     1
 68
     0
279
    -2
289
     1
 69
     0
  7
Standard
140
4.5
170
     5
 62
     0
 63
     7
283
     0
 90
        4
 91
        0
  1

274
    -2
284
     1
 64
     0
275
    -2
285
     1
 65
     0
276
    -2
286
     1
 66
     0
277
    -2
287
     1
 67
     0
278
    -2
288
     1
 68
     0
279
    -2
289
     1
 69
     0
  0
VISUALSTYLE
  5
36DF
102
{ACAD_REACTORS
330
36DA
102
}
330
36DA
100
AcDbVisualStyle
  2
2dWireframe
 70
     4
177
     3
291
     0
 70
    58
 90
        0
176
     1
 90
        2
176
     1
 90
        0
176
     1
 90
        0
176
     1
 40
0.6
176
     1
 40
30.0
176
     1
 62
     7
420
 16777215
176
     1
 90
        1
176
     1
 90
        4
176
     1
 62
     7
176
     1
 62
   257
176
     1
 90
        1
176
     1
 90
        1
176
     1
 40
1.0
176
     1
 90
        0
176
     1
 62
   257
176
     1
 40
1.0
176
     1
 90
        1
176
     1
 90
        6
176
     1
 90
        2
176
     1
 62
     7
176
     1
 90
        5
176
     1
 90
        0
176
     1
 90
        0
176
     1
290
     0
176
     1
 90
        1
176
     1
 40
0.0
176
     1
 90
        0
176
     1
290
     1
176
     1
290
     1
176
     1
290
     0
176
     1
290
     0
176
     1
290
     0
176
     1
290
     0
176
     1
290
     0
176
     1
290
     0
176
     1
290
     0
176
     1
 90
       50
176
     1
 40
0.0
176
     1
 40
1.0
176
     1
 90
        0
176
     1
 62
    18
176
     1
 90
       50
176
     1
 90
        3
176
     1
 62
     5
420
      255
176
     1
290
     0
176
     1
 90
       50
176
     1
 90
       50
176
     1
 90
       50
176
     1
290
     0
176
     1
 90
       50
176
     1
 62
   256
176
     0
 40
1.0
176
     0
 90
        2
176
     1
  1
strokes_ogs.tif
176
     1
290
     0
176
     1
 40
1.0
176
     1
 40
1.0
176
     1
  0
VISUALSTYLE
  5
36E2
102
{ACAD_REACTORS
330
36DA
102
}
330
36DA
100
AcDbVisualStyle
  2
Basic
 70
     7
177
     3
291
     1
 70
    58
 90
        1
176
     1
 90
        0
176
     1
 90
        1
176
     1
 90
        0
176
     1
 40
0.6
176
     1
 40
30.0
176
     1
 62
     7
420
 16777215
176
     1
 90
        0
176
     1
 90
        4
176
     1
 62
     7
176
     1
 62
   257
176
     1
 90
        1
176
     1
 90
        1
176
     1
 40
1.0
176
     1
 90
        8
176
     1
 62
     7
176
     1
 40
1.0
176
     1
 90
        1
176
     1
 90
        6
176
     1
 90
        2
176
     1
 62
     7
176
     1
 90
        5
176
     1
 90
        0
176
     1
 90
        0
176
     1
290
     0
176
     1
 90
        1
176
     1
 40
0.0
176
     1
 90
        0
176
     1
290
     0
176
     1
290
     1
176
     1
290
     1
176
     1
290
     0
176
     1
290
     0
176
     1
290
     0
176
     1
290
     0
176
     1
290
     0
176
     1
290
     0
176
     1
 90
       50
176
     1
 40
0.0
176
     1
 40
1.0
176
     1
 90
        0
176
     1
 62
    18
176
     1
 90
       50
176
     1
 90
        3
176
     1
 62
     5
420
      255
176
     1
290
     0
176
     1
 90
       50
176
     1
 90
       50
176
     1
 90
       50
176
     1
290
     0
176
     1
 90
       50
176
     1
 62
   256
176
     0
 40
1.0
176
     0
 90
        2
176
     1
  1
strokes_ogs.tif
176
     1
290
     0
176
     1
 40
1.0
176
     1
 40
1.0
176
     1
  0
VISUALSTYLE
  5
36E6
102
{ACAD_REACTORS
330
36DA
102
}
330
36DA
100
AcDbVisualStyle
  2
Brighten
 70
    12
177
     3
291
     1
 70
    58
 90
        2
176
     1
 90
        2
176
     1
 90
        0
176
     1
 90
        0
176
     1
 40
0.6
176
     1
 40
30.0
176
     1
 62
     7
420
 16777215
176
     1
 90
        1
176
     1
 90
        4
176
     1
 62
     7
176
     1
 62
   257
176
     1
 90
        1
176
     1
 90
        1
176
     1
 40
1.0
176
     1
 90
        8
176
     1
 62
     7
176
     1
 40
1.0
176
     1
 90
        1
176
     1
 90
        6
176
     1
 90
        2
176
     1
 62
     7
176
     1
 90
        5
176
     1
 90
        0
176
     1
 90
        0
176
     1
290
     0
176
     1
 90
        1
176
     1
 40
50.0
176
     1
 90
        0
176
     1
290
     0
176
     1
290
     1
176
     1
290
     1
176
     1
290
     0
176
     1
290
     0
176
     1
290
     0
176
     1
290
     0
176
     1
290
     0
176
     1
290
     0
176
     1
 90
       50
176
     1
 40
0.0
176
     1
 40
1.0
176
     1
 90
        0
176
     1
 62
    18
176
     1
 90
       50
176
     1
 90
        3
176
     1
 62
     5
420
      255
176
     1
290
     0
176
     1
 90
       50
176
     1
 90
       50
176
     1
 90
       50
176
     1
290
     0
176
     1
 90
       50
176
     1
 62
   256
176
     0
 40
1.0
176
     0
 90
        2
176
     1
  1
strokes_ogs.tif
176
     1
290
     0
176
     1
 40
1.0
176
     1
 40
1.0
176
     1
  0
VISUALSTYLE
  5
36EA
102
{ACAD_REACTORS
330
36DA
102
}
330
36DA
100
AcDbVisualStyle
  2
ColorChange
 70
    16
177
     3
291
     1
 70
    58
 90
        2
176
     1
 90
        2
176
     1
 90
        3
176
     1
 90
        0
176
     1
 40
0.6
176
     1
 40
30.0
176
     1
 62
     8
420
  8421504
176
     1
 90
        1
176
     1
 90
        4
176
     1
 62
     7
176
     1
 62
   257
176
     1
 90
        1
176
     1
 90
        1
176
     1
 40
1.0
176
     1
 90
        8
176
     1
 62
     8
420
  8421504
176
     1
 40
1.0
176
     1
 90
        1
176
     1
 90
        6
176
     1
 90
        2
176
     1
 62
     7
176
     1
 90
        5
176
     1
 90
        0
176
     1
 90
        0
176
     1
290
     0
176
     1
 90
        1
176
     1
 40
0.0
176
     1
 90
        0
176
     1
290
     0
176
     1
290
     1
176
     1
290
     1
176
     1
290
     0
176
     1
290
     0
176
     1
290
     0
176
     1
290
     0
176
     1
290
     0
176
     1
290
     0
176
     1
 90
       50
176
     1
 40
0.0
176
     1
 40
1.0
176
     1
 90
        0
176
     1
 62
    18
176
     1
 90
       50
176
     1
 90
        3
176
     1
 62
     5
420
      255
176
     1
290
     0
176
     1
 90
       50
176
     1
 90
       50
176
     1
 90
       50
176
     1
290
     0
176
     1
 90
       50
176
     1
 62
   256
176
     0
 40
1.0
176
     0
 90
        2
176
     1
  1
strokes_ogs.tif
176
     1
290
     0
176
     1
 40
1.0
176
     1
 40
1.0
176
     1
  0
VISUALSTYLE
  5
36E4
102
{ACAD_REACTORS
330
36DA
102
}
330
36DA
100
AcDbVisualStyle
  2
Conceptual
 70
     9
177
     3
291
     0
 70
    58
 90
        3
176
     1
 90
        2
176
     1
 90
        0
176
     1
 90
        0
176
     1
 40
0.6
176
     1
 40
30.0
176
     1
 62
     7
420
 16777215
176
     1
 90
        2
176
     1
 90
        2
176
     1
 62
     7
176
     1
 62
   257
176
     1
 90
        1
176
     1
 90
        1
176
     1
 40
179.0
176
     1
 90
        8
176
     1
 62
     7
176
     1
 40
1.0
176
     1
 90
        1
176
     1
 90
        6
176
     1
 90
        2
176
     1
 62
     7
176
     1
 90
        3
176
     1
 90
        0
176
     1
 90
        0
176
     1
290
     0
176
     1
 90
        1
176
     1
 40
0.0
176
     1
 90
        0
176
     1
290
     0
176
     1
290
     1
176
     1
290
     1
176
     1
290
     0
176
     1
290
     0
176
     1
290
     0
176
     1
290
     0
176
     1
290
     0
176
     1
290
     0
176
     1
 90
       50
176
     1
 40
0.0
176
     1
 40
1.0
176
     1
 90
        0
176
     1
 62
    18
176
     1
 90
       50
176
     1
 90
        3
176
     1
 62
     5
420
      255
176
     1
290
     0
176
     1
 90
       50
176
     1
 90
       50
176
     1
 90
       50
176
     1
290
     0
176
     1
 90
       50
176
     1
 62
   256
176
     0
 40
1.0
176
     0
 90
        2
176
     1
  1
strokes_ogs.tif
176
     1
290
     0
176
     1
 40
1.0
176
     1
 40
1.0
176
     1
  0
VISUALSTYLE
  5
36E5
102
{ACAD_REACTORS
330
36DA
102
}
330
36DA
100
AcDbVisualStyle
  2
Dim
 70
    11
177
     3
291
     1
 70
    58
 90
        2
176
     1
 90
        2
176
     1
 90
        0
176
     1
 90
        0
176
     1
 40
0.6
176
     1
 40
30.0
176
     1
 62
     7
420
 16777215
176
     1
 90
        1
176
     1
 90
        4
176
     1
 62
     7
176
     1
 62
   257
176
     1
 90
        1
176
     1
 90
        1
176
     1
 40
1.0
176
     1
 90
        8
176
     1
 62
     7
176
     1
 40
1.0
176
     1
 90
        1
176
     1
 90
        6
176
     1
 90
        2
176
     1
 62
     7
176
     1
 90
        5
176
     1
 90
        0
176
     1
 90
        0
176
     1
290
     0
176
     1
 90
        1
176
     1
 40
-50.0
176
     1
 90
        0
176
     1
290
     0
176
     1
290
     1
176
     1
290
     1
176
     1
290
     0
176
     1
290
     0
176
     1
290
     0
176
     1
290
     0
176
     1
290
     0
176
     1
290
     0
176
     1
 90
       50
176
     1
 40
0.0
176
     1
 40
1.0
176
     1
 90
        0
176
     1
 62
    18
176
     1
 90
       50
176
     1
 90
        3
176
     1
 62
     5
420
      255
176
     1
290
     0
176
     1
 90
       50
176
     1
 90
       50
176
     1
 90
       50
176
     1
290
     0
176
     1
 90
       50
176
     1
 62
   256
176
     0
 40
1.0
176
     0
 90
        2
176
     1
  1
strokes_ogs.tif
176
     1
290
     0
176
     1
 40
1.0
176
     1
 40
1.0
176
     1
  0
VISUALSTYLE
  5
36ED
102
{ACAD_REACTORS
330
36DA
102
}
330
36DA
100
AcDbVisualStyle
  2
EdgeColorOff
 70
    22
177
     3
291
     1
 70
    58
 90
        2
176
     0
 90
        2
176
     0
 90
        0
176
     0
 90
        0
176
     0
 40
0.6
176
     0
 40
30.0
176
     0
 62
     7
420
 16777215
176
     0
 90
        1
176
     0
 90
        4
176
     0
 62
     7
176
     0
 62
   257
176
     0
 90
        1
176
     0
 90
        1
176
     0
 40
1.0
176
     0
 90
        8
176
     2
 62
     7
176
     0
 40
1.0
176
     0
 90
        1
176
     0
 90
        6
176
     0
 90
        2
176
     0
 62
     7
176
     0
 90
        5
176
     0
 90
        0
176
     0
 90
        0
176
     0
290
     0
176
     0
 90
        1
176
     0
 40
0.0
176
     0
 90
        0
176
     0
290
     0
176
     0
290
     1
176
     0
290
     1
176
     0
290
     0
176
     0
290
     0
176
     0
290
     0
176
     0
290
     0
176
     0
290
     0
176
     0
290
     0
176
     0
 90
       50
176
     0
 40
0.0
176
     0
 40
1.0
176
     0
 90
        0
176
     0
 62
    18
176
     0
 90
       50
176
     0
 90
        3
176
     0
 62
     5
420
      255
176
     0
290
     0
176
     0
 90
       50
176
     0
 90
       50
176
     0
 90
       50
176
     0
290
     0
176
     0
 90
       50
176
     0
 62
   256
176
     0
 40
1.0
176
     0
 90
        2
176
     0
  1
strokes_ogs.tif
176
     0
290
     0
176
     0
 40
1.0
176
     0
 40
1.0
176
     0
  0
VISUALSTYLE
  5
36E9
102
{ACAD_REACTORS
330
36DA
102
}
330
36DA
100
AcDbVisualStyle
  2
Facepattern
 70
    15
177
     3
291
     1
 70
    58
 90
        2
176
     1
 90
        2
176
     1
 90
        0
176
     1
 90
        0
176
     1
 40
0.6
176
     1
 40
30.0
176
     1
 62
     7
420
 16777215
176
     1
 90
        1
176
     1
 90
        4
176
     1
 62
     7
176
     1
 62
   257
176
     1
 90
        1
176
     1
 90
        1
176
     1
 40
1.0
176
     1
 90
        8
176
     1
 62
     7
176
     1
 40
1.0
176
     1
 90
        1
176
     1
 90
        6
176
     1
 90
        2
176
     1
 62
     7
176
     1
 90
        5
176
     1
 90
        0
176
     1
 90
        0
176
     1
290
     0
176
     1
 90
        1
176
     1
 40
0.0
176
     1
 90
        0
176
     1
290
     0
176
     1
290
     1
176
     1
290
     1
176
     1
290
     0
176
     1
290
     0
176
     1
290
     0
176
     1
290
     0
176
     1
290
     0
176
     1
290
     0
176
     1
 90
       50
176
     1
 40
0.0
176
     1
 40
1.0
176
     1
 90
        0
176
     1
 62
    18
176
     1
 90
       50
176
     1
 90
        3
176
     1
 62
     5
420
      255
176
     1
290
     0
176
     1
 90
       50
176
     1
 90
       50
176
     1
 90
       50
176
     1
290
     0
176
     1
 90
       50
176
     1
 62
   256
176
     0
 40
1.0
176
     0
 90
        2
176
     1
  1
strokes_ogs.tif
176
     1
290
     0
176
     1
 40
1.0
176
     1
 40
1.0
176
     1
  0
VISUALSTYLE
  5
36DB
102
{ACAD_REACTORS
330
36DA
102
}
330
36DA
100
AcDbVisualStyle
  2
Flat
 70
     0
177
     3
291
     1
 70
    58
 90
        2
176
     1
 90
        1
176
     1
 90
        1
176
     1
 90
        2
176
     1
 40
0.6
176
     1
 40
30.0
176
     1
 62
     7
420
 16777215
176
     1
 90
        0
176
     1
 90
        0
176
     1
 62
     7
176
     1
 62
   257
176
     1
 90
        1
176
     1
 90
        1
176
     1
 40
1.0
176
     1
 90
        8
176
     1
 62
     7
176
     1
 40
1.0
176
     1
 90
        1
176
     1
 90
        6
176
     1
 90
        2
176
     1
 62
     7
176
     1
 90
        5
176
     1
 90
        0
176
     1
 90
        0
176
     1
290
     0
176
     1
 90
       13
176
     1
 40
0.0
176
     1
 90
        0
176
     1
290
     0
176
     1
290
     1
176
     1
290
     1
176
     1
290
     0
176
     1
290
     0
176
     1
290
     0
176
     1
290
     0
176
     1
290
     0
176
     1
290
     0
176
     1
 90
       50
176
     1
 40
0.0
176
     1
 40
1.0
176
     1
 90
        0
176
     1
 62
    18
176
     1
 90
       50
176
     1
 90
        3
176
     1
 62
     5
420
      255
176
     1
290
     0
176
     1
 90
       50
176
     1
 90
       50
176
     1
 90
       50
176
     1
290
     0
176
     1
 90
       50
176
     1
 62
   256
176
     0
 40
1.0
176
     0
 90
        2
176
     1
  1
strokes_ogs.tif
176
     1
290
     0
176
     1
 40
1.0
176
     1
 40
1.0
176
     1
  0
VISUALSTYLE
  5
36DC
102
{ACAD_REACTORS
330
36DA
102
}
330
36DA
100
AcDbVisualStyle
  2
FlatWithEdges
 70
     1
177
     3
291
     1
 70
    58
 90
        2
176
     1
 90
        1
176
     1
 90
        1
176
     1
 90
        2
176
     1
 40
0.6
176
     1
 40
30.0
176
     1
 62
     7
420
 16777215
176
     1
 90
        1
176
     1
 90
        0
176
     1
 62
     7
176
     1
 62
   257
176
     1
 90
        1
176
     1
 90
        1
176
     1
 40
1.0
176
     1
 90
        0
176
     1
 62
   257
176
     1
 40
1.0
176
     1
 90
        1
176
     1
 90
        6
176
     1
 90
        2
176
     1
 62
     7
176
     1
 90
        5
176
     1
 90
        0
176
     1
 90
        0
176
     1
290
     0
176
     1
 90
       13
176
     1
 40
0.0
176
     1
 90
        0
176
     1
290
     0
176
     1
290
     1
176
     1
290
     1
176
     1
290
     0
176
     1
290
     0
176
     1
290
     0
176
     1
290
     0
176
     1
290
     0
176
     1
290
     0
176
     1
 90
       50
176
     1
 40
0.0
176
     1
 40
1.0
176
     1
 90
        0
176
     1
 62
    18
176
     1
 90
       50
176
     1
 90
        3
176
     1
 62
     5
420
      255
176
     1
290
     0
176
     1
 90
       50
176
     1
 90
       50
176
     1
 90
       50
176
     1
290
     0
176
     1
 90
       50
176
     1
 62
   256
176
     0
 40
1.0
176
     0
 90
        2
176
     1
  1
strokes_ogs.tif
176
     1
290
     0
176
     1
 40
1.0
176
     1
 40
1.0
176
     1
  0
VISUALSTYLE
  5
36DD
102
{ACAD_REACTORS
330
36DA
102
}
330
36DA
100
AcDbVisualStyle
  2
Gouraud
 70
     2
177
     3
291
     1
 70
    58
 90
        2
176
     1
 90
        2
176
     1
 90
        1
176
     1
 90
        2
176
     1
 40
0.6
176
     1
 40
30.0
176
     1
 62
     7
420
 16777215
176
     1
 90
        0
176
     1
 90
        0
176
     1
 62
     7
176
     1
 62
   257
176
     1
 90
        1
176
     1
 90
        1
176
     1
 40
1.0
176
     1
 90
        0
176
     1
 62
     7
176
     1
 40
1.0
176
     1
 90
        1
176
     1
 90
        6
176
     1
 90
        2
176
     1
 62
     7
176
     1
 90
        5
176
     1
 90
        0
176
     1
 90
        0
176
     1
290
     0
176
     1
 90
       13
176
     1
 40
0.0
176
     1
 90
        0
176
     1
290
     0
176
     1
290
     1
176
     1
290
     1
176
     1
290
     0
176
     1
290
     0
176
     1
290
     0
176
     1
290
     0
176
     1
290
     0
176
     1
290
     0
176
     1
 90
       50
176
     1
 40
0.0
176
     1
 40
1.0
176
     1
 90
        0
176
     1
 62
    18
176
     1
 90
       50
176
     1
 90
        3
176
     1
 62
     5
420
      255
176
     1
290
     0
176
     1
 90
       50
176
     1
 90
       50
176
     1
 90
       50
176
     1
290
     0
176
     1
 90
       50
176
     1
 62
   256
176
     0
 40
1.0
176
     0
 90
        2
176
     1
  1
strokes_ogs.tif
176
     1
290
     0
176
     1
 40
1.0
176
     1
 40
1.0
176
     1
  0
VISUALSTYLE
  5
36DE
102
{ACAD_REACTORS
330
36DA
102
}
330
36DA
100
AcDbVisualStyle
  2
GouraudWithEdges
 70
     3
177
     3
291
     1
 70
    58
 90
        2
176
     1
 90
        2
176
     1
 90
        1
176
     1
 90
        2
176
     1
 40
0.6
176
     1
 40
30.0
176
     1
 62
     7
420
 16777215
176
     1
 90
        1
176
     1
 90
        0
176
     1
 62
     7
176
     1
 62
   257
176
     1
 90
        1
176
     1
 90
        1
176
     1
 40
1.0
176
     1
 90
        0
176
     1
 62
   257
176
     1
 40
1.0
176
     1
 90
        1
176
     1
 90
        6
176
     1
 90
        2
176
     1
 62
     7
176
     1
 90
        5
176
     1
 90
        0
176
     1
 90
        0
176
     1
290
     0
176
     1
 90
       13
176
     1
 40
0.0
176
     1
 90
        0
176
     1
290
     0
176
     1
290
     1
176
     1
290
     1
176
     1
290
     0
176
     1
290
     0
176
     1
290
     0
176
     1
290
     0
176
     1
290
     0
176
     1
290
     0
176
     1
 90
       50
176
     1
 40
0.0
176
     1
 40
1.0
176
     1
 90
        0
176
     1
 62
    18
176
     1
 90
       50
176
     1
 90
        3
176
     1
 62
     5
420
      255
176
     1
290
     0
176
     1
 90
       50
176
     1
 90
       50
176
     1
 90
       50
176
     1
290
     0
176
     1
 90
       50
176
     1
 62
   256
176
     0
 40
1.0
176
     0
 90
        2
176
     1
  1
strokes_ogs.tif
176
     1
290
     0
176
     1
 40
1.0
176
     1
 40
1.0
176
     1
  0
VISUALSTYLE
  5
36E1
102
{ACAD_REACTORS
330
36DA
102
}
330
36DA
100
AcDbVisualStyle
  2
Hidden
 70
     6
177
     3
291
     0
 70
    58
 90
        1
176
     1
 90
        2
176
     1
 90
        2
176
     1
 90
        0
176
     1
 40
0.6
176
     1
 40
30.0
176
     1
 62
     7
420
 16777215
176
     1
 90
        2
176
     1
 90
        2
176
     1
 62
     7
176
     1
 62
   257
176
     1
 90
        2
176
     1
 90
        1
176
     1
 40
40.0
176
     1
 90
        0
176
     1
 62
   257
176
     1
 40
1.0
176
     1
 90
        1
176
     1
 90
        6
176
     1
 90
        2
176
     1
 62
     7
176
     1
 90
        3
176
     1
 90
        0
176
     1
 90
        0
176
     1
290
     0
176
     1
 90
        1
176
     1
 40
0.0
176
     1
 90
        0
176
     1
290
     0
176
     1
290
     1
176
     1
290
     1
176
     1
290
     0
176
     1
290
     0
176
     1
290
     0
176
     1
290
     0
176
     1
290
     0
176
     1
290
     0
176
     1
 90
       50
176
     1
 40
0.0
176
     1
 40
1.0
176
     1
 90
        0
176
     1
 62
    18
176
     1
 90
       50
176
     1
 90
        3
176
     1
 62
     5
420
      255
176
     1
290
     0
176
     1
 90
       50
176
     1
 90
       50
176
     1
 90
       50
176
     1
290
     0
176
     1
 90
       50
176
     1
 62
   256
176
     0
 40
1.0
176
     0
 90
        2
176
     1
  1
strokes_ogs.tif
176
     1
290
     0
176
     1
 40
1.0
176
     1
 40
1.0
176
     1
  0
VISUALSTYLE
  5
36EB
102
{ACAD_REACTORS
330
36DA
102
}
330
36DA
100
AcDbVisualStyle
  2
JitterOff
 70
    20
177
     3
291
     1
 70
    58
 90
        2
176
     0
 90
        2
176
     0
 90
        0
176
     0
 90
        0
176
     0
 40
0.6
176
     0
 40
30.0
176
     0
 62
     7
420
 16777215
176
     0
 90
        1
176
     0
 90
        4
176
     0
 62
     7
176
     0
 62
   257
176
     0
 90
        1
176
     0
 90
        1
176
     0
 40
1.0
176
     0
 90
       10
176
     2
 62
     7
176
     0
 40
1.0
176
     0
 90
        1
176
     0
 90
        6
176
     0
 90
        2
176
     0
 62
     7
176
     0
 90
        5
176
     0
 90
        0
176
     0
 90
        0
176
     0
290
     0
176
     0
 90
        1
176
     0
 40
0.0
176
     0
 90
        0
176
     0
290
     0
176
     0
290
     1
176
     0
290
     1
176
     0
290
     0
176
     0
290
     0
176
     0
290
     0
176
     0
290
     0
176
     0
290
     0
176
     0
290
     0
176
     0
 90
       50
176
     0
 40
0.0
176
     0
 40
1.0
176
     0
 90
        0
176
     0
 62
    18
176
     0
 90
       50
176
     0
 90
        3
176
     0
 62
     5
420
      255
176
     0
290
     0
176
     0
 90
       50
176
     0
 90
       50
176
     0
 90
       50
176
     0
290
     0
176
     0
 90
       50
176
     0
 62
   256
176
     0
 40
1.0
176
     0
 90
        2
176
     0
  1
strokes_ogs.tif
176
     0
290
     0
176
     0
 40
1.0
176
     0
 40
1.0
176
     0
  0
VISUALSTYLE
  5
36E8
102
{ACAD_REACTORS
330
36DA
102
}
330
36DA
100
AcDbVisualStyle
  2
Linepattern
 70
    14
177
     3
291
     1
 70
    58
 90
        2
176
     1
 90
        2
176
     1
 90
        0
176
     1
 90
        0
176
     1
 40
0.6
176
     1
 40
30.0
176
     1
 62
     7
420
 16777215
176
     1
 90
        1
176
     1
 90
        4
176
     1
 62
     7
176
     1
 62
   257
176
     1
 90
        7
176
     1
 90
        7
176
     1
 40
1.0
176
     1
 90
        8
176
     1
 62
     7
176
     1
 40
1.0
176
     1
 90
        1
176
     1
 90
        6
176
     1
 90
        2
176
     1
 62
     7
176
     1
 90
        5
176
     1
 90
        0
176
     1
 90
        0
176
     1
290
     0
176
     1
 90
        1
176
     1
 40
0.0
176
     1
 90
        0
176
     1
290
     0
176
     1
290
     1
176
     1
290
     1
176
     1
290
     0
176
     1
290
     0
176
     1
290
     0
176
     1
290
     0
176
     1
290
     0
176
     1
290
     0
176
     1
 90
       50
176
     1
 40
0.0
176
     1
 40
1.0
176
     1
 90
        0
176
     1
 62
    18
176
     1
 90
       50
176
     1
 90
        3
176
     1
 62
     5
420
      255
176
     1
290
     0
176
     1
 90
       50
176
     1
 90
       50
176
     1
 90
       50
176
     1
290
     0
176
     1
 90
       50
176
     1
 62
   256
176
     0
 40
1.0
176
     0
 90
        2
176
     1
  1
strokes_ogs.tif
176
     1
290
     0
176
     1
 40
1.0
176
     1
 40
1.0
176
     1
  0
VISUALSTYLE
  5
36EC
102
{ACAD_REACTORS
330
36DA
102
}
330
36DA
100
AcDbVisualStyle
  2
OverhangOff
 70
    21
177
     3
291
     1
 70
    58
 90
        2
176
     0
 90
        2
176
     0
 90
        0
176
     0
 90
        0
176
     0
 40
0.6
176
     0
 40
30.0
176
     0
 62
     7
420
 16777215
176
     0
 90
        1
176
     0
 90
        4
176
     0
 62
     7
176
     0
 62
   257
176
     0
 90
        1
176
     0
 90
        1
176
     0
 40
1.0
176
     0
 90
        9
176
     2
 62
     7
176
     0
 40
1.0
176
     0
 90
        1
176
     0
 90
        6
176
     0
 90
        2
176
     0
 62
     7
176
     0
 90
        5
176
     0
 90
        0
176
     0
 90
        0
176
     0
290
     0
176
     0
 90
        1
176
     0
 40
0.0
176
     0
 90
        0
176
     0
290
     0
176
     0
290
     1
176
     0
290
     1
176
     0
290
     0
176
     0
290
     0
176
     0
290
     0
176
     0
290
     0
176
     0
290
     0
176
     0
290
     0
176
     0
 90
       50
176
     0
 40
0.0
176
     0
 40
1.0
176
     0
 90
        0
176
     0
 62
    18
176
     0
 90
       50
176
     0
 90
        3
176
     0
 62
     5
420
      255
176
     0
290
     0
176
     0
 90
       50
176
     0
 90
       50
176
     0
 90
       50
176
     0
290
     0
176
     0
 90
       50
176
     0
 62
   256
176
     0
 40
1.0
176
     0
 90
        2
176
     0
  1
strokes_ogs.tif
176
     0
290
     0
176
     0
 40
1.0
176
     0
 40
1.0
176
     0
  0
VISUALSTYLE
  5
36E3
102
{ACAD_REACTORS
330
36DA
102
}
330
36DA
100
AcDbVisualStyle
  2
Realistic
 70
     8
177
     3
291
     0
 70
    58
 90
        2
176
     1
 90
        3
176
     1
 90
        0
176
     1
 90
        2
176
     1
 40
0.6
176
     1
 40
30.0
176
     1
 62
     7
420
 16777215
176
     1
 90
        0
176
     1
 90
        0
176
     1
 62
     7
176
     1
 62
   257
176
     1
 90
        1
176
     1
 90
        1
176
     1
 40
1.0
176
     1
 90
        8
176
     1
 62
   257
176
     1
 40
1.0
176
     1
 90
        1
176
     1
 90
        6
176
     1
 90
        2
176
     1
 62
     7
176
     1
 90
        3
176
     1
 90
        0
176
     1
 90
        0
176
     1
290
     0
176
     1
 90
       13
176
     1
 40
0.0
176
     1
 90
        0
176
     1
290
     0
176
     1
290
     1
176
     1
290
     1
176
     1
290
     0
176
     1
290
     0
176
     1
290
     0
176
     1
290
     0
176
     1
290
     0
176
     1
290
     0
176
     1
 90
       50
176
     1
 40
0.0
176
     1
 40
1.0
176
     1
 90
        0
176
     1
 62
    18
176
     1
 90
       50
176
     1
 90
        3
176
     1
 62
     5
420
      255
176
     1
290
     0
176
     1
 90
       50
176
     1
 90
       50
176
     1
 90
       50
176
     1
290
     0
176
     1
 90
       50
176
     1
 62
   256
176
     0
 40
1.0
176
     0
 90
        2
176
     1
  1
strokes_ogs.tif
176
     1
290
     0
176
     1
 40
1.0
176
     1
 40
1.0
176
     1
  0
VISUALSTYLE
  5
36F2
102
{ACAD_REACTORS
330
36DA
102
}
330
36DA
100
AcDbVisualStyle
  2
Shaded
 70
    27
177
     3
291
     0
 70
    58
 90
        2
176
     1
 90
        2
176
     1
 90
        1
176
     1
 90
        2
176
     1
 40
0.6
176
     1
 40
30.0
176
     1
 62
     7
420
 16777215
176
     1
 90
        0
176
     1
 90
        4
176
     1
 62
     7
176
     1
 62
   257
176
     1
 90
        1
176
     1
 90
        1
176
     1
 40
1.0
176
     1
 90
        8
176
     1
 62
   257
176
     1
 40
1.0
176
     1
 90
        1
176
     1
 90
        6
176
     1
 90
        2
176
     1
 62
     8
420
  7895160
176
     1
 90
        3
176
     1
 90
        0
176
     1
 90
        0
176
     1
290
     0
176
     1
 90
        5
176
     1
 40
0.0
176
     1
 90
        0
176
     1
290
     0
176
     1
290
     1
176
     1
290
     1
176
     1
290
     0
176
     1
290
     0
176
     1
290
     0
176
     1
290
     0
176
     1
290
     0
176
     1
290
     0
176
     1
 90
       50
176
     1
 40
0.0
176
     1
 40
1.0
176
     1
 90
        0
176
     1
 62
    18
176
     1
 90
       50
176
     1
 90
        3
176
     1
 62
     5
420
      255
176
     1
290
     0
176
     1
 90
       50
176
     1
 90
       50
176
     1
 90
       50
176
     1
290
     0
176
     1
 90
       50
176
     1
 62
   256
176
     0
 40
1.0
176
     0
 90
        2
176
     1
  1
strokes_ogs.tif
176
     1
290
     0
176
     1
 40
1.0
176
     1
 40
1.0
176
     1
  0
VISUALSTYLE
  5
36F1
102
{ACAD_REACTORS
330
36DA
102
}
330
36DA
100
AcDbVisualStyle
  2
Shaded with edges
 70
    26
177
     3
291
     0
 70
    58
 90
        2
176
     1
 90
        2
176
     1
 90
        1
176
     1
 90
        2
176
     1
 40
0.6
176
     1
 40
30.0
176
     1
 62
     7
420
 16777215
176
     1
 90
        1
176
     1
 90
       10
176
     1
 62
     7
176
     1
 62
   257
176
     1
 90
        2
176
     1
 90
        1
176
     1
 40
1.0
176
     1
 90
        8
176
     1
 62
   257
176
     1
 40
1.0
176
     1
 90
        1
176
     1
 90
        6
176
     1
 90
        2
176
     1
 62
     7
176
     1
 90
        3
176
     1
 90
        0
176
     1
 90
        0
176
     1
290
     0
176
     1
 90
        5
176
     1
 40
0.0
176
     1
 90
        0
176
     1
290
     0
176
     1
290
     1
176
     1
290
     1
176
     1
290
     0
176
     1
290
     0
176
     1
290
     0
176
     1
290
     0
176
     1
290
     0
176
     1
290
     0
176
     1
 90
       50
176
     1
 40
0.0
176
     1
 40
1.0
176
     1
 90
        0
176
     1
 62
    18
176
     1
 90
       50
176
     1
 90
        3
176
     1
 62
     5
420
      255
176
     1
290
     0
176
     1
 90
       50
176
     1
 90
       50
176
     1
 90
       50
176
     1
290
     0
176
     1
 90
       50
176
     1
 62
   256
176
     0
 40
1.0
176
     0
 90
        2
176
     1
  1
strokes_ogs.tif
176
     1
290
     0
176
     1
 40
1.0
176
     1
 40
1.0
176
     1
  0
VISUALSTYLE
  5
36EE
102
{ACAD_REACTORS
330
36DA
102
}
330
36DA
100
AcDbVisualStyle
  2
Shades of Gray
 70
    23
177
     3
291
     0
 70
    58
 90
        2
176
     1
 90
        2
176
     1
 90
        3
176
     1
 90
        0
176
     1
 40
0.6
176
     1
 40
30.0
176
     1
 62
     7
420
 16777215
176
     1
 90
        2
176
     1
 90
        2
176
     1
 62
     7
176
     1
 62
     7
176
     1
 90
        1
176
     1
 90
        1
176
     1
 40
40.0
176
     1
 90
        8
176
     1
 62
     7
176
     1
 40
1.0
176
     1
 90
        1
176
     1
 90
        6
176
     1
 90
        2
176
     1
 62
     7
176
     1
 90
        3
176
     1
 90
        0
176
     1
 90
        0
176
     1
290
     0
176
     1
 90
        1
176
     1
 40
0.0
176
     1
 90
        0
176
     1
290
     0
176
     1
290
     1
176
     1
290
     1
176
     1
290
     0
176
     1
290
     0
176
     1
290
     0
176
     1
290
     0
176
     1
290
     0
176
     1
290
     0
176
     1
 90
       50
176
     1
 40
0.0
176
     1
 40
1.0
176
     1
 90
        0
176
     1
 62
    18
176
     1
 90
       50
176
     1
 90
        3
176
     1
 62
     5
420
      255
176
     1
290
     0
176
     1
 90
       50
176
     1
 90
       50
176
     1
 90
       50
176
     1
290
     0
176
     1
 90
       50
176
     1
 62
   256
176
     0
 40
1.0
176
     0
 90
        2
176
     1
  1
strokes_ogs.tif
176
     1
290
     0
176
     1
 40
1.0
176
     1
 40
1.0
176
     1
  0
VISUALSTYLE
  5
36EF
102
{ACAD_REACTORS
330
36DA
102
}
330
36DA
100
AcDbVisualStyle
  2
Sketchy
 70
    24
177
     3
291
     0
 70
    58
 90
        1
176
     1
 90
        2
176
     1
 90
        2
176
     1
 90
        0
176
     1
 40
0.6
176
     1
 40
30.0
176
     1
 62
     7
420
 16777215
176
     1
 90
        2
176
     1
 90
        2
176
     1
 62
     7
176
     1
 62
     7
176
     1
 90
        1
176
     1
 90
        1
176
     1
 40
40.0
176
     1
 90
       11
176
     1
 62
     7
176
     1
 40
1.0
176
     1
 90
        1
176
     1
 90
        6
176
     1
 90
        2
176
     1
 62
     7
176
     1
 90
        6
176
     1
 90
        0
176
     1
 90
        0
176
     1
290
     0
176
     1
 90
        1
176
     1
 40
0.0
176
     1
 90
        0
176
     1
290
     0
176
     1
290
     1
176
     1
290
     1
176
     1
290
     0
176
     1
290
     0
176
     1
290
     0
176
     1
290
     0
176
     1
290
     0
176
     1
290
     0
176
     1
 90
       50
176
     1
 40
0.0
176
     1
 40
1.0
176
     1
 90
        0
176
     1
 62
    18
176
     1
 90
       50
176
     1
 90
        3
176
     1
 62
     5
420
      255
176
     1
290
     0
176
     1
 90
       50
176
     1
 90
       50
176
     1
 90
       50
176
     1
290
     0
176
     1
 90
       50
176
     1
 62
   256
176
     0
 40
1.0
176
     0
 90
        2
176
     1
  1
strokes_ogs.tif
176
     1
290
     0
176
     1
 40
1.0
176
     1
 40
1.0
176
     1
  0
VISUALSTYLE
  5
36E7
102
{ACAD_REACTORS
330
36DA
102
}
330
36DA
100
AcDbVisualStyle
  2
Thicken
 70
    13
177
     3
291
     1
 70
    58
 90
        2
176
     1
 90
        2
176
     1
 90
        0
176
     1
 90
        0
176
     1
 40
0.6
176
     1
 40
30.0
176
     1
 62
     7
420
 16777215
176
     1
 90
        1
176
     1
 90
        4
176
     1
 62
     7
176
     1
 62
   257
176
     1
 90
        1
176
     1
 90
        1
176
     1
 40
1.0
176
     1
 90
       12
176
     1
 62
     7
176
     1
 40
1.0
176
     1
 90
        1
176
     1
 90
        6
176
     1
 90
        2
176
     1
 62
     7
176
     1
 90
        5
176
     1
 90
        0
176
     1
 90
        0
176
     1
290
     0
176
     1
 90
        1
176
     1
 40
0.0
176
     1
 90
        0
176
     1
290
     0
176
     1
290
     1
176
     1
290
     1
176
     1
290
     0
176
     1
290
     0
176
     1
290
     0
176
     1
290
     0
176
     1
290
     0
176
     1
290
     0
176
     1
 90
       50
176
     1
 40
0.0
176
     1
 40
1.0
176
     1
 90
        0
176
     1
 62
    18
176
     1
 90
       50
176
     1
 90
        3
176
     1
 62
     5
420
      255
176
     1
290
     0
176
     1
 90
       50
176
     1
 90
       50
176
     1
 90
       50
176
     1
290
     0
176
     1
 90
       50
176
     1
 62
   256
176
     0
 40
1.0
176
     0
 90
        2
176
     1
  1
strokes_ogs.tif
176
     1
290
     0
176
     1
 40
1.0
176
     1
 40
1.0
176
     1
  0
VISUALSTYLE
  5
36E0
102
{ACAD_REACTORS
330
36DA
102
}
330
36DA
100
AcDbVisualStyle
  2
Wireframe
 70
     5
177
     3
291
     0
 70
    58
 90
        0
176
     1
 90
        2
176
     1
 90
        0
176
     1
 90
        0
176
     1
 40
0.6
176
     1
 40
30.0
176
     1
 62
     7
420
 16777215
176
     1
 90
        1
176
     1
 90
        4
176
     1
 62
     7
176
     1
 62
   257
176
     1
 90
        1
176
     1
 90
        1
176
     1
 40
1.0
176
     1
 90
        0
176
     1
 62
   257
176
     1
 40
1.0
176
     1
 90
        1
176
     1
 90
        6
176
     1
 90
        2
176
     1
 62
     7
176
     1
 90
        3
176
     1
 90
        0
176
     1
 90
        0
176
     1
290
     0
176
     1
 90
        1
176
     1
 40
0.0
176
     1
 90
        0
176
     1
290
     0
176
     1
290
     1
176
     1
290
     1
176
     1
290
     0
176
     1
290
     0
176
     1
290
     0
176
     1
290
     0
176
     1
290
     0
176
     1
290
     0
176
     1
 90
       50
176
     1
 40
0.0
176
     1
 40
1.0
176
     1
 90
        0
176
     1
 62
    18
176
     1
 90
       50
176
     1
 90
        3
176
     1
 62
     5
420
      255
176
     1
290
     0
176
     1
 90
       50
176
     1
 90
       50
176
     1
 90
       50
176
     1
290
     0
176
     1
 90
       50
176
     1
 62
   256
176
     0
 40
1.0
176
     0
 90
        2
176
     1
  1
strokes_ogs.tif
176
     1
290
     0
176
     1
 40
1.0
176
     1
 40
1.0
176
     1
  0
VISUALSTYLE
  5
36F0
102
{ACAD_REACTORS
330
36DA
102
}
330
36DA
100
AcDbVisualStyle
  2
X-Ray
 70
    25
177
     3
291
     0
 70
    58
 90
        2
176
     1
 90
        2
176
     1
 90
        1
176
     1
 90
        1
176
     1
 40
0.5
176
     1
 40
30.0
176
     1
 62
     7
420
 16777215
176
     1
 90
        1
176
     1
 90
        0
176
     1
 62
     7
176
     1
 62
   257
176
     1
 90
        1
176
     1
 90
        1
176
     1
 40
1.0
176
     1
 90
        8
176
     1
 62
     7
176
     1
 40
1.0
176
     1
 90
        1
176
     1
 90
        6
176
     1
 90
        2
176
     1
 62
     7
176
     1
 90
        3
176
     1
 90
        0
176
     1
 90
        0
176
     1
290
     0
176
     1
 90
       13
176
     1
 40
0.0
176
     1
 90
        0
176
     1
290
     0
176
     1
290
     1
176
     1
290
     1
176
     1
290
     0
176
     1
290
     0
176
     1
290
     0
176
     1
290
     0
176
     1
290
     0
176
     1
290
     0
176
     1
 90
       50
176
     1
 40
0.0
176
     1
 40
1.0
176
     1
 90
        0
176
     1
 62
    18
176
     1
 90
       50
176
     1
 90
        3
176
     1
 62
     5
420
      255
176
     1
290
     0
176
     1
 90
       50
176
     1
 90
       50
176
     1
 90
       50
176
     1
290
     0
176
     1
 90
       50
176
     1
 62
   256
176
     0
 40
1.0
176
     0
 90
        2
176
     1
  1
strokes_ogs.tif
176
     1
290
     0
176
     1
 40
1.0
176
     1
 40
1.0
176
     1
  0
DICTIONARYVAR
  5
3BA8
102
{ACAD_REACTORS
330
193
102
}
330
193
100
DictionaryVariables
280
     0
  1
1:1
  0
DICTIONARYVAR
  5
3BAA
102
{ACAD_REACTORS
330
193
102
}
330
193
100
DictionaryVariables
280
     0
  1
STANDARD
  0
DICTIONARYVAR
  5
3BA9
102
{ACAD_REACTORS
330
193
102
}
330
193
100
DictionaryVariables
280
     0
  1
STANDARD
  0
DICTIONARYVAR
  5
3BC3
102
{ACAD_REACTORS
330
193
102
}
330
193
100
DictionaryVariables
280
     0
  1
Metric50
  0
DICTIONARYVAR
  5
3BC4
102
{ACAD_REACTORS
330
193
102
}
330
193
100
DictionaryVariables
280
     0
  1
Metric50
  0
DICTIONARYVAR
  5
195
102
{ACAD_REACTORS
330
193
102
}
330
193
100
DictionaryVariables
280
     0
  1
2
  0
DICTIONARYVAR
  5
194
102
{ACAD_REACTORS
330
193
102
}
330
193
100
DictionaryVariables
280
     0
  1
1
  0
DICTIONARYVAR
  5
3BAB
102
{ACAD_REACTORS
330
193
102
}
330
193
100
DictionaryVariables
280
     0
  1
0
  0
DICTIONARYVAR
  5
FE8
102
{ACAD_REACTORS
330
193
102
}
330
193
100
DictionaryVariables
280
     0
  1
112
  0
DICTIONARY
  5
3BB1
330
36F8
100
AcDbDictionary
280
     1
281
     1
  3
ACAD_ROUNDTRIP_2008_TABLESTYLE_CELLSTYLEMAP
360
5113
  0
CELLSTYLEMAP
  5
5113
102
{ACAD_REACTORS
330
3BB1
102
}
330
3BB1
100
AcDbCellStyleMap
 90
        3
300
CELLSTYLE
  1
TABLEFORMAT_BEGIN
 90
        5
170
     1
 91
        0
 92
    32768
 62
   257
 93
        1
300
CONTENTFORMAT
  1
CONTENTFORMAT_BEGIN
 90
        0
 91
        0
 92
        4
 93
        0
300

 40
0.0
140
1.0
 94
        5
 62
     0
340
11
144
6.0
309
CONTENTFORMAT_END
171
     1
301
MARGIN
  1
CELLMARGIN_BEGIN
 40
1.5
 40
1.5
 40
1.5
 40
1.5
 40
0.18
 40
0.18
309
CELLMARGIN_END
 94
        6
 95
        1
302
GRIDFORMAT
  1
GRIDFORMAT_BEGIN
 90
        0
 91
        1
 62
     0
 92
       -2
340
14
 93
        0
 40
0.045
309
GRIDFORMAT_END
 95
        2
302
GRIDFORMAT
  1
GRIDFORMAT_BEGIN
 90
        0
 91
        1
 62
     0
 92
       -2
340
14
 93
        0
 40
0.045
309
GRIDFORMAT_END
 95
        4
302
GRIDFORMAT
  1
GRIDFORMAT_BEGIN
 90
        0
 91
        1
 62
     0
 92
       -2
340
14
 93
        0
 40
0.045
309
GRIDFORMAT_END
 95
        8
302
GRIDFORMAT
  1
GRIDFORMAT_BEGIN
 90
        0
 91
        1
 62
     0
 92
       -2
340
14
 93
        0
 40
0.045
309
GRIDFORMAT_END
 95
       16
302
GRIDFORMAT
  1
GRIDFORMAT_BEGIN
 90
        0
 91
        1
 62
     0
 92
       -2
340
14
 93
        0
 40
0.045
309
GRIDFORMAT_END
 95
       32
302
GRIDFORMAT
  1
GRIDFORMAT_BEGIN
 90
        0
 91
        1
 62
     0
 92
       -2
340
14
 93
        0
 40
0.045
309
GRIDFORMAT_END
309
TABLEFORMAT_END
  1
CELLSTYLE_BEGIN
 90
        1
 91
        1
300
_TITLE
309
CELLSTYLE_END
300
CELLSTYLE
  1
TABLEFORMAT_BEGIN
 90
        5
170
     1
 91
        0
 92
        0
 62
   257
 93
        1
300
CONTENTFORMAT
  1
CONTENTFORMAT_BEGIN
 90
        0
 91
        0
 92
        4
 93
        0
300

 40
0.0
140
1.0
 94
        5
 62
     0
340
11
144
4.5
309
CONTENTFORMAT_END
171
     1
301
MARGIN
  1
CELLMARGIN_BEGIN
 40
1.5
 40
1.5
 40
1.5
 40
1.5
 40
0.18
 40
0.18
309
CELLMARGIN_END
 94
        6
 95
        1
302
GRIDFORMAT
  1
GRIDFORMAT_BEGIN
 90
        0
 91
        1
 62
     0
 92
       -2
340
14
 93
        0
 40
0.045
309
GRIDFORMAT_END
 95
        2
302
GRIDFORMAT
  1
GRIDFORMAT_BEGIN
 90
        0
 91
        1
 62
     0
 92
       -2
340
14
 93
        0
 40
0.045
309
GRIDFORMAT_END
 95
        4
302
GRIDFORMAT
  1
GRIDFORMAT_BEGIN
 90
        0
 91
        1
 62
     0
 92
       -2
340
14
 93
        0
 40
0.045
309
GRIDFORMAT_END
 95
        8
302
GRIDFORMAT
  1
GRIDFORMAT_BEGIN
 90
        0
 91
        1
 62
     0
 92
       -2
340
14
 93
        0
 40
0.045
309
GRIDFORMAT_END
 95
       16
302
GRIDFORMAT
  1
GRIDFORMAT_BEGIN
 90
        0
 91
        1
 62
     0
 92
       -2
340
14
 93
        0
 40
0.045
309
GRIDFORMAT_END
 95
       32
302
GRIDFORMAT
  1
GRIDFORMAT_BEGIN
 90
        0
 91
        1
 62
     0
 92
       -2
340
14
 93
        0
 40
0.045
309
GRIDFORMAT_END
309
TABLEFORMAT_END
  1
CELLSTYLE_BEGIN
 90
        2
 91
        1
300
_HEADER
309
CELLSTYLE_END
300
CELLSTYLE
  1
TABLEFORMAT_BEGIN
 90
        5
170
     1
 91
        0
 92
        0
 62
   257
 93
        1
300
CONTENTFORMAT
  1
CONTENTFORMAT_BEGIN
 90
        0
 91
        0
 92
        4
 93
        0
300

 40
0.0
140
1.0
 94
        2
 62
     0
340
11
144
4.5
309
CONTENTFORMAT_END
171
     1
301
MARGIN
  1
CELLMARGIN_BEGIN
 40
1.5
 40
1.5
 40
1.5
 40
1.5
 40
0.18
 40
0.18
309
CELLMARGIN_END
 94
        6
 95
        1
302
GRIDFORMAT
  1
GRIDFORMAT_BEGIN
 90
        0
 91
        1
 62
     0
 92
       -2
340
14
 93
        0
 40
0.045
309
GRIDFORMAT_END
 95
        2
302
GRIDFORMAT
  1
GRIDFORMAT_BEGIN
 90
        0
 91
        1
 62
     0
 92
       -2
340
14
 93
        0
 40
0.045
309
GRIDFORMAT_END
 95
        4
302
GRIDFORMAT
  1
GRIDFORMAT_BEGIN
 90
        0
 91
        1
 62
     0
 92
       -2
340
14
 93
        0
 40
0.045
309
GRIDFORMAT_END
 95
        8
302
GRIDFORMAT
  1
GRIDFORMAT_BEGIN
 90
        0
 91
        1
 62
     0
 92
       -2
340
14
 93
        0
 40
0.045
309
GRIDFORMAT_END
 95
       16
302
GRIDFORMAT
  1
GRIDFORMAT_BEGIN
 90
        0
 91
        1
 62
     0
 92
       -2
340
14
 93
        0
 40
0.045
309
GRIDFORMAT_END
 95
       32
302
GRIDFORMAT
  1
GRIDFORMAT_BEGIN
 90
        0
 91
        1
 62
     0
 92
       -2
340
14
 93
        0
 40
0.045
309
GRIDFORMAT_END
309
TABLEFORMAT_END
  1
CELLSTYLE_BEGIN
 90
        3
 91
        2
300
_DATA
309
CELLSTYLE_END
  0
ENDSEC
  0
SECTION
  2
ACDSDATA
 70
     2
 71
     7
  0
ACDSSCHEMA
 90
        0
  1
AcDb_Thumbnail_Schema
  2
AcDbDs::ID
280
    10
 91
        8
  2
Thumbnail_Data
280
    15
 91
        0
101
ACDSRECORD
 95
        0
 90
        1
  2
AcDbDs::TreatedAsObjectData
280
     1
291
     1
101
ACDSRECORD
 95
        0
 90
        2
  2
AcDbDs::Legacy
280
     1
291
     1
101
ACDSRECORD
  1
AcDbDs::ID
 90
        3
  2
AcDs:Indexable
280
     1
291
     1
101
ACDSRECORD
  1
AcDbDs::ID
 90
        4
  2
AcDbDs::HandleAttribute
280
     7
282
     1
  0
ACDSSCHEMA
 90
        1
  1
AcDbDs::TreatedAsObjectDataSchema
  2
AcDbDs::TreatedAsObjectData
280
     1
 91
        0
  0
ACDSSCHEMA
 90
        2
  1
AcDbDs::LegacySchema
  2
AcDbDs::Legacy
280
     1
 91
        0
  0
ACDSSCHEMA
 90
        3
  1
AcDbDs::IndexedPropertySchema
  2
AcDs:Indexable
280
     1
 91
        0
  0
ACDSSCHEMA
 90
        4
  1
AcDbDs::HandleAttributeSchema
  2
AcDbDs::HandleAttribute
280
     7
 91
        1
284
     1
  0
ACDSRECORD
 90
        0
  2
AcDbDs::ID
280
    10
320
1E
  2
Thumbnail_Data
280
    15
 94
     2277
310
89504E470D0A1A0A0000000D4948445200000100000000B408030000004C80028300000300504C5445FFFFFF000000C8C8C80000000000000000000000000000000000000000000000000000330000660000990000CC0000FF0033000033330033660033990033CC0033FF0066000066330066660066990066CC0066FF0099
310
000099330099660099990099CC0099FF00CC0000CC3300CC6600CC9900CCCC00CCFF00FF0000FF3300FF6600FF9900FFCC00FFFF3300003300333300663300993300CC3300FF3333003333333333663333993333CC3333FF3366003366333366663366993366CC3366FF3399003399333399663399993399CC3399FF33CC00
310
33CC3333CC6633CC9933CCCC33CCFF33FF0033FF3333FF6633FF9933FFCC33FFFF6600006600336600666600996600CC6600FF6633006633336633666633996633CC6633FF6666006666336666666666996666CC6666FF6699006699336699666699996699CC6699FF66CC0066CC3366CC6666CC9966CCCC66CCFF66FF0066
310
FF3366FF6666FF9966FFCC66FFFF9900009900339900669900999900CC9900FF9933009933339933669933999933CC9933FF9966009966339966669966999966CC9966FF9999009999339999669999999999CC9999FF99CC0099CC3399CC6699CC9999CCCC99CCFF99FF0099FF3399FF6699FF9999FFCC99FFFFCC0000CC00
310
33CC0066CC0099CC00CCCC00FFCC3300CC3333CC3366CC3399CC33CCCC33FFCC6600CC6633CC6666CC6699CC66CCCC66FFCC9900CC9933CC9966CC9999CC99CCCC99FFCCCC00CCCC33CCCC66CCCC99CCCCCCCCCCFFCCFF00CCFF33CCFF66CCFF99CCFFCCCCFFFFFF0000FF0033FF0066FF0099FF00CCFF00FFFF3300FF3333
310
FF3366FF3399FF33CCFF33FFFF6600FF6633FF6666FF6699FF66CCFF66FFFF9900FF9933FF9966FF9999FF99CCFF99FFFFCC00FFCC33FFCC66FFCC99FFCCCCFFCCFFFFFF00FFFF33FFFF66FFFF99FFFFCCFFFFFF0000000D0D0D1A1A1A2828283535354343435050505D5D5D6B6B6B787878868686939393A1A1A1AEAEAEBB
310
BBBBC9C9C9D6D6D6E4E4E4F1F1F1FFFFFF000000000000000000000000000000000000000000000000000000000000B0E2D235000005454944415478DAEDDC699AA3201006E0BA01D7E0FE07E04FDD644E322EA08025295468978FE9273D6D4C0CAFC5AEA17FDF4E44C3CF8713000000000000000000000000000080786BF3
310
01C885393877440000000000402B704CF5AE39EA560400000000BC16E0E3ADC0CBD7411400EF3EE1000000000000000000000000000000000000000000000000000000000000000000000000000000000000000000B827008FE9E300F46D00BA22001E00C0D5E96D004BA0CB19CC36D6968B27002441BF39C153EEE3AD2F06
310
9873CA4265F86E80CA0AE00F00F66A9F43B5925407B0744C61EBB48DF79BCD4E00EE728072D188ABC25D006E03C07A006E0A104EFE0E40E473318094DC05CD7305004715A40CB0649F1B4540969C7ED74B0044E9C8BC90FD7700645B738072E3F0348090A75D802508965FF3DE4CAF00F06735A9CFB85027FD6E881E05C021
310
E70200AF4580F349036ED711EA0C20B62A1CF7726200DF472EB73F0F0358BB809C37831B005FF771D3AE70EF229006FB8F22A09A337A358066CEE83D00BCAD0435873C0360EDF06375009658DCF73880FB05A0EB7C9F00B0664AFE5739857D0F0044EFC2D163B69579F9A36E04720A60FC7064351160C9B861F74300C33F4D
310
0484BDC97014FD0D01ECF8D1865C6D059CB0EFB02B1D8D0067D4001333275D818600CEB8E14705E0E67DAD6A5E251B5C0F9932D35B4EA776783419800900E32186E3544D109E2F0254510474F39FBEFBEA8BF0FCB219C34C530DC341DD90A687F96FB79476939DF5A6FD0013C25BD50C8ABB1600421566D6D92C33C198E528
310
7357CF25C13E78F40398DA41653338EE5A110142459E55E9CB9F31C014323D23C00A39B553836FFD7F6CBA410320358369EE9396D06D1ADD3EAD00C945DA168A8021AB8F801880B331FF786897061C87CA717841142C0F02C8E7F0963AC06738097C09C0BD0560530598D07EACF98A00D8CD33244B8BB41681C63DC1661120
310
F4044D5607A611303FE5E82E0074BE08448DF9D8DBD8E42401F0C3A59B0094BBF574B60ED889807B01B87300FB7580F04E6E49EB8294E1684AFC417500EDD601A61C01BC1701D7B7022E49C6FF9E7BE6FE49BB3E4F6B973DBCC06E5F10252661FBD8D121933D61D6234C673E79C11C01E1D94DBA7F47A82E02388C847A4440
310
3AC8EE06400200A7AB9F44423FA011403CF42C0070E308C827BCE29E60538095BE1700C911900D0F3B47C03C55218E7BAF1E0D8A11504CCD87C37EC9A5DC0FE0FA9E532902F29C297B1B8DFA0161AEA600C07415809922C0CCA1701300DA2F024D00CCFD00C6B736A59521DED48DEA2931313F86F82700F705605B9A146561
310
90688F03F0BC02F42302B625B3EDB4388F9F420660A971FCB530B203E0FC45108A21179BAE008595A10D8066696CA70EF02B1D1A807162B017407965283DF0A995A169714805301C824D32DAE1F611C06225C8244640CDECC9323D10A67B551160B85F11A08AE5F1EAD5F1754E63590F67DD41D8F45A1EF7CB3DDB30132280
310
7616918A856159EE217504849915FDE528272F91B13B1F8DEB664B4BD90FB7CAE801B823C04E4FD09F8463578B6FAE6D6631538E2E098136B7CC88B7B91CCCBEBF67A40280FE3A0236A7FEF7F59A9BE897DEADCEFF0E1140D5B7498857F6B3B2454B9AFF3F05888B7F2D1B5D7247EC1FD701C76E995916332E48AC8E981BDD
310
37A8AF29B441F83000BA2EFB15D5C09D00F8DA37D35540EFFD0A0D65150C80D7022805DEFC2D32ED87C37707A08F03A842E0DD5FA4F4F508A06FB7023A017C97180000000000000000000000000000000000000000000000000000000000000000000000106D7B73D2007C2A01000000000000000000000000000000000000
310
F051806F27FA0F428CEAA930C065520000000049454E44AE426082F8034D00F82D4F7F3FFB48FFC6DFBA01F0DB80E85501026012FFEFE73C1705F403E01FF930340FA0F738A0FB4850007006D04D0B00E8B0090001200004800010007D03E8BCFD075A17CE9B304078100000000049454E44AE426082
  0
ENDSEC
  0
EOF
