  0
SECTION
  2
HEADER
  9
$ACADVER
  1
AC1027
  9
$ACADMAINTVER
 70
    20
  9
$DWGCODEPAGE
  3
ANSI_932
  9
$LASTSAVEDBY
  1
lineeyeKH1
  9
$REQUIREDVERSIONS
160
                 0
  9
$INSBASE
 10
0.0
 20
0.0
 30
0.0
  9
$EXTMIN
 10
35.45172163847431
 20
130.5836388746383
 30
0.0
  9
$EXTMAX
 10
148.5254634193116
 20
232.412128794027
 30
0.0
  9
$LIMMIN
 10
0.0
 20
0.0
  9
$LIMMAX
 10
420.0
 20
297.0
  9
$ORTHOMODE
 70
     1
  9
$REGENMODE
 70
     1
  9
$FILLMODE
 70
     1
  9
$QTEXTMODE
 70
     0
  9
$MIRRTEXT
 70
     1
  9
$LTSCALE
 40
1.0
  9
$ATTMODE
 70
     1
  9
$TEXTSIZE
 40
2.5
  9
$TRACEWID
 40
1.0
  9
$TEXTSTYLE
  7
Standard
  9
$CLAYER
  8
中心線
  9
$CELTYPE
  6
ByLayer
  9
$CECOLOR
 62
   256
  9
$CELTSCALE
 40
1.0
  9
$DISPSILH
 70
     0
  9
$DIMSCALE
 40
1.0
  9
$DIMASZ
 40
2.0
  9
$DIMEXO
 40
1.0
  9
$DIMDLI
 40
7.0
  9
$DIMRND
 40
0.0
  9
$DIMDLE
 40
0.0
  9
$DIMEXE
 40
1.0
  9
$DIMTP
 40
0.0
  9
$DIMTM
 40
0.0
  9
$DIMTXT
 40
2.5
  9
$DIMCEN
 40
0.0
  9
$DIMTSZ
 40
0.0
  9
$DIMTOL
 70
     0
  9
$DIMLIM
 70
     0
  9
$DIMTIH
 70
     0
  9
$DIMTOH
 70
     0
  9
$DIMSE1
 70
     0
  9
$DIMSE2
 70
     0
  9
$DIMTAD
 70
     1
  9
$DIMZIN
 70
     8
  9
$DIMBLK
  1

  9
$DIMASO
 70
     1
  9
$DIMSHO
 70
     1
  9
$DIMPOST
  1

  9
$DIMAPOST
  1

  9
$DIMALT
 70
     0
  9
$DIMALTD
 70
     2
  9
$DIMALTF
 40
0.0394
  9
$DIMLFAC
 40
1.0
  9
$DIMTOFL
 70
     1
  9
$DIMTVP
 40
0.0
  9
$DIMTIX
 70
     0
  9
$DIMSOXD
 70
     0
  9
$DIMSAH
 70
     0
  9
$DIMBLK1
  1

  9
$DIMBLK2
  1

  9
$DIMSTYLE
  2
LINEEYE
  9
$DIMCLRD
 70
   256
  9
$DIMCLRE
 70
   256
  9
$DIMCLRT
 70
   256
  9
$DIMTFAC
 40
1.0
  9
$DIMGAP
 40
1.0
  9
$DIMJUST
 70
     0
  9
$DIMSD1
 70
     0
  9
$DIMSD2
 70
     0
  9
$DIMTOLJ
 70
     1
  9
$DIMTZIN
 70
     0
  9
$DIMALTZ
 70
     0
  9
$DIMALTTZ
 70
     0
  9
$DIMUPT
 70
     0
  9
$DIMDEC
 70
     1
  9
$DIMTDEC
 70
     1
  9
$DIMALTU
 70
     2
  9
$DIMALTTD
 70
     2
  9
$DIMTXSTY
  7
Standard
  9
$DIMAUNIT
 70
     0
  9
$DIMADEC
 70
     0
  9
$DIMALTRND
 40
0.0
  9
$DIMAZIN
 70
     0
  9
$DIMDSEP
 70
    46
  9
$DIMATFIT
 70
     3
  9
$DIMFRAC
 70
     0
  9
$DIMLDRBLK
  1

  9
$DIMLUNIT
 70
     2
  9
$DIMLWD
 70
    -1
  9
$DIMLWE
 70
    -1
  9
$DIMTMOVE
 70
     0
  9
$DIMFXL
 40
1.0
  9
$DIMFXLON
 70
     0
  9
$DIMJOGANG
 40
0.7853981633974483
  9
$DIMTFILL
 70
     0
  9
$DIMTFILLCLR
 70
     0
  9
$DIMARCSYM
 70
     0
  9
$DIMLTYPE
  6

  9
$DIMLTEX1
  6

  9
$DIMLTEX2
  6

  9
$DIMTXTDIRECTION
 70
     0
  9
$LUNITS
 70
     2
  9
$LUPREC
 70
     4
  9
$SKETCHINC
 40
1.0
  9
$FILLETRAD
 40
1.0
  9
$AUNITS
 70
     0
  9
$AUPREC
 70
     0
  9
$MENU
  1
.
  9
$ELEVATION
 40
0.0
  9
$PELEVATION
 40
0.0
  9
$THICKNESS
 40
0.0
  9
$LIMCHECK
 70
     0
  9
$CHAMFERA
 40
1.0
  9
$CHAMFERB
 40
1.0
  9
$CHAMFERC
 40
20.0
  9
$CHAMFERD
 40
0.0
  9
$SKPOLY
 70
     0
  9
$TDCREATE
 40
2452964.722255845
  9
$TDUCREATE
 40
2452964.347255846
  9
$TDUPDATE
 40
2458190.623974514
  9
$TDUUPDATE
 40
2458190.248974514
  9
$TDINDWG
 40
0.9194154514
  9
$TDUSRTIMER
 40
2457052.365512431
  9
$USRTIMER
 70
     1
  9
$ANGBASE
 50
0.0
  9
$ANGDIR
 70
     0
  9
$PDMODE
 70
     0
  9
$PDSIZE
 40
0.0
  9
$PLINEWID
 40
0.0
  9
$SPLFRAME
 70
     0
  9
$SPLINETYPE
 70
     6
  9
$SPLINESEGS
 70
     8
  9
$HANDSEED
  5
635F
  9
$SURFTAB1
 70
     6
  9
$SURFTAB2
 70
     6
  9
$SURFTYPE
 70
     6
  9
$SURFU
 70
     6
  9
$SURFV
 70
     6
  9
$UCSBASE
  2

  9
$UCSNAME
  2

  9
$UCSORG
 10
0.0
 20
0.0
 30
0.0
  9
$UCSXDIR
 10
1.0
 20
0.0
 30
0.0
  9
$UCSYDIR
 10
0.0
 20
1.0
 30
0.0
  9
$UCSORTHOREF
  2

  9
$UCSORTHOVIEW
 70
     0
  9
$UCSORGTOP
 10
0.0
 20
0.0
 30
0.0
  9
$UCSORGBOTTOM
 10
0.0
 20
0.0
 30
0.0
  9
$UCSORGLEFT
 10
0.0
 20
0.0
 30
0.0
  9
$UCSORGRIGHT
 10
0.0
 20
0.0
 30
0.0
  9
$UCSORGFRONT
 10
0.0
 20
0.0
 30
0.0
  9
$UCSORGBACK
 10
0.0
 20
0.0
 30
0.0
  9
$PUCSBASE
  2

  9
$PUCSNAME
  2

  9
$PUCSORG
 10
0.0
 20
0.0
 30
0.0
  9
$PUCSXDIR
 10
1.0
 20
0.0
 30
0.0
  9
$PUCSYDIR
 10
0.0
 20
1.0
 30
0.0
  9
$PUCSORTHOREF
  2

  9
$PUCSORTHOVIEW
 70
     0
  9
$PUCSORGTOP
 10
0.0
 20
0.0
 30
0.0
  9
$PUCSORGBOTTOM
 10
0.0
 20
0.0
 30
0.0
  9
$PUCSORGLEFT
 10
0.0
 20
0.0
 30
0.0
  9
$PUCSORGRIGHT
 10
0.0
 20
0.0
 30
0.0
  9
$PUCSORGFRONT
 10
0.0
 20
0.0
 30
0.0
  9
$PUCSORGBACK
 10
0.0
 20
0.0
 30
0.0
  9
$USERI1
 70
     0
  9
$USERI2
 70
     0
  9
$USERI3
 70
     0
  9
$USERI4
 70
     0
  9
$USERI5
 70
     0
  9
$USERR1
 40
0.0
  9
$USERR2
 40
0.0
  9
$USERR3
 40
0.0
  9
$USERR4
 40
0.0
  9
$USERR5
 40
0.0
  9
$WORLDVIEW
 70
     1
  9
$SHADEDGE
 70
     3
  9
$SHADEDIF
 70
    70
  9
$TILEMODE
 70
     0
  9
$MAXACTVP
 70
    64
  9
$PINSBASE
 10
0.0
 20
0.0
 30
0.0
  9
$PLIMCHECK
 70
     0
  9
$PEXTMIN
 10
-0.6161281959830376
 20
-0.9914953453488806
 30
0.0
  9
$PEXTMAX
 10
296.8919077172943
 20
209.0085046546511
 30
0.0
  9
$PLIMMIN
 10
-0.7937499880790711
 20
-0.7937499880790711
  9
$PLIMMAX
 10
296.2062500119209
 20
209.2062500119209
  9
$UNITMODE
 70
     0
  9
$VISRETAIN
 70
     1
  9
$PLINEGEN
 70
     0
  9
$PSLTSCALE
 70
     1
  9
$TREEDEPTH
 70
  3020
  9
$CMLSTYLE
  2
Standard
  9
$CMLJUST
 70
     0
  9
$CMLSCALE
 40
20.0
  9
$PROXYGRAPHICS
 70
     1
  9
$MEASUREMENT
 70
     1
  9
$CELWEIGHT
370
    -1
  9
$ENDCAPS
280
     0
  9
$JOINSTYLE
280
     0
  9
$LWDISPLAY
290
     0
  9
$INSUNITS
 70
     4
  9
$HYPERLINKBASE
  1

  9
$STYLESHEET
  1
GRAYSCALE.CTB
  9
$XEDIT
290
     1
  9
$CEPSNTYPE
380
     0
  9
$PSTYLEMODE
290
     1
  9
$FINGERPRINTGUID
  2
{8D857D7B-D612-449F-BAF4-CB0812802B13}
  9
$VERSIONGUID
  2
{CE75FB12-0B9E-4232-B3B1-051315E5A768}
  9
$EXTNAMES
290
     1
  9
$PSVPSCALE
 40
0.0
  9
$OLESTARTUP
290
     0
  9
$SORTENTS
280
   112
  9
$INDEXCTL
280
     0
  9
$HIDETEXT
280
     1
  9
$XCLIPFRAME
280
     2
  9
$HALOGAP
280
     0
  9
$OBSCOLOR
 70
   257
  9
$OBSLTYPE
280
     0
  9
$INTERSECTIONDISPLAY
280
     0
  9
$INTERSECTIONCOLOR
 70
   257
  9
$DIMASSOC
280
     2
  9
$PROJECTNAME
  1

  9
$CAMERADISPLAY
290
     0
  9
$LENSLENGTH
 40
50.0
  9
$CAMERAHEIGHT
 40
0.0
  9
$STEPSPERSEC
 40
2.0
  9
$STEPSIZE
 40
6.0
  9
$3DDWFPREC
 40
2.0
  9
$PSOLWIDTH
 40
0.25
  9
$PSOLHEIGHT
 40
4.0
  9
$LOFTANG1
 40
1.570796326794897
  9
$LOFTANG2
 40
1.570796326794897
  9
$LOFTMAG1
 40
0.0
  9
$LOFTMAG2
 40
0.0
  9
$LOFTPARAM
 70
     7
  9
$LOFTNORMALS
280
     1
  9
$LATITUDE
 40
37.795
  9
$LONGITUDE
 40
-122.394
  9
$NORTHDIRECTION
 40
0.0
  9
$TIMEZONE
 70
 -8000
  9
$LIGHTGLYPHDISPLAY
280
     1
  9
$TILEMODELIGHTSYNCH
280
     1
  9
$CMATERIAL
347
36F4
  9
$SOLIDHIST
280
     0
  9
$SHOWHIST
280
     1
  9
$DWFFRAME
280
     2
  9
$DGNFRAME
280
     2
  9
$REALWORLDSCALE
290
     1
  9
$INTERFERECOLOR
 62
   256
  9
$INTERFEREOBJVS
345
36E3
  9
$INTERFEREVPVS
346
36E0
  9
$CSHADOW
280
     0
  9
$SHADOWPLANELOCATION
 40
0.0
  0
ENDSEC
  0
SECTION
  2
CLASSES
  0
CLASS
  1
ACDBDICTIONARYWDFLT
  2
AcDbDictionaryWithDefault
  3
ObjectDBX Classes
 90
        0
 91
        1
280
     0
281
     0
  0
CLASS
  1
DIMASSOC
  2
AcDbDimAssoc
  3
"AcDbDimAssoc|Product Desc:     AcDim ARX App For Dimension|Company:          Autodesk, Inc.|WEB Address:      www.autodesk.com"
 90
        0
 91
       13
280
     0
281
     0
  0
CLASS
  1
DICTIONARYVAR
  2
AcDbDictionaryVar
  3
ObjectDBX Classes
 90
        0
 91
        9
280
     0
281
     0
  0
CLASS
  1
SORTENTSTABLE
  2
AcDbSortentsTable
  3
ObjectDBX Classes
 90
        0
 91
        2
280
     0
281
     0
  0
CLASS
  1
SCALE
  2
AcDbScale
  3
ObjectDBX Classes
 90
     1153
 91
       33
280
     0
281
     0
  0
CLASS
  1
VISUALSTYLE
  2
AcDbVisualStyle
  3
ObjectDBX Classes
 90
     4095
 91
       24
280
     0
281
     0
  0
CLASS
  1
MATERIAL
  2
AcDbMaterial
  3
ObjectDBX Classes
 90
     1153
 91
        3
280
     0
281
     0
  0
CLASS
  1
TABLESTYLE
  2
AcDbTableStyle
  3
ObjectDBX Classes
 90
     4095
 91
        1
280
     0
281
     0
  0
CLASS
  1
MLEADERSTYLE
  2
AcDbMLeaderStyle
  3
ACDB_MLEADERSTYLE_CLASS
 90
     4095
 91
        1
280
     0
281
     0
  0
CLASS
  1
SUN
  2
AcDbSun
  3
SCENEOE
 90
     1153
 91
        2
280
     0
281
     0
  0
CLASS
  1
RASTERVARIABLES
  2
AcDbRasterVariables
  3
ISM
 90
        0
 91
        1
280
     0
281
     0
  0
CLASS
  1
MULTILEADER
  2
AcDbMLeader
  3
ACDB_MLEADER_CLASS
 90
     1025
 91
        0
280
     0
281
     1
  0
CLASS
  1
CELLSTYLEMAP
  2
AcDbCellStyleMap
  3
ObjectDBX Classes
 90
     1152
 91
        1
280
     0
281
     0
  0
CLASS
  1
ACDBSECTIONVIEWSTYLE
  2
AcDbSectionViewStyle
  3
ObjectDBX Classes
 90
     1025
 91
        1
280
     0
281
     0
  0
CLASS
  1
ACDBDETAILVIEWSTYLE
  2
AcDbDetailViewStyle
  3
ObjectDBX Classes
 90
     1025
 91
        1
280
     0
281
     0
  0
ENDSEC
  0
SECTION
  2
TABLES
  0
TABLE
  2
VPORT
  5
8
330
0
100
AcDbSymbolTable
 70
     1
  0
VPORT
  5
36B7
330
8
100
AcDbSymbolTableRecord
100
AcDbViewportTableRecord
  2
*Active
 70
     0
 10
0.0
 20
0.0
 11
1.0
 21
1.0
 12
132.4766530330097
 22
109.2570793726842
 13
0.0
 23
0.0
 14
10.0
 24
10.0
 15
10.0
 25
10.0
 16
0.0
 26
0.0
 36
1.0
 17
0.0
 27
0.0
 37
0.0
 40
176.9338470272845
 41
1.5
 42
50.0
 43
0.0
 44
0.0
 50
0.0
 51
0.0
 71
    16
 72
   100
 73
     1
 74
     3
 75
     0
 76
     0
 77
     0
 78
     0
281
     0
 65
     1
110
0.0
120
0.0
130
0.0
111
1.0
121
0.0
131
0.0
112
0.0
122
1.0
132
0.0
 79
     0
146
0.0
348
36DF
 60
     3
 61
     5
292
     1
282
     1
141
0.0
142
0.0
361
36FC
  0
ENDTAB
  0
TABLE
  2
LTYPE
  5
5
330
0
100
AcDbSymbolTable
 70
     8
  0
LTYPE
  5
14
330
5
100
AcDbSymbolTableRecord
100
AcDbLinetypeTableRecord
  2
ByBlock
 70
     0
  3

 72
    65
 73
     0
 40
0.0
  0
LTYPE
  5
15
330
5
100
AcDbSymbolTableRecord
100
AcDbLinetypeTableRecord
  2
ByLayer
 70
     0
  3

 72
    65
 73
     0
 40
0.0
  0
LTYPE
  5
16
330
5
100
AcDbSymbolTableRecord
100
AcDbLinetypeTableRecord
  2
Continuous
 70
     0
  3
Solid line
 72
    65
 73
     0
 40
0.0
  0
LTYPE
  5
ABF
330
5
100
AcDbSymbolTableRecord
100
AcDbLinetypeTableRecord
  2
CENTER2
 70
     0
  3
Center (.5x) ___ _ ___ _ ___ _ ___ _ ___ _ ___
 72
    65
 73
     4
 40
28.57499999999999
 49
19.05
 74
     0
 49
-3.174999999999998
 74
     0
 49
3.174999999999998
 74
     0
 49
-3.174999999999998
 74
     0
  0
LTYPE
  5
AC9
330
5
100
AcDbSymbolTableRecord
100
AcDbLinetypeTableRecord
  2
CENTERX2
 70
     0
  3
Center (2x) ________  __  ________  __  _____
 72
    65
 73
     4
 40
101.6
 49
63.5
 74
     0
 49
-12.7
 74
     0
 49
12.7
 74
     0
 49
-12.7
 74
     0
  0
LTYPE
  5
BF3
330
5
100
AcDbSymbolTableRecord
100
AcDbLinetypeTableRecord
  2
HIDDEN2
 70
     0
  3
Hidden (.5x) _ _ _ _ _ _ _ _ _ _ _ _ _ _ _ _ _
 72
    65
 73
     2
 40
4.762499999999998
 49
3.174999999999998
 74
     0
 49
-1.587499999999999
 74
     0
  0
LTYPE
  5
1977
330
5
100
AcDbSymbolTableRecord
100
AcDbLinetypeTableRecord
  2
DASHED2
 70
     0
  3
Dashed (.5x) _ _ _ _ _ _ _ _ _ _ _ _ _ _ _ _ _
 72
    65
 73
     2
 40
9.525
 49
6.349999999999998
 74
     0
 49
-3.174999999999998
 74
     0
  0
LTYPE
  5
24EE
330
5
100
AcDbSymbolTableRecord
100
AcDbLinetypeTableRecord
  2
CENTER
 70
     0
  3
____ _ ____ _ ____ _ ____ _ ____ _ ____ _ ____
 72
    65
 73
     4
 40
2.0
 49
1.25
 74
     0
 49
-0.25
 74
     0
 49
0.25
 74
     0
 49
-0.25
 74
     0
  0
LTYPE
  5
24EF
330
5
100
AcDbSymbolTableRecord
100
AcDbLinetypeTableRecord
  2
HIDDEN
 70
     0
  3
_ _ _ _ _ _ _ _ _ _ _ _ _ _ _ _ _ _ _ _ _ _ _
 72
    65
 73
     2
 40
0.375
 49
0.25
 74
     0
 49
-0.125
 74
     0
  0
ENDTAB
  0
TABLE
  2
LAYER
  5
2
102
{ACAD_XDICTIONARY
360
396B
102
}
330
0
100
AcDbSymbolTable
 70
    16
  0
LAYER
  5
10
330
2
100
AcDbSymbolTableRecord
100
AcDbLayerTableRecord
  2
0
 70
     0
 62
     7
  6
Continuous
370
    -3
390
F
347
36F6
348
0
  0
LAYER
  5
6A
330
2
100
AcDbSymbolTableRecord
100
AcDbLayerTableRecord
  2
外形１
 70
     0
 62
     5
  6
Continuous
370
    30
390
F
347
36F6
348
0
  0
LAYER
  5
6B
330
2
100
AcDbSymbolTableRecord
100
AcDbLayerTableRecord
  2
外形２
 70
     0
 62
     7
  6
Continuous
370
    -3
390
F
347
36F6
348
0
  0
LAYER
  5
960
330
2
100
AcDbSymbolTableRecord
100
AcDbLayerTableRecord
  2
寸法
 70
     0
 62
     6
  6
Continuous
370
    25
390
F
347
36F6
348
0
  0
LAYER
  5
961
330
2
100
AcDbSymbolTableRecord
100
AcDbLayerTableRecord
  2
Defpoints
 70
     0
 62
    -7
  6
Continuous
290
     0
370
    -3
390
F
347
36F6
348
0
  0
LAYER
  5
AC0
330
2
100
AcDbSymbolTableRecord
100
AcDbLayerTableRecord
  2
中心線
 70
     0
 62
     1
  6
CENTER2
370
    18
390
F
347
36F6
348
0
  0
LAYER
  5
AC7
330
2
100
AcDbSymbolTableRecord
100
AcDbLayerTableRecord
  2
隠れ線
 70
     0
 62
     3
  6
HIDDEN
370
    13
390
F
347
36F6
348
0
  0
LAYER
  5
1978
330
2
100
AcDbSymbolTableRecord
100
AcDbLayerTableRecord
  2
細線
 70
     0
 62
     7
  6
DASHED2
370
     5
390
F
347
36F6
348
0
  0
LAYER
  5
1979
330
2
100
AcDbSymbolTableRecord
100
AcDbLayerTableRecord
  2
文字
 70
     0
 62
     7
  6
Continuous
370
    25
390
F
347
36F6
348
0
  0
LAYER
  5
197A
330
2
100
AcDbSymbolTableRecord
100
AcDbLayerTableRecord
  2
GAIKEI
 70
     0
 62
     7
  6
Continuous
370
    -3
390
F
347
36F6
348
0
  0
LAYER
  5
24F0
330
2
100
AcDbSymbolTableRecord
100
AcDbLayerTableRecord
  2
CONTINUOUS
 70
     0
 62
     7
  6
Continuous
370
    40
390
F
347
36F6
348
0
  0
LAYER
  5
24F1
330
2
100
AcDbSymbolTableRecord
100
AcDbLayerTableRecord
  2
CENTER
 70
     0
 62
     1
  6
CENTER
370
    -3
390
F
347
36F6
348
0
  0
LAYER
  5
24F2
330
2
100
AcDbSymbolTableRecord
100
AcDbLayerTableRecord
  2
DOTTED
 70
     0
 62
     6
  6
HIDDEN
370
    -3
390
F
347
36F6
348
0
  0
LAYER
  5
2A6C
330
2
100
AcDbSymbolTableRecord
100
AcDbLayerTableRecord
  2
板金
 70
     0
 62
     1
  6
Continuous
370
    20
390
F
347
36F6
348
0
  0
LAYER
  5
370D
102
{ACAD_XDICTIONARY
360
370E
102
}
330
2
100
AcDbSymbolTableRecord
100
AcDbLayerTableRecord
  2
DIM
 70
     0
 62
     3
  6
Continuous
370
    -3
390
F
347
36F6
348
0
  0
LAYER
  5
5834
102
{ACAD_XDICTIONARY
360
5835
102
}
330
2
100
AcDbSymbolTableRecord
100
AcDbLayerTableRecord
  2
寸法線
 70
     0
 62
     3
  6
Continuous
370
    18
390
F
347
36F6
348
0
  0
ENDTAB
  0
TABLE
  2
STYLE
  5
3
330
0
100
AcDbSymbolTable
 70
     5
  0
STYLE
  5
11
330
3
100
AcDbSymbolTableRecord
100
AcDbTextStyleTableRecord
  2
Standard
 70
     0
 40
0.0
 41
1.0
 50
0.0
 71
     0
 42
2.5
  3
txt
  4

  0
STYLE
  5
6C
330
3
100
AcDbSymbolTableRecord
100
AcDbTextStyleTableRecord
  2
STD
 70
     0
 40
0.0
 41
1.0
 50
0.0
 71
     0
 42
0.0
  3
txt
  4

  0
STYLE
  5
6D
330
3
100
AcDbSymbolTableRecord
100
AcDbTextStyleTableRecord
  2
0615
 70
     0
 40
0.0
 41
1.0
 50
0.0
 71
     0
 42
2.5
  3
simplex.shx
  4
bigfont.shx
  0
STYLE
  5
ABE
330
3
100
AcDbSymbolTableRecord
100
AcDbTextStyleTableRecord
  2

 70
     1
 40
0.0
 41
1.0
 50
0.0
 71
     0
 42
2.5
  3
ltypeshp.shx
  4

  0
STYLE
  5
4A15
330
3
100
AcDbSymbolTableRecord
100
AcDbTextStyleTableRecord
  2
LINEEYE
 70
     0
 40
2.0
 41
0.8
 50
15.0
 71
     0
 42
2.0
  3
simplex.shx
  4
bigfont.shx
  0
ENDTAB
  0
TABLE
  2
VIEW
  5
6
330
0
100
AcDbSymbolTable
 70
     3
  0
ENDTAB
  0
TABLE
  2
UCS
  5
7
330
0
100
AcDbSymbolTable
 70
     0
  0
ENDTAB
  0
TABLE
  2
APPID
  5
9
330
0
100
AcDbSymbolTable
 70
     9
  0
APPID
  5
12
330
9
100
AcDbSymbolTableRecord
100
AcDbRegAppTableRecord
  2
ACAD
 70
     0
  0
APPID
  5
3717
330
9
100
AcDbSymbolTableRecord
100
AcDbRegAppTableRecord
  2
ACAD_NAV_VCDISPLAY
 70
     0
  0
APPID
  5
3718
330
9
100
AcDbSymbolTableRecord
100
AcDbRegAppTableRecord
  2
ACAD_DSTYLE_DIMRADIAL_EXTENSION
 70
     0
  0
APPID
  5
3BF2
330
9
100
AcDbSymbolTableRecord
100
AcDbRegAppTableRecord
  2
ACAD_PSEXT
 70
     0
  0
APPID
  5
3C11
330
9
100
AcDbSymbolTableRecord
100
AcDbRegAppTableRecord
  2
ACAD_DSTYLE_DIMJAG
 70
     0
  0
APPID
  5
3C12
330
9
100
AcDbSymbolTableRecord
100
AcDbRegAppTableRecord
  2
ACAD_DSTYLE_DIMTALN
 70
     0
  0
APPID
  5
3C1F
330
9
100
AcDbSymbolTableRecord
100
AcDbRegAppTableRecord
  2
ACAD_EXEMPT_FROM_CAD_STANDARDS
 70
     0
  0
APPID
  5
3E17
330
9
100
AcDbSymbolTableRecord
100
AcDbRegAppTableRecord
  2
ACAD_DSTYLE_DIMBREAK
 70
     0
  0
APPID
  5
4394
330
9
100
AcDbSymbolTableRecord
100
AcDbRegAppTableRecord
  2
AcadAnnoMonitorAlertIconDisabled
 70
     0
  0
ENDTAB
  0
TABLE
  2
DIMSTYLE
  5
A
330
0
100
AcDbSymbolTable
 70
     5
100
AcDbDimStyleTable
 71
     2
340
6F
340
6E
  0
DIMSTYLE
105
27
102
{ACAD_REACTORS
330
2774
330
2777
330
277A
330
278B
330
2796
330
279A
330
27AC
330
27AF
330
27B2
330
27CE
330
27DC
330
27DF
330
27E4
102
}
330
A
100
AcDbSymbolTableRecord
100
AcDbDimStyleTableRecord
  2
ISO-25
 70
     0
 41
2.5
 42
0.625
 43
3.75
 44
1.25
 73
     0
 74
     0
 77
     1
 78
     8
140
2.5
141
2.5
143
0.03937007874016
147
0.625
171
     3
172
     1
271
     2
272
     2
274
     3
283
     0
284
     8
340
11
  0
DIMSTYLE
105
6E
330
A
100
AcDbSymbolTableRecord
100
AcDbDimStyleTableRecord
  2
Standard
 70
     0
340
11
  0
DIMSTYLE
105
6F
102
{ACAD_REACTORS
330
58A7
330
58A8
330
58AC
330
58B1
330
58B2
330
58BC
330
58CF
330
58D0
330
58D1
330
58D3
330
58D6
330
58D7
330
58DE
330
58DF
330
58E0
330
58E1
330
58E8
330
58EA
102
}
330
A
100
AcDbSymbolTableRecord
100
AcDbDimStyleTableRecord
  2
LINEEYE
 70
     0
 41
2.0
 42
1.0
 43
7.0
 44
1.0
 73
     0
 74
     0
 77
     1
 78
     8
140
2.5
141
0.0
143
0.0394
147
1.0
172
     1
176
   256
177
   256
178
   256
271
     1
272
     1
340
11
371
    -1
372
    -1
1001
ACAD_DSTYLE_DIMBREAK
1070
   391
1040
1.5
1001
ACAD_DSTYLE_DIMJAG
1070
   388
1040
1.5
1001
ACAD_DSTYLE_DIMTALN
1070
   392
1070
     0
  0
DIMSTYLE
105
2A6D
330
A
100
AcDbSymbolTableRecord
100
AcDbDimStyleTableRecord
  2
JIS
 70
     0
 41
2.5
 42
1.0
 43
7.0
 44
1.0
 73
     0
 74
     0
 77
     1
 78
     8
140
2.5
141
0.0
143
0.0394
147
0.0
172
     1
174
     1
175
     1
340
11
  0
DIMSTYLE
105
4A16
330
A
100
AcDbSymbolTableRecord
100
AcDbDimStyleTableRecord
  2
LINEEYE(寸法線の傾きに合わせる)
 70
     0
 41
2.5
 42
0.625
 43
3.75
 44
1.25
 73
     0
 74
     0
 77
     1
 78
     8
140
2.0
141
0.0
143
0.0394
147
1.0
172
     1
176
   256
177
   256
178
   256
271
     2
272
     2
340
6D
345
15
346
15
347
15
371
    -1
372
    -1
1001
ACAD_DSTYLE_DIMBREAK
1070
   391
1040
3.75
1001
ACAD_DSTYLE_DIMJAG
1070
   388
1040
1.5
1001
ACAD_DSTYLE_DIMTALN
1070
   392
1070
     0
  0
ENDTAB
  0
TABLE
  2
BLOCK_RECORD
  5
1
330
0
100
AcDbSymbolTable
 70
    53
  0
BLOCK_RECORD
  5
1F
102
{ACAD_XDICTIONARY
360
F87
102
}
330
1
100
AcDbSymbolTableRecord
100
AcDbBlockTableRecord
  2
*Model_Space
340
22
 70
     0
280
     1
281
     0
  0
BLOCK_RECORD
  5
1B
102
{ACAD_XDICTIONARY
360
3C0A
102
}
330
1
100
AcDbSymbolTableRecord
100
AcDbBlockTableRecord
  2
*Paper_Space
340
1E
 70
     0
280
     1
281
     0
  0
BLOCK_RECORD
  5
2B
330
1
100
AcDbSymbolTableRecord
100
AcDbBlockTableRecord
  2
AI9-BLK1
340
0
 70
     0
280
     1
281
     0
  0
BLOCK_RECORD
  5
2F
330
1
100
AcDbSymbolTableRecord
100
AcDbBlockTableRecord
  2
AI9-BLK2
340
0
 70
     0
280
     1
281
     0
  0
BLOCK_RECORD
  5
34
330
1
100
AcDbSymbolTableRecord
100
AcDbBlockTableRecord
  2
AI9-BLK3
340
0
102
{BLKREFS
331
30
102
}
 70
     0
280
     1
281
     0
  0
BLOCK_RECORD
  5
3E
330
1
100
AcDbSymbolTableRecord
100
AcDbBlockTableRecord
  2
AI9-BLK4
340
0
102
{BLKREFS
331
3A
102
}
 70
     0
280
     1
281
     0
  0
BLOCK_RECORD
  5
42
330
1
100
AcDbSymbolTableRecord
100
AcDbBlockTableRecord
  2
AI9-BLK5
340
0
 70
     0
280
     1
281
     0
  0
BLOCK_RECORD
  5
26CF
330
1
100
AcDbSymbolTableRecord
100
AcDbBlockTableRecord
  2
*D5
340
0
 70
     0
280
     1
281
     0
  0
BLOCK_RECORD
  5
26DB
330
1
100
AcDbSymbolTableRecord
100
AcDbBlockTableRecord
  2
*D6
340
0
 70
     0
280
     1
281
     0
  0
BLOCK_RECORD
  5
26E7
330
1
100
AcDbSymbolTableRecord
100
AcDbBlockTableRecord
  2
*D7
340
0
 70
     0
280
     1
281
     0
  0
BLOCK_RECORD
  5
26F3
330
1
100
AcDbSymbolTableRecord
100
AcDbBlockTableRecord
  2
*D8
340
0
 70
     0
280
     1
281
     0
  0
BLOCK_RECORD
  5
26FF
330
1
100
AcDbSymbolTableRecord
100
AcDbBlockTableRecord
  2
*D9
340
0
 70
     0
280
     1
281
     0
  0
BLOCK_RECORD
  5
270D
330
1
100
AcDbSymbolTableRecord
100
AcDbBlockTableRecord
  2
*D10
340
0
 70
     0
280
     1
281
     0
  0
BLOCK_RECORD
  5
2719
330
1
100
AcDbSymbolTableRecord
100
AcDbBlockTableRecord
  2
*D11
340
0
 70
     0
280
     1
281
     0
  0
BLOCK_RECORD
  5
2725
330
1
100
AcDbSymbolTableRecord
100
AcDbBlockTableRecord
  2
*D12
340
0
 70
     0
280
     1
281
     0
  0
BLOCK_RECORD
  5
2733
330
1
100
AcDbSymbolTableRecord
100
AcDbBlockTableRecord
  2
*D13
340
0
 70
     0
280
     1
281
     0
  0
BLOCK_RECORD
  5
273F
330
1
100
AcDbSymbolTableRecord
100
AcDbBlockTableRecord
  2
*D14
340
0
 70
     0
280
     1
281
     0
  0
BLOCK_RECORD
  5
274B
330
1
100
AcDbSymbolTableRecord
100
AcDbBlockTableRecord
  2
*D15
340
0
 70
     0
280
     1
281
     0
  0
BLOCK_RECORD
  5
2759
330
1
100
AcDbSymbolTableRecord
100
AcDbBlockTableRecord
  2
*D16
340
0
 70
     0
280
     1
281
     0
  0
BLOCK_RECORD
  5
2764
330
1
100
AcDbSymbolTableRecord
100
AcDbBlockTableRecord
  2
*D17
340
0
 70
     0
280
     1
281
     0
  0
BLOCK_RECORD
  5
2772
330
1
100
AcDbSymbolTableRecord
100
AcDbBlockTableRecord
  2
A$C27BD67DC
340
0
 70
     0
280
     1
281
     0
  0
BLOCK_RECORD
  5
5727
330
1
100
AcDbSymbolTableRecord
100
AcDbBlockTableRecord
  2
_Open30
340
0
310
2800000020000000200000000100080000000000000400000000000000000000000000000000000000000000000080000080000000808000800000008000800080800000C0C0C000C0DCC000F0CAA6000020400000206000002080000020A0000020C0000020E00000400000004020000040400000406000004080000040A0
310
000040C0000040E00000600000006020000060400000606000006080000060A0000060C0000060E00000800000008020000080400000806000008080000080A0000080C0000080E00000A0000000A0200000A0400000A0600000A0800000A0A00000A0C00000A0E00000C0000000C0200000C0400000C0600000C0800000C0
310
A00000C0C00000C0E00000E0000000E0200000E0400000E0600000E0800000E0A00000E0C00000E0E00040000000400020004000400040006000400080004000A0004000C0004000E00040200000402020004020400040206000402080004020A0004020C0004020E000404000004040200040404000404060004040800040
310
40A0004040C0004040E00040600000406020004060400040606000406080004060A0004060C0004060E00040800000408020004080400040806000408080004080A0004080C0004080E00040A0000040A0200040A0400040A0600040A0800040A0A00040A0C00040A0E00040C0000040C0200040C0400040C0600040C08000
310
40C0A00040C0C00040C0E00040E0000040E0200040E0400040E0600040E0800040E0A00040E0C00040E0E00080000000800020008000400080006000800080008000A0008000C0008000E00080200000802020008020400080206000802080008020A0008020C0008020E00080400000804020008040400080406000804080
310
008040A0008040C0008040E00080600000806020008060400080606000806080008060A0008060C0008060E00080800000808020008080400080806000808080008080A0008080C0008080E00080A0000080A0200080A0400080A0600080A0800080A0A00080A0C00080A0E00080C0000080C0200080C0400080C0600080C0
310
800080C0A00080C0C00080C0E00080E0000080E0200080E0400080E0600080E0800080E0A00080E0C00080E0E000C0000000C0002000C0004000C0006000C0008000C000A000C000C000C000E000C0200000C0202000C0204000C0206000C0208000C020A000C020C000C020E000C0400000C0402000C0404000C0406000C0
310
408000C040A000C040C000C040E000C0600000C0602000C0604000C0606000C0608000C060A000C060C000C060E000C0800000C0802000C0804000C0806000C0808000C080A000C080C000C080E000C0A00000C0A02000C0A04000C0A06000C0A08000C0A0A000C0A0C000C0A0E000C0C00000C0C02000C0C04000C0C06000
310
C0C08000C0C0A000F0FBFF00A4A0A000808080000000FF0000FF000000FFFF00FF000000FF00FF00FFFF0000FFFFFF00FFFFFFFFFFFFFFFFFFFFFFFFFFFFFFFFFFFFFFFFFFFFFFFFFFFFFFFFFFFFFFFFFFFFFFFFFFFFFFFFFFFFFFFFFFFFFFFFFFFFFFFFFFFFFFFFFFFFFFFFFFFFFFFFFFFFFFFFFFFFFFFFFFFFFFFFFFFFFF
310
FFFFFFFFFFFFFFFFFFFFFFFFFFFFFFFFFFFFFFFFFFFFFFFFFFFFFFFFFFFFFFFFFFFFFFFFFFFFFFFFFFFFFFFFFFFFFFFFFFFFFFFFFFFFFFFFFFFFFFFFFFFFFFFFFFFFFFFFFFFFFFFFFFFFFFFFFFFFFFFFFFFFFFFFFFFFFFFFFFFFFFFFFFFFFFFFFFFFFFFFFFFFFFFFFFFFFFFFFFFFFFFFFFFFFFFFFFFFFFFFFFFFFFFFFFFFFF
310
FFFFFFFFFFFFFFFFFFFFFFFFFFFFFFFFFFFFFFFFFFFFFFFFFFFFFFFFFFFFFFFFFFFFFFFFFFFFFFFFFFFFFFFFFFFFFFFFFFFFFF0000FFFFFFFFFFFFFFFFFFFFFFFFFFFFFFFFFFFFFFFFFFFFFFFFFFFFFFFFFFFFFFFF00000000FFFFFFFFFFFFFFFFFFFFFFFFFFFFFFFFFFFFFFFFFFFFFFFFFFFFFFFFFFFFFFFF00000000FFFF
310
FFFFFFFFFFFFFFFFFFFFFFFFFFFFFFFFFFFFFFFFFFFFFFFFFFFFFFFFFFFF000000FFFFFFFFFFFFFFFFFFFFFFFFFFFFFFFFFFFFFFFFFFFFFFFFFFFFFFFFFFFFFFFF00000000FFFFFFFFFFFFFFFFFFFFFFFFFFFFFFFFFFFFFFFFFFFFFFFFFFFFFFFFFFFFFFFF000000FFFFFFFFFFFFFFFFFFFFFFFFFFFFFFFFFFFFFFFFFFFFFF
310
FFFFFFFFFFFFFFFFFF00000000FFFFFFFFFFFFFFFFFFFFFFFFFFFFFFFFFFFFFFFFFFFFFFFFFFFFFFFFFFFFFFFF00000000FFFFFFFF000000000000000000000000000000000000000000000000000000000000FFFFFFFFFFFFFFFFFFFFFFFFFFFFFFFFFFFFFFFFFFFFFFFFFF00000000FFFFFFFFFFFFFFFFFFFFFFFFFFFFFF
310
FFFFFFFFFFFFFFFFFF00000000FFFFFFFFFFFFFFFFFFFFFFFFFFFFFFFFFFFFFFFFFFFFFFFF00000000FFFFFFFFFFFFFFFFFFFFFFFFFFFFFFFFFFFFFFFFFFFFFFFF00000000FFFFFFFFFFFFFFFFFFFFFFFFFFFFFFFFFFFFFFFFFFFFFFFF00000000FFFFFFFFFFFFFFFFFFFFFFFFFFFFFFFFFFFFFFFFFFFFFFFF00000000FFFF
310
FFFFFFFFFFFFFFFFFFFFFFFFFFFFFFFFFFFFFFFFFFFFFF000000FFFFFFFFFFFFFFFFFFFFFFFFFFFFFFFFFFFFFFFFFFFFFFFFFFFFFFFFFFFFFFFFFFFFFFFFFFFFFFFFFFFFFFFFFFFFFFFFFFFFFFFFFFFFFFFFFFFFFFFFFFFFFFFFFFFFFFFFFFFFFFFFFFFFFFFFFFFFFFFFFFFFFFFFFFFFFFFFFFFFFFFFFFFFFFFFFFFFFFFFFF
310
FFFFFFFFFFFFFFFFFFFFFFFFFFFFFFFFFFFFFFFFFFFFFFFFFFFFFFFFFFFFFFFFFFFFFFFFFFFFFFFFFFFFFFFFFFFFFFFFFFFFFFFFFFFFFFFFFFFFFFFFFFFFFFFFFFFFFFFFFFFFFFFFFFFFFFFFFFFFFFFFFFFFFFFFFFFFFFFFFFFFFFFFFFFFFFFFFFFFFFFFFFFFFFFFFFFFFFFFFFFFFFFFFFFFFFFFFFFFFFFFFFFFFFFFFFFFFF
310
FFFFFFFFFFFFFFFFFFFFFFFFFFFFFFFFFFFFFFFFFFFFFFFFFFFFFFFFFFFFFFFFFFFFFFFFFFFFFFFFFFFFFFFFFFFFFFFFFFFFFFFFFFFFFFFF
 70
     0
280
     1
281
     0
  0
BLOCK_RECORD
  5
58EE
330
1
100
AcDbSymbolTableRecord
100
AcDbBlockTableRecord
  2
*D20
340
0
 70
     0
280
     1
281
     0
  0
BLOCK_RECORD
  5
58FA
330
1
100
AcDbSymbolTableRecord
100
AcDbBlockTableRecord
  2
*D21
340
0
 70
     0
280
     1
281
     0
  0
BLOCK_RECORD
  5
5906
330
1
100
AcDbSymbolTableRecord
100
AcDbBlockTableRecord
  2
*D22
340
0
 70
     0
280
     1
281
     0
  0
BLOCK_RECORD
  5
5912
330
1
100
AcDbSymbolTableRecord
100
AcDbBlockTableRecord
  2
*D23
340
0
 70
     0
280
     1
281
     0
  0
BLOCK_RECORD
  5
5920
330
1
100
AcDbSymbolTableRecord
100
AcDbBlockTableRecord
  2
*D24
340
0
 70
     0
280
     1
281
     0
  0
BLOCK_RECORD
  5
592C
330
1
100
AcDbSymbolTableRecord
100
AcDbBlockTableRecord
  2
*D25
340
0
 70
     0
280
     1
281
     0
  0
BLOCK_RECORD
  5
5937
330
1
100
AcDbSymbolTableRecord
100
AcDbBlockTableRecord
  2
*D26
340
0
 70
     0
280
     1
281
     0
  0
BLOCK_RECORD
  5
5945
330
1
100
AcDbSymbolTableRecord
100
AcDbBlockTableRecord
  2
*D27
340
0
 70
     0
280
     1
281
     0
  0
BLOCK_RECORD
  5
5951
330
1
100
AcDbSymbolTableRecord
100
AcDbBlockTableRecord
  2
*D28
340
0
 70
     0
280
     1
281
     0
  0
BLOCK_RECORD
  5
595F
330
1
100
AcDbSymbolTableRecord
100
AcDbBlockTableRecord
  2
*D29
340
0
 70
     0
280
     1
281
     0
  0
BLOCK_RECORD
  5
596B
330
1
100
AcDbSymbolTableRecord
100
AcDbBlockTableRecord
  2
*D30
340
0
 70
     0
280
     1
281
     0
  0
BLOCK_RECORD
  5
5977
330
1
100
AcDbSymbolTableRecord
100
AcDbBlockTableRecord
  2
*D31
340
0
 70
     0
280
     1
281
     0
  0
BLOCK_RECORD
  5
5983
330
1
100
AcDbSymbolTableRecord
100
AcDbBlockTableRecord
  2
*D32
340
0
 70
     0
280
     1
281
     0
  0
BLOCK_RECORD
  5
598F
330
1
100
AcDbSymbolTableRecord
100
AcDbBlockTableRecord
  2
*D33
340
0
 70
     0
280
     1
281
     0
  0
BLOCK_RECORD
  5
599B
330
1
100
AcDbSymbolTableRecord
100
AcDbBlockTableRecord
  2
*D34
340
0
 70
     0
280
     1
281
     0
  0
BLOCK_RECORD
  5
59A9
330
1
100
AcDbSymbolTableRecord
100
AcDbBlockTableRecord
  2
*D35
340
0
 70
     0
280
     1
281
     0
  0
BLOCK_RECORD
  5
59B5
330
1
100
AcDbSymbolTableRecord
100
AcDbBlockTableRecord
  2
*D36
340
0
 70
     0
280
     1
281
     0
  0
BLOCK_RECORD
  5
59C1
330
1
100
AcDbSymbolTableRecord
100
AcDbBlockTableRecord
  2
*D37
340
0
 70
     0
280
     1
281
     0
  0
BLOCK_RECORD
  5
59CD
330
1
100
AcDbSymbolTableRecord
100
AcDbBlockTableRecord
  2
*D38
340
0
 70
     0
280
     1
281
     0
  0
BLOCK_RECORD
  5
59D9
330
1
100
AcDbSymbolTableRecord
100
AcDbBlockTableRecord
  2
*D39
340
0
 70
     0
280
     1
281
     0
  0
BLOCK_RECORD
  5
59E7
330
1
100
AcDbSymbolTableRecord
100
AcDbBlockTableRecord
  2
*D40
340
0
 70
     0
280
     1
281
     0
  0
ENDTAB
  0
ENDSEC
  0
SECTION
  2
BLOCKS
  0
BLOCK
  5
20
330
1F
100
AcDbEntity
  8
0
100
AcDbBlockBegin
  2
*Model_Space
 70
     0
 10
0.0
 20
0.0
 30
0.0
  3
*Model_Space
  1
*Model_Space
  0
ENDBLK
  5
21
330
1F
100
AcDbEntity
  8
0
100
AcDbBlockEnd
  0
BLOCK
  5
1C
330
1B
100
AcDbEntity
 67
     1
  8
0
100
AcDbBlockBegin
  2
*Paper_Space
 70
     0
 10
0.0
 20
0.0
 30
0.0
  3
*Paper_Space
  1
*Paper_Space
  0
ENDBLK
  5
1D
330
1B
100
AcDbEntity
 67
     1
  8
0
100
AcDbBlockEnd
  0
BLOCK
  5
2D
330
2B
100
AcDbEntity
  8
外形１
 62
     7
100
AcDbBlockBegin
  2
AI9-BLK1
 70
     0
 10
0.0
 20
0.0
 30
0.0
  3
AI9-BLK1
  1
AI9-BLK1
  0
HATCH
  5
2C
330
2B
100
AcDbEntity
  8
外形１
 62
     7
100
AcDbHatch
 10
0.0
 20
0.0
 30
0.0
210
0.0
220
0.0
230
1.0
  2
SOLID
 70
     1
 71
     0
 91
        1
 92
        1
 93
        1
 72
     4
 94
        3
 73
     0
 74
     0
 95
       17
 96
       13
 40
0.0
 40
0.0
 40
0.0
 40
0.0
 40
1.0
 40
1.0
 40
1.0
 40
2.0
 40
2.0
 40
2.0
 40
3.0
 40
3.0
 40
3.0
 40
4.0
 40
4.0
 40
4.0
 40
4.0
 10
-0.4265028211805557
 20
-0.2425347222222222
 10
-0.4265028211805557
 20
-0.2425347222222222
 10
-0.4265028211805557
 20
0.2425347222222222
 10
-0.4265028211805557
 20
0.2425347222222222
 10
-0.4265028211805557
 20
0.2425347222222222
 10
0.4265028211805557
 20
0.2425347222222222
 10
0.4265028211805557
 20
0.2425347222222222
 10
0.4265028211805557
 20
0.2425347222222222
 10
0.4265028211805557
 20
-0.2425347222222222
 10
0.4265028211805557
 20
-0.2425347222222222
 10
0.4265028211805557
 20
-0.2425347222222222
 10
-0.4265028211805557
 20
-0.2425347222222222
 10
-0.4265028211805557
 20
-0.2425347222222222
 97
        0
 97
        0
 75
     0
 76
     1
 98
        1
 10
0.0
 20
0.0
450
        0
451
        0
460
0.0
461
0.0
452
        0
462
0.0
453
        0
470

  0
ENDBLK
  5
2E
330
2B
100
AcDbEntity
  8
外形１
100
AcDbBlockEnd
  0
BLOCK
  5
32
330
2F
100
AcDbEntity
  8
外形１
 62
     7
100
AcDbBlockBegin
  2
AI9-BLK2
 70
     0
 10
0.0
 20
0.0
 30
0.0
  3
AI9-BLK2
  1
AI9-BLK2
  0
INSERT
  5
30
330
2F
100
AcDbEntity
  8
外形１
 62
     7
100
AcDbBlockReference
  2
AI9-BLK3
 10
0.0
 20
0.0
 30
0.0
  0
HATCH
  5
31
330
2F
100
AcDbEntity
  8
外形１
 62
     7
100
AcDbHatch
 10
0.0
 20
0.0
 30
0.0
210
0.0
220
0.0
230
1.0
  2
SOLID
 70
     1
 71
     0
 91
        1
 92
        1
 93
        1
 72
     4
 94
        3
 73
     0
 74
     0
 95
       32
 96
       28
 40
0.0
 40
0.0
 40
0.0
 40
0.0
 40
1.0
 40
1.0
 40
1.0
 40
2.0
 40
2.0
 40
2.0
 40
3.0
 40
3.0
 40
3.0
 40
4.0
 40
4.0
 40
4.0
 40
5.0
 40
5.0
 40
5.0
 40
6.0
 40
6.0
 40
6.0
 40
7.0
 40
7.0
 40
7.0
 40
8.0
 40
8.0
 40
8.0
 40
9.0
 40
9.0
 40
9.0
 40
9.0
 10
5.68897230360243
 20
2.320444064670137
 10
5.684838189019097
 20
2.327678765190971
 10
5.677258978949653
 20
2.331468370225693
 10
5.669679768880207
 20
2.331468370225693
 10
5.669679768880207
 20
2.331468370225693
 10
4.733302815755208
 20
2.331468370225693
 10
4.733302815755208
 20
2.331468370225693
 10
4.72503458658854
 20
2.331468370225693
 10
4.717455376519096
 20
2.327678765190971
 10
4.713321261935762
 20
2.320444064670137
 10
4.708498128255206
 20
2.313553873697915
 10
4.708498128255206
 20
2.305285644531249
 10
4.711943223741318
 20
2.297361924913194
 10
4.806338840060762
 20
2.086866590711804
 10
5.058519829644096
 20
1.55838894314236
 10
5.177031114366318
 20
1.323433430989582
 10
5.180476209852429
 20
1.315165201822916
 10
5.189433458116318
 20
1.309653049045137
 10
5.197701687282985
 20
1.309653049045137
 10
5.206658935546873
 20
1.309653049045137
 10
5.21492716471354
 20
1.315165201822916
 10
5.219061279296873
 20
1.323433430989582
 10
5.337572564019096
 20
1.55563286675347
 10
5.59319864908854
 20
2.084110514322916
 10
5.690350341796873
 20
2.297706434461805
 10
5.693795437282985
 20
2.305630154079859
 10
5.693106418185761
 20
2.313553873697915
 10
5.68897230360243
 20
2.320444064670137
 97
        0
 97
        0
 75
     0
 76
     1
 98
        1
 10
0.0
 20
0.0
450
        0
451
        0
460
0.0
461
0.0
452
        0
462
0.0
453
        0
470

  0
ENDBLK
  5
33
330
2F
100
AcDbEntity
  8
外形１
100
AcDbBlockEnd
  0
BLOCK
  5
3C
330
34
100
AcDbEntity
  8
外形１
 62
     7
100
AcDbBlockBegin
  2
AI9-BLK3
 70
     0
 10
0.0
 20
0.0
 30
0.0
  3
AI9-BLK3
  1
AI9-BLK3
  0
HATCH
  5
35
330
34
100
AcDbEntity
  8
外形１
 62
     7
100
AcDbHatch
 10
0.0
 20
0.0
 30
0.0
210
0.0
220
0.0
230
1.0
  2
SOLID
 70
     1
 71
     0
 91
        1
 92
        1
 93
        1
 72
     4
 94
        3
 73
     0
 74
     0
 95
       47
 96
       43
 40
0.0
 40
0.0
 40
0.0
 40
0.0
 40
1.0
 40
1.0
 40
1.0
 40
2.0
 40
2.0
 40
2.0
 40
3.0
 40
3.0
 40
3.0
 40
4.0
 40
4.0
 40
4.0
 40
5.0
 40
5.0
 40
5.0
 40
6.0
 40
6.0
 40
6.0
 40
7.0
 40
7.0
 40
7.0
 40
8.0
 40
8.0
 40
8.0
 40
9.0
 40
9.0
 40
9.0
 40
10.0
 40
10.0
 40
10.0
 40
11.0
 40
11.0
 40
11.0
 40
12.0
 40
12.0
 40
12.0
 40
13.0
 40
13.0
 40
13.0
 40
14.0
 40
14.0
 40
14.0
 40
14.0
 10
-6.96675821940104
 20
-1.544264051649304
 10
-6.96675821940104
 20
-1.544264051649304
 10
-7.655432807074652
 20
-1.544264051649304
 10
-7.655432807074652
 20
-1.544264051649304
 10
-7.877985975477429
 20
-1.544264051649304
 10
-8.029225667317707
 20
-1.504989963107638
 10
-8.143602837456597
 20
-1.305174424913194
 10
-8.226974148220485
 20
-1.162547471788194
 10
-8.232830810546875
 20
-0.9413723415798608
 10
-8.232830810546875
 20
-0.5941067165798609
 10
-8.232830810546875
 20
-0.5941067165798609
 10
-8.232830810546875
 20
1.80643581814236
 10
-8.232830810546875
 20
1.80643581814236
 10
-8.232830810546875
 20
1.838130696614583
 10
-8.258324517144096
 20
1.863624403211805
 10
-8.289674886067709
 20
1.863624403211805
 10
-8.289674886067709
 20
1.863624403211805
 10
-8.873618570963538
 20
1.863624403211805
 10
-8.873618570963538
 20
1.863624403211805
 10
-8.905313449435762
 20
1.863624403211805
 10
-8.930807156032983
 20
1.838130696614583
 10
-8.930807156032983
 20
1.80643581814236
 10
-8.930807156032983
 20
1.80643581814236
 10
-8.930807156032983
 20
-0.6223564995659722
 10
-8.930807156032983
 20
-0.6223564995659722
 10
-8.930807156032983
 20
-1.177705891927083
 10
-8.889466010199649
 20
-1.542196994357638
 10
-8.670357937282984
 20
-1.882572428385415
 10
-8.401295979817707
 20
-2.30218505859375
 10
-8.100539143880208
 20
-2.334568956163193
 10
-7.705731201171873
 20
-2.334568956163193
 10
-7.705731201171873
 20
-2.334568956163193
 10
-6.96675821940104
 20
-2.334568956163193
 10
-6.96675821940104
 20
-2.334568956163193
 10
-6.935407850477429
 20
-2.334568956163193
 10
-6.909914143880207
 20
-2.30907524956597
 10
-6.909914143880207
 20
-2.27806939019097
 10
-6.909914143880207
 20
-2.27806939019097
 10
-6.909914143880207
 20
-1.601108127170137
 10
-6.909914143880207
 20
-1.601108127170137
 10
-6.909914143880207
 20
-1.569757758246526
 10
-6.935407850477429
 20
-1.544264051649304
 10
-6.96675821940104
 20
-1.544264051649304
 97
        0
 97
        0
 75
     0
 76
     1
 98
        1
 10
0.0
 20
0.0
450
        0
451
        0
460
0.0
461
0.0
452
        0
462
0.0
453
        0
470

  0
HATCH
  5
36
330
34
100
AcDbEntity
  8
外形１
 62
     7
100
AcDbHatch
 10
0.0
 20
0.0
 30
0.0
210
0.0
220
0.0
230
1.0
  2
SOLID
 70
     1
 71
     0
 91
        1
 92
        1
 93
        1
 72
     4
 94
        3
 73
     0
 74
     0
 95
       29
 96
       25
 40
0.0
 40
0.0
 40
0.0
 40
0.0
 40
1.0
 40
1.0
 40
1.0
 40
2.0
 40
2.0
 40
2.0
 40
3.0
 40
3.0
 40
3.0
 40
4.0
 40
4.0
 40
4.0
 40
5.0
 40
5.0
 40
5.0
 40
6.0
 40
6.0
 40
6.0
 40
7.0
 40
7.0
 40
7.0
 40
8.0
 40
8.0
 40
8.0
 40
8.0
 10
-5.704130723741317
 20
1.863624403211805
 10
-5.704130723741317
 20
1.863624403211805
 10
-6.315979682074653
 20
1.863624403211805
 10
-6.315979682074653
 20
1.863624403211805
 10
-6.346985541449653
 20
1.863624403211805
 10
-6.372479248046873
 20
1.838130696614583
 10
-6.372479248046873
 20
1.80643581814236
 10
-6.372479248046873
 20
1.80643581814236
 10
-6.372479248046873
 20
-2.27806939019097
 10
-6.372479248046873
 20
-2.27806939019097
 10
-6.372479248046873
 20
-2.30907524956597
 10
-6.346985541449653
 20
-2.334568956163193
 10
-6.315979682074653
 20
-2.334568956163193
 10
-6.315979682074653
 20
-2.334568956163193
 10
-5.704130723741317
 20
-2.334568956163193
 10
-5.704130723741317
 20
-2.334568956163193
 10
-5.672780354817707
 20
-2.334568956163193
 10
-5.647631157769096
 20
-2.30907524956597
 10
-5.647631157769096
 20
-2.27806939019097
 10
-5.647631157769096
 20
-2.27806939019097
 10
-5.647631157769096
 20
1.80643581814236
 10
-5.647631157769096
 20
1.80643581814236
 10
-5.647631157769096
 20
1.838130696614583
 10
-5.672780354817707
 20
1.863624403211805
 10
-5.704130723741317
 20
1.863624403211805
 97
        0
 97
        0
 75
     0
 76
     1
 98
        1
 10
0.0
 20
0.0
450
        0
451
        0
460
0.0
461
0.0
452
        0
462
0.0
453
        0
470

  0
HATCH
  5
37
330
34
100
AcDbEntity
  8
外形１
 62
     7
100
AcDbHatch
 10
0.0
 20
0.0
 30
0.0
210
0.0
220
0.0
230
1.0
  2
SOLID
 70
     1
 71
     0
 91
        1
 92
        1
 93
        1
 72
     4
 94
        3
 73
     0
 74
     0
 95
       65
 96
       61
 40
0.0
 40
0.0
 40
0.0
 40
0.0
 40
1.0
 40
1.0
 40
1.0
 40
2.0
 40
2.0
 40
2.0
 40
3.0
 40
3.0
 40
3.0
 40
4.0
 40
4.0
 40
4.0
 40
5.0
 40
5.0
 40
5.0
 40
6.0
 40
6.0
 40
6.0
 40
7.0
 40
7.0
 40
7.0
 40
8.0
 40
8.0
 40
8.0
 40
9.0
 40
9.0
 40
9.0
 40
10.0
 40
10.0
 40
10.0
 40
11.0
 40
11.0
 40
11.0
 40
12.0
 40
12.0
 40
12.0
 40
13.0
 40
13.0
 40
13.0
 40
14.0
 40
14.0
 40
14.0
 40
15.0
 40
15.0
 40
15.0
 40
16.0
 40
16.0
 40
16.0
 40
17.0
 40
17.0
 40
17.0
 40
18.0
 40
18.0
 40
18.0
 40
19.0
 40
19.0
 40
19.0
 40
20.0
 40
20.0
 40
20.0
 40
20.0
 10
-2.609056939019095
 20
1.863624403211805
 10
-2.609056939019095
 20
1.863624403211805
 10
-3.205058458116318
 20
1.863624403211805
 10
-3.205058458116318
 20
1.863624403211805
 10
-3.220216878255206
 20
1.863624403211805
 10
-3.234686279296874
 20
1.858112250434026
 10
-3.245366075303818
 20
1.84674343532986
 10
-3.256045871310763
 20
1.836063639322915
 10
-3.261558024088541
 20
1.821594238281249
 10
-3.261558024088541
 20
1.80643581814236
 10
-3.261558024088541
 20
1.80643581814236
 10
-3.242265489366318
 20
-0.3181545681423611
 10
-3.237786865234373
 20
-0.81700439453125
 10
-3.420721435546874
 20
-0.3443372938368055
 10
-4.262013753255208
 20
1.827106391059026
 10
-4.262013753255208
 20
1.827106391059026
 10
-4.270281982421873
 20
1.849155002170137
 10
-4.291986083984374
 20
1.863624403211805
 10
-4.315068223741318
 20
1.863624403211805
 10
-4.315068223741318
 20
1.863624403211805
 10
-5.054385715060762
 20
1.863624403211805
 10
-5.054385715060762
 20
1.863624403211805
 10
-5.085391574435762
 20
1.863624403211805
 10
-5.110885281032985
 20
1.838130696614583
 10
-5.110885281032985
 20
1.80643581814236
 10
-5.110885281032985
 20
1.80643581814236
 10
-5.110885281032985
 20
-2.27806939019097
 10
-5.110885281032985
 20
-2.27806939019097
 10
-5.110885281032985
 20
-2.30907524956597
 10
-5.085391574435762
 20
-2.334568956163193
 10
-5.054385715060762
 20
-2.334568956163193
 10
-5.054385715060762
 20
-2.334568956163193
 10
-4.454250081380208
 20
-2.334568956163193
 10
-4.454250081380208
 20
-2.334568956163193
 10
-4.439091661241318
 20
-2.334568956163193
 10
-4.424622260199652
 20
-2.328367784288194
 10
-4.414286973741318
 20
-2.318032497829859
 10
-4.403262668185762
 20
-2.307697211371526
 10
-4.397750515407985
 20
-2.29322781032986
 10
-4.397750515407985
 20
-2.27806939019097
 10
-4.397750515407985
 20
-2.27806939019097
 10
-4.41738755967882
 20
-0.0049953884548611
 10
-4.421866183810762
 20
0.4993665907118057
 10
-4.236520046657984
 20
0.0211873372395833
 10
-3.339072672526041
 20
-2.298739963107637
 10
-3.339072672526041
 20
-2.298739963107637
 10
-3.330459933810764
 20
-2.320788574218749
 10
-3.309444851345484
 20
-2.334568956163193
 10
-3.28636271158854
 20
-2.334568956163193
 10
-3.28636271158854
 20
-2.334568956163193
 10
-2.609056939019095
 20
-2.334568956163193
 10
-2.609056939019095
 20
-2.334568956163193
 10
-2.578051079644095
 20
-2.334568956163193
 10
-2.552557373046874
 20
-2.30907524956597
 10
-2.552557373046874
 20
-2.27806939019097
 10
-2.552557373046874
 20
-2.27806939019097
 10
-2.552557373046874
 20
1.80643581814236
 10
-2.552557373046874
 20
1.80643581814236
 10
-2.552557373046874
 20
1.838130696614583
 10
-2.578051079644095
 20
1.863624403211805
 10
-2.609056939019095
 20
1.863624403211805
 97
        0
 97
        0
 75
     0
 76
     1
 98
        1
 10
0.0
 20
0.0
450
        0
451
        0
460
0.0
461
0.0
452
        0
462
0.0
453
        0
470

  0
HATCH
  5
38
330
34
100
AcDbEntity
  8
外形１
 62
     7
100
AcDbHatch
 10
0.0
 20
0.0
 30
0.0
210
0.0
220
0.0
230
1.0
  2
SOLID
 70
     1
 71
     0
 91
        1
 92
        1
 93
        1
 72
     4
 94
        3
 73
     0
 74
     0
 95
       65
 96
       61
 40
0.0
 40
0.0
 40
0.0
 40
0.0
 40
1.0
 40
1.0
 40
1.0
 40
2.0
 40
2.0
 40
2.0
 40
3.0
 40
3.0
 40
3.0
 40
4.0
 40
4.0
 40
4.0
 40
5.0
 40
5.0
 40
5.0
 40
6.0
 40
6.0
 40
6.0
 40
7.0
 40
7.0
 40
7.0
 40
8.0
 40
8.0
 40
8.0
 40
9.0
 40
9.0
 40
9.0
 40
10.0
 40
10.0
 40
10.0
 40
11.0
 40
11.0
 40
11.0
 40
12.0
 40
12.0
 40
12.0
 40
13.0
 40
13.0
 40
13.0
 40
14.0
 40
14.0
 40
14.0
 40
15.0
 40
15.0
 40
15.0
 40
16.0
 40
16.0
 40
16.0
 40
17.0
 40
17.0
 40
17.0
 40
18.0
 40
18.0
 40
18.0
 40
19.0
 40
19.0
 40
19.0
 40
20.0
 40
20.0
 40
20.0
 40
20.0
 10
0.1876715766059028
 20
1.863624403211805
 10
0.1876715766059028
 20
1.863624403211805
 10
-0.7831563313802084
 20
1.863624403211805
 10
-0.7831563313802084
 20
1.863624403211805
 10
-1.714021131727429
 20
1.863624403211805
 10
-2.147758653428819
 20
1.173227267795137
 10
-2.147758653428819
 20
-0.3088528103298611
 10
-2.147758653428819
 20
-1.07159695095486
 10
-2.004098171657985
 20
-1.609720865885416
 10
-1.708853488498263
 20
-1.956297471788194
 10
-1.410852728949651
 20
-2.306319173177083
 10
-1.120775689019096
 20
-2.334568956163193
 10
-0.7986592610677084
 20
-2.334568956163193
 10
-0.7986592610677084
 20
-2.334568956163193
 10
0.1876715766059028
 20
-2.334568956163193
 10
0.1876715766059028
 20
-2.334568956163193
 10
0.2186774359809028
 20
-2.334568956163193
 10
0.2448601616753472
 20
-2.30907524956597
 10
0.2448601616753472
 20
-2.27806939019097
 10
0.2448601616753472
 20
-2.27806939019097
 10
0.2448601616753472
 20
-1.567001681857638
 10
0.2448601616753472
 20
-1.567001681857638
 10
0.2448601616753472
 20
-1.535306803385416
 10
0.2186774359809028
 20
-1.509813096788194
 10
0.1876715766059028
 20
-1.509813096788194
 10
0.1876715766059028
 20
-1.509813096788194
 10
-0.7721320258246527
 20
-1.509813096788194
 10
-0.7721320258246527
 20
-1.509813096788194
 10
-1.132489013671873
 20
-1.509813096788194
 10
-1.357798258463541
 20
-1.355472819010415
 10
-1.373645697699652
 20
-0.6223564995659722
 10
-1.263402642144096
 20
-0.6223564995659722
 10
0.1876715766059028
 20
-0.6223564995659722
 10
0.1876715766059028
 20
-0.6223564995659722
 10
0.2186774359809028
 20
-0.6223564995659722
 10
0.2448601616753472
 20
-0.59686279296875
 10
0.2448601616753472
 20
-0.5655124240451388
 10
0.2448601616753472
 20
-0.5655124240451388
 10
0.2448601616753472
 20
0.1452107747395833
 10
0.2448601616753472
 20
0.1452107747395833
 10
0.2448601616753472
 20
0.1769056532118055
 10
0.2186774359809028
 20
0.2023993598090278
 10
0.1876715766059028
 20
0.2023993598090278
 10
0.1876715766059028
 20
0.2023993598090278
 10
-1.252378336588541
 20
0.2023993598090278
 10
-1.367444525824651
 20
0.2023993598090278
 10
-1.323347303602429
 20
0.9455064561631944
 10
-1.009154595269097
 20
1.038868543836805
 10
-0.7721320258246527
 20
1.038868543836805
 10
-0.7721320258246527
 20
1.038868543836805
 10
0.1876715766059028
 20
1.038868543836805
 10
0.1876715766059028
 20
1.038868543836805
 10
0.2186774359809028
 20
1.038868543836805
 10
0.2448601616753472
 20
1.064362250434027
 10
0.2448601616753472
 20
1.096057128906249
 10
0.2448601616753472
 20
1.096057128906249
 10
0.2448601616753472
 20
1.80643581814236
 10
0.2448601616753472
 20
1.80643581814236
 10
0.2448601616753472
 20
1.838130696614583
 10
0.2186774359809028
 20
1.863624403211805
 10
0.1876715766059028
 20
1.863624403211805
 97
        0
 97
        0
 75
     0
 76
     1
 98
        1
 10
0.0
 20
0.0
450
        0
451
        0
460
0.0
461
0.0
452
        0
462
0.0
453
        0
470

  0
HATCH
  5
39
330
34
100
AcDbEntity
  8
外形１
 62
     7
100
AcDbHatch
 10
0.0
 20
0.0
 30
0.0
210
0.0
220
0.0
230
1.0
  2
SOLID
 70
     1
 71
     0
 91
        1
 92
        1
 93
        1
 72
     4
 94
        3
 73
     0
 74
     0
 95
       65
 96
       61
 40
0.0
 40
0.0
 40
0.0
 40
0.0
 40
1.0
 40
1.0
 40
1.0
 40
2.0
 40
2.0
 40
2.0
 40
3.0
 40
3.0
 40
3.0
 40
4.0
 40
4.0
 40
4.0
 40
5.0
 40
5.0
 40
5.0
 40
6.0
 40
6.0
 40
6.0
 40
7.0
 40
7.0
 40
7.0
 40
8.0
 40
8.0
 40
8.0
 40
9.0
 40
9.0
 40
9.0
 40
10.0
 40
10.0
 40
10.0
 40
11.0
 40
11.0
 40
11.0
 40
12.0
 40
12.0
 40
12.0
 40
13.0
 40
13.0
 40
13.0
 40
14.0
 40
14.0
 40
14.0
 40
15.0
 40
15.0
 40
15.0
 40
16.0
 40
16.0
 40
16.0
 40
17.0
 40
17.0
 40
17.0
 40
18.0
 40
18.0
 40
18.0
 40
19.0
 40
19.0
 40
19.0
 40
20.0
 40
20.0
 40
20.0
 40
20.0
 10
3.387820773654513
 20
1.863624403211805
 10
3.387820773654513
 20
1.863624403211805
 10
2.417337375217012
 20
1.863624403211805
 10
2.417337375217012
 20
1.863624403211805
 10
1.486128065321179
 20
1.863624403211805
 10
1.05239054361979
 20
1.173227267795137
 10
1.05239054361979
 20
-0.3088528103298611
 10
1.05239054361979
 20
-1.07159695095486
 10
1.195706515842012
 20
-1.609720865885416
 10
1.491640218098958
 20
-1.956297471788194
 10
1.788951958550346
 20
-2.306319173177083
 10
2.079373508029513
 20
-2.334568956163193
 10
2.401489935980901
 20
-2.334568956163193
 10
2.401489935980901
 20
-2.334568956163193
 10
3.387820773654513
 20
-2.334568956163193
 10
3.387820773654513
 20
-2.334568956163193
 10
3.419171142578123
 20
-2.334568956163193
 10
3.444320339626735
 20
-2.30907524956597
 10
3.444320339626735
 20
-2.27806939019097
 10
3.444320339626735
 20
-2.27806939019097
 10
3.444320339626735
 20
-1.567001681857638
 10
3.444320339626735
 20
-1.567001681857638
 10
3.444320339626735
 20
-1.535306803385416
 10
3.419171142578123
 20
-1.509813096788194
 10
3.387820773654513
 20
-1.509813096788194
 10
3.387820773654513
 20
-1.509813096788194
 10
2.428361680772568
 20
-1.509813096788194
 10
2.428361680772568
 20
-1.509813096788194
 10
2.068004692925346
 20
-1.509813096788194
 10
1.84269544813368
 20
-1.355472819010415
 10
1.826848008897569
 20
-0.6223564995659722
 10
1.936402045355901
 20
-0.6223564995659722
 10
3.387820773654513
 20
-0.6223564995659722
 10
3.387820773654513
 20
-0.6223564995659722
 10
3.419171142578123
 20
-0.6223564995659722
 10
3.444320339626735
 20
-0.59686279296875
 10
3.444320339626735
 20
-0.5655124240451388
 10
3.444320339626735
 20
-0.5655124240451388
 10
3.444320339626735
 20
0.1452107747395833
 10
3.444320339626735
 20
0.1452107747395833
 10
3.444320339626735
 20
0.1769056532118055
 10
3.419171142578123
 20
0.2023993598090278
 10
3.387820773654513
 20
0.2023993598090278
 10
3.387820773654513
 20
0.2023993598090278
 10
1.947081841362845
 20
0.2023993598090278
 10
1.833049180772569
 20
0.2023993598090278
 10
1.877146402994791
 20
0.9455064561631944
 10
2.191339111328124
 20
1.038868543836805
 10
2.428361680772568
 20
1.038868543836805
 10
2.428361680772568
 20
1.038868543836805
 10
3.387820773654513
 20
1.038868543836805
 10
3.387820773654513
 20
1.038868543836805
 10
3.419171142578123
 20
1.038868543836805
 10
3.444320339626735
 20
1.064362250434027
 10
3.444320339626735
 20
1.096057128906249
 10
3.444320339626735
 20
1.096057128906249
 10
3.444320339626735
 20
1.80643581814236
 10
3.444320339626735
 20
1.80643581814236
 10
3.444320339626735
 20
1.838130696614583
 10
3.419171142578123
 20
1.863624403211805
 10
3.387820773654513
 20
1.863624403211805
 97
        0
 97
        0
 75
     0
 76
     1
 98
        1
 10
0.0
 20
0.0
450
        0
451
        0
460
0.0
461
0.0
452
        0
462
0.0
453
        0
470

  0
INSERT
  5
3A
330
34
100
AcDbEntity
  8
外形１
 62
     7
100
AcDbBlockReference
  2
AI9-BLK4
 10
5.210707
 20
0.0
 30
0.0
  0
HATCH
  5
3B
330
34
100
AcDbEntity
  8
外形１
 62
     7
100
AcDbHatch
 10
0.0
 20
0.0
 30
0.0
210
0.0
220
0.0
230
1.0
  2
SOLID
 70
     1
 71
     0
 91
        1
 92
        1
 93
        1
 72
     4
 94
        3
 73
     0
 74
     0
 95
       65
 96
       61
 40
0.0
 40
0.0
 40
0.0
 40
0.0
 40
1.0
 40
1.0
 40
1.0
 40
2.0
 40
2.0
 40
2.0
 40
3.0
 40
3.0
 40
3.0
 40
4.0
 40
4.0
 40
4.0
 40
5.0
 40
5.0
 40
5.0
 40
6.0
 40
6.0
 40
6.0
 40
7.0
 40
7.0
 40
7.0
 40
8.0
 40
8.0
 40
8.0
 40
9.0
 40
9.0
 40
9.0
 40
10.0
 40
10.0
 40
10.0
 40
11.0
 40
11.0
 40
11.0
 40
12.0
 40
12.0
 40
12.0
 40
13.0
 40
13.0
 40
13.0
 40
14.0
 40
14.0
 40
14.0
 40
15.0
 40
15.0
 40
15.0
 40
16.0
 40
16.0
 40
16.0
 40
17.0
 40
17.0
 40
17.0
 40
18.0
 40
18.0
 40
18.0
 40
19.0
 40
19.0
 40
19.0
 40
20.0
 40
20.0
 40
20.0
 40
20.0
 10
7.915193006727426
 20
1.038868543836805
 10
7.915193006727426
 20
1.038868543836805
 10
8.874307590060762
 20
1.038868543836805
 10
8.874307590060762
 20
1.038868543836805
 10
8.906002468532987
 20
1.038868543836805
 10
8.930807156032983
 20
1.064362250434027
 10
8.930807156032983
 20
1.096057128906249
 10
8.930807156032983
 20
1.096057128906249
 10
8.930807156032983
 20
1.80643581814236
 10
8.930807156032983
 20
1.80643581814236
 10
8.930807156032983
 20
1.838130696614583
 10
8.906002468532987
 20
1.863624403211805
 10
8.874307590060762
 20
1.863624403211805
 10
8.874307590060762
 20
1.863624403211805
 10
7.903479682074652
 20
1.863624403211805
 10
7.903479682074652
 20
1.863624403211805
 10
6.972614881727428
 20
1.863624403211805
 10
6.539221869574651
 20
1.173227267795137
 10
6.539221869574651
 20
-0.3088528103298611
 10
6.539221869574651
 20
-1.07159695095486
 10
6.682537841796873
 20
-1.609720865885416
 10
6.978127034505207
 20
-1.956297471788194
 10
7.275094265407985
 20
-2.306319173177083
 10
7.565860324435762
 20
-2.334568956163193
 10
7.888321261935762
 20
-2.334568956163193
 10
7.888321261935762
 20
-2.334568956163193
 10
8.874307590060762
 20
-2.334568956163193
 10
8.874307590060762
 20
-2.334568956163193
 10
8.906002468532987
 20
-2.334568956163193
 10
8.930807156032983
 20
-2.30907524956597
 10
8.930807156032983
 20
-2.27806939019097
 10
8.930807156032983
 20
-2.27806939019097
 10
8.930807156032983
 20
-1.567001681857638
 10
8.930807156032983
 20
-1.567001681857638
 10
8.930807156032983
 20
-1.535306803385416
 10
8.906002468532987
 20
-1.509813096788194
 10
8.874307590060762
 20
-1.509813096788194
 10
8.874307590060762
 20
-1.509813096788194
 10
7.915193006727426
 20
-1.509813096788194
 10
7.915193006727426
 20
-1.509813096788194
 10
7.554836018880206
 20
-1.509813096788194
 10
7.328837754991316
 20
-1.355472819010415
 10
7.312990315755207
 20
-0.6223564995659722
 10
7.423233371310762
 20
-0.6223564995659722
 10
8.874307590060762
 20
-0.6223564995659722
 10
8.874307590060762
 20
-0.6223564995659722
 10
8.906002468532987
 20
-0.6223564995659722
 10
8.930807156032983
 20
-0.59686279296875
 10
8.930807156032983
 20
-0.5655124240451388
 10
8.930807156032983
 20
-0.5655124240451388
 10
8.930807156032983
 20
0.1452107747395833
 10
8.930807156032983
 20
0.1452107747395833
 10
8.930807156032983
 20
0.1769056532118055
 10
8.906002468532987
 20
0.2023993598090278
 10
8.874307590060762
 20
0.2023993598090278
 10
8.874307590060762
 20
0.2023993598090278
 10
7.434257676866316
 20
0.2023993598090278
 10
7.319191487630206
 20
0.2023993598090278
 10
7.36328870985243
 20
0.9455064561631944
 10
7.677481418185761
 20
1.038868543836805
 10
7.915193006727426
 20
1.038868543836805
 97
        0
 97
        0
 75
     0
 76
     1
 98
        1
 10
0.0
 20
0.0
450
        0
451
        0
460
0.0
461
0.0
452
        0
462
0.0
453
        0
470

  0
ENDBLK
  5
3D
330
34
100
AcDbEntity
  8
外形１
100
AcDbBlockEnd
  0
BLOCK
  5
40
330
3E
100
AcDbEntity
  8
外形１
 62
     7
100
AcDbBlockBegin
  2
AI9-BLK4
 70
     0
 10
0.0
 20
0.0
 30
0.0
  3
AI9-BLK4
  1
AI9-BLK4
  0
HATCH
  5
3F
330
3E
100
AcDbEntity
  8
外形１
 62
     7
100
AcDbHatch
 10
0.0
 20
0.0
 30
0.0
210
0.0
220
0.0
230
1.0
  2
SOLID
 70
     1
 71
     0
 91
        1
 92
        1
 93
        1
 72
     4
 94
        3
 73
     0
 74
     0
 95
       62
 96
       58
 40
0.0
 40
0.0
 40
0.0
 40
0.0
 40
1.0
 40
1.0
 40
1.0
 40
2.0
 40
2.0
 40
2.0
 40
3.0
 40
3.0
 40
3.0
 40
4.0
 40
4.0
 40
4.0
 40
5.0
 40
5.0
 40
5.0
 40
6.0
 40
6.0
 40
6.0
 40
7.0
 40
7.0
 40
7.0
 40
8.0
 40
8.0
 40
8.0
 40
9.0
 40
9.0
 40
9.0
 40
10.0
 40
10.0
 40
10.0
 40
11.0
 40
11.0
 40
11.0
 40
12.0
 40
12.0
 40
12.0
 40
13.0
 40
13.0
 40
13.0
 40
14.0
 40
14.0
 40
14.0
 40
15.0
 40
15.0
 40
15.0
 40
16.0
 40
16.0
 40
16.0
 40
17.0
 40
17.0
 40
17.0
 40
18.0
 40
18.0
 40
18.0
 40
19.0
 40
19.0
 40
19.0
 40
19.0
 10
1.626860215928819
 20
2.334568956163193
 10
1.626860215928819
 20
2.334568956163193
 10
0.9502434624565971
 20
2.334568956163193
 10
0.9502434624565971
 20
2.334568956163193
 10
0.9268168131510416
 20
2.334568956163193
 10
0.9075242784288192
 20
2.322166612413193
 10
0.8978780110677082
 20
2.301840549045138
 10
0.8978780110677082
 20
2.301840549045138
 10
0.075189208984375
 20
0.7260538736979166
 10
-0.0150722927517361
 20
0.5338175455729166
 10
-0.1032667371961805
 20
0.7260538736979166
 10
-0.9163092719184028
 20
2.301840549045138
 10
-0.9163092719184028
 20
2.301840549045138
 10
-0.9259555392795135
 20
2.321477593315971
 10
-0.9459370930989582
 20
2.334568956163193
 10
-0.9693637424045141
 20
2.334568956163193
 10
-0.9693637424045141
 20
2.334568956163193
 10
-1.626171196831596
 20
2.334568956163193
 10
-1.626171196831596
 20
2.334568956163193
 10
-1.64615275065104
 20
2.334568956163193
 10
-1.664067247178819
 20
2.32457817925347
 10
-1.674402533637151
 20
2.30873074001736
 10
-1.680603705512151
 20
2.300462510850693
 10
-1.683359781901041
 20
2.290127224392359
 10
-1.683359781901041
 20
2.279791937934028
 10
-1.683359781901041
 20
2.27186821831597
 10
-1.681981743706596
 20
2.264289008246528
 10
-1.678192138671874
 20
2.257054307725693
 10
-1.678192138671874
 20
2.257054307725693
 10
-0.365093994140625
 20
-0.2840481228298611
 10
-0.3540696885850694
 20
-0.3057522243923611
 10
-0.3540696885850694
 20
-0.3295233832465278
 10
-0.3540696885850694
 20
-2.280136447482638
 10
-0.3540696885850694
 20
-2.280136447482638
 10
-0.3540696885850694
 20
-2.310453287760415
 10
-0.3292650010850694
 20
-2.334568956163193
 10
-0.2975701226128472
 20
-2.334568956163193
 10
-0.2975701226128472
 20
-2.334568956163193
 10
0.286029052734375
 20
-2.334568956163193
 10
0.286029052734375
 20
-2.334568956163193
 10
0.3177239312065972
 20
-2.334568956163193
 10
0.3432176378038194
 20
-2.310453287760415
 10
0.3432176378038194
 20
-2.280136447482638
 10
0.3432176378038194
 20
-2.280136447482638
 10
0.3432176378038194
 20
-0.33021240234375
 10
0.3432176378038194
 20
-0.3057522243923611
 10
0.354241943359375
 20
-0.2840481228298611
 10
1.678536648220485
 20
2.256709798177082
 10
1.678536648220485
 20
2.256709798177082
 10
1.681981743706596
 20
2.264289008246528
 10
1.683359781901041
 20
2.27186821831597
 10
1.683359781901041
 20
2.279791937934028
 10
1.683359781901041
 20
2.290127224392359
 10
1.680603705512151
 20
2.300462510850693
 10
1.675091552734374
 20
2.30873074001736
 10
1.664067247178819
 20
2.32457817925347
 10
1.64615275065104
 20
2.334568956163193
 10
1.626860215928819
 20
2.334568956163193
 97
        0
 97
        0
 75
     0
 76
     1
 98
        1
 10
0.0
 20
0.0
450
        0
451
        0
460
0.0
461
0.0
452
        0
462
0.0
453
        0
470

  0
ENDBLK
  5
41
330
3E
100
AcDbEntity
  8
外形１
100
AcDbBlockEnd
  0
BLOCK
  5
44
330
42
100
AcDbEntity
  8
外形１
 62
     7
100
AcDbBlockBegin
  2
AI9-BLK5
 70
     0
 10
0.0
 20
0.0
 30
0.0
  3
AI9-BLK5
  1
AI9-BLK5
  0
HATCH
  5
43
330
42
100
AcDbEntity
  8
外形１
 62
     7
100
AcDbHatch
 10
0.0
 20
0.0
 30
0.0
210
0.0
220
0.0
230
1.0
  2
SOLID
 70
     1
 71
     0
 91
        1
 92
        1
 93
        1
 72
     4
 94
        3
 73
     0
 74
     0
 95
       17
 96
       13
 40
0.0
 40
0.0
 40
0.0
 40
0.0
 40
1.0
 40
1.0
 40
1.0
 40
2.0
 40
2.0
 40
2.0
 40
3.0
 40
3.0
 40
3.0
 40
4.0
 40
4.0
 40
4.0
 40
4.0
 10
-0.49144287109375
 20
-1.306380208333332
 10
-0.49144287109375
 20
-1.306380208333332
 10
0.2416734483506944
 20
1.306380208333332
 10
0.2416734483506944
 20
1.306380208333332
 10
0.2416734483506944
 20
1.306380208333332
 10
0.49144287109375
 20
1.306380208333332
 10
0.49144287109375
 20
1.306380208333332
 10
0.49144287109375
 20
1.306380208333332
 10
-0.2416734483506944
 20
-1.306380208333332
 10
-0.2416734483506944
 20
-1.306380208333332
 10
-0.2416734483506944
 20
-1.306380208333332
 10
-0.49144287109375
 20
-1.306380208333332
 10
-0.49144287109375
 20
-1.306380208333332
 97
        0
 97
        0
 75
     0
 76
     1
 98
        1
 10
0.0
 20
0.0
450
        0
451
        0
460
0.0
461
0.0
452
        0
462
0.0
453
        0
470

  0
ENDBLK
  5
45
330
42
100
AcDbEntity
  8
外形１
100
AcDbBlockEnd
  0
BLOCK
  5
26D9
330
26CF
100
AcDbEntity
  8
0
100
AcDbBlockBegin
  2
*D5
 70
     1
 10
0.0
 20
0.0
 30
0.0
  3
*D5
  1
*D5
  0
LINE
  5
26D0
330
26CF
100
AcDbEntity
  8
0
 62
     0
370
    -2
100
AcDbLine
 10
133.5799496199762
 20
194.8688128573029
 30
0.0
 11
133.5799496199762
 21
207.4015254713744
 31
0.0
  0
LINE
  5
26D1
330
26CF
100
AcDbEntity
  8
0
 62
     0
370
    -2
100
AcDbLine
 10
210.5799496199761
 20
194.8688128573029
 30
0.0
 11
210.5799496199761
 21
207.4015254713744
 31
0.0
  0
LINE
  5
26D2
330
26CF
100
AcDbEntity
  8
0
 62
     0
370
    -2
100
AcDbLine
 10
136.0799496199762
 20
206.1515254713745
 30
0.0
 11
208.0799496199762
 21
206.1515254713745
 31
0.0
  0
SOLID
  5
26D3
330
26CF
100
AcDbEntity
  8
0
 62
     0
100
AcDbTrace
 10
136.0799496199762
 20
206.5681921380411
 30
0.0
 11
136.0799496199762
 21
205.7348588047078
 31
0.0
 12
133.5799496199762
 22
206.1515254713745
 32
0.0
 13
133.5799496199762
 23
206.1515254713745
 33
0.0
  0
SOLID
  5
26D4
330
26CF
100
AcDbEntity
  8
0
 62
     0
100
AcDbTrace
 10
208.0799496199762
 20
206.5681921380411
 30
0.0
 11
208.0799496199762
 21
205.7348588047078
 31
0.0
 12
210.5799496199761
 22
206.1515254713745
 32
0.0
 13
210.5799496199761
 23
206.1515254713745
 33
0.0
  0
MTEXT
  5
26D5
330
26CF
100
AcDbEntity
  8
0
 62
     0
100
AcDbMText
 10
172.2136151148542
 20
208.0265254713745
 30
0.0
 40
2.5
 41
0.0
 46
0.0
 71
     5
 72
     1
  1
77
 73
     1
 44
1.0
  0
POINT
  5
26D6
330
26CF
100
AcDbEntity
  8
Defpoints
 62
     0
100
AcDbPoint
 10
133.5799496199762
 20
194.2438128573029
 30
0.0
  0
POINT
  5
26D7
330
26CF
100
AcDbEntity
  8
Defpoints
 62
     0
100
AcDbPoint
 10
210.5799496199761
 20
194.2438128573029
 30
0.0
  0
POINT
  5
26D8
330
26CF
100
AcDbEntity
  8
Defpoints
 62
     0
100
AcDbPoint
 10
210.5799496199761
 20
206.1515254713745
 30
0.0
  0
ENDBLK
  5
26DA
330
26CF
100
AcDbEntity
  8
0
100
AcDbBlockEnd
  0
BLOCK
  5
26E5
330
26DB
100
AcDbEntity
  8
0
100
AcDbBlockBegin
  2
*D6
 70
     1
 10
0.0
 20
0.0
 30
0.0
  3
*D6
  1
*D6
  0
LINE
  5
26DC
330
26DB
100
AcDbEntity
  8
0
 62
     0
370
    -2
100
AcDbLine
 10
132.9549496199762
 20
194.2438128573029
 30
0.0
 11
119.6841173115653
 21
194.2438128573029
 31
0.0
  0
LINE
  5
26DD
330
26DB
100
AcDbEntity
  8
0
 62
     0
370
    -2
100
AcDbLine
 10
132.9549496199762
 20
161.2438128573029
 30
0.0
 11
119.6841173115653
 21
161.2438128573029
 31
0.0
  0
LINE
  5
26DE
330
26DB
100
AcDbEntity
  8
0
 62
     0
370
    -2
100
AcDbLine
 10
120.9341173115653
 20
191.7438128573029
 30
0.0
 11
120.9341173115653
 21
163.7438128573029
 31
0.0
  0
SOLID
  5
26DF
330
26DB
100
AcDbEntity
  8
0
 62
     0
100
AcDbTrace
 10
120.5174506448987
 20
191.7438128573029
 30
0.0
 11
121.350783978232
 21
191.7438128573029
 31
0.0
 12
120.9341173115653
 22
194.2438128573029
 32
0.0
 13
120.9341173115653
 23
194.2438128573029
 33
0.0
  0
SOLID
  5
26E0
330
26DB
100
AcDbEntity
  8
0
 62
     0
100
AcDbTrace
 10
120.5174506448987
 20
163.7438128573029
 30
0.0
 11
121.350783978232
 21
163.7438128573029
 31
0.0
 12
120.9341173115653
 22
161.2438128573029
 32
0.0
 13
120.9341173115653
 23
161.2438128573029
 33
0.0
  0
MTEXT
  5
26E1
330
26DB
100
AcDbEntity
  8
0
 62
     0
100
AcDbMText
 10
119.0591173115653
 20
177.7438128573029
 30
0.0
 40
2.5
 41
0.0
 46
0.0
 71
     5
 72
     1
  1
33
 11
0.0000000000000001
 21
1.0
 31
0.0
 73
     1
 44
1.0
  0
POINT
  5
26E2
330
26DB
100
AcDbEntity
  8
Defpoints
 62
     0
100
AcDbPoint
 10
133.5799496199762
 20
194.2438128573029
 30
0.0
  0
POINT
  5
26E3
330
26DB
100
AcDbEntity
  8
Defpoints
 62
     0
100
AcDbPoint
 10
133.5799496199762
 20
161.2438128573029
 30
0.0
  0
POINT
  5
26E4
330
26DB
100
AcDbEntity
  8
Defpoints
 62
     0
100
AcDbPoint
 10
120.9341173115653
 20
161.2438128573029
 30
0.0
  0
ENDBLK
  5
26E6
330
26DB
100
AcDbEntity
  8
0
100
AcDbBlockEnd
  0
BLOCK
  5
26F1
330
26E7
100
AcDbEntity
  8
0
100
AcDbBlockBegin
  2
*D7
 70
     1
 10
0.0
 20
0.0
 30
0.0
  3
*D7
  1
*D7
  0
LINE
  5
26E8
330
26E7
100
AcDbEntity
  8
0
 62
     0
370
    -2
100
AcDbLine
 10
233.9562856199762
 20
194.8688128573029
 30
0.0
 11
233.9562856199762
 21
207.4015254713744
 31
0.0
  0
LINE
  5
26E9
330
26E7
100
AcDbEntity
  8
0
 62
     0
370
    -2
100
AcDbLine
 10
241.9562856199762
 20
194.8688128573029
 30
0.0
 11
241.9562856199762
 21
207.4015254713744
 31
0.0
  0
LINE
  5
26EA
330
26E7
100
AcDbEntity
  8
0
 62
     0
370
    -2
100
AcDbLine
 10
236.4562856199762
 20
206.1515254713745
 30
0.0
 11
239.4562856199761
 21
206.1515254713745
 31
0.0
  0
SOLID
  5
26EB
330
26E7
100
AcDbEntity
  8
0
 62
     0
100
AcDbTrace
 10
236.4562856199762
 20
206.5681921380411
 30
0.0
 11
236.4562856199762
 21
205.7348588047078
 31
0.0
 12
233.9562856199762
 22
206.1515254713745
 32
0.0
 13
233.9562856199762
 23
206.1515254713745
 33
0.0
  0
SOLID
  5
26EC
330
26E7
100
AcDbEntity
  8
0
 62
     0
100
AcDbTrace
 10
239.4562856199761
 20
206.5681921380411
 30
0.0
 11
239.4562856199761
 21
205.7348588047078
 31
0.0
 12
241.9562856199762
 22
206.1515254713745
 32
0.0
 13
241.9562856199762
 23
206.1515254713745
 33
0.0
  0
MTEXT
  5
26ED
330
26E7
100
AcDbEntity
  8
0
 62
     0
100
AcDbMText
 10
237.9562856199762
 20
208.0265254713745
 30
0.0
 40
2.5
 41
0.0
 46
0.0
 71
     5
 72
     1
  1
8
 73
     1
 44
1.0
  0
POINT
  5
26EE
330
26E7
100
AcDbEntity
  8
Defpoints
 62
     0
100
AcDbPoint
 10
233.9562856199762
 20
194.2438128573029
 30
0.0
  0
POINT
  5
26EF
330
26E7
100
AcDbEntity
  8
Defpoints
 62
     0
100
AcDbPoint
 10
241.9562856199762
 20
194.2438128573029
 30
0.0
  0
POINT
  5
26F0
330
26E7
100
AcDbEntity
  8
Defpoints
 62
     0
100
AcDbPoint
 10
241.9562856199762
 20
206.1515254713745
 30
0.0
  0
ENDBLK
  5
26F2
330
26E7
100
AcDbEntity
  8
0
100
AcDbBlockEnd
  0
BLOCK
  5
26FD
330
26F3
100
AcDbEntity
  8
0
100
AcDbBlockBegin
  2
*D8
 70
     1
 10
0.0
 20
0.0
 30
0.0
  3
*D8
  1
*D8
  0
LINE
  5
26F4
330
26F3
100
AcDbEntity
  8
0
 62
     0
370
    -2
100
AcDbLine
 10
216.2049496199761
 20
186.2438128573029
 30
0.0
 11
225.4365162135802
 21
186.2438128573029
 31
0.0
  0
LINE
  5
26F5
330
26F3
100
AcDbEntity
  8
0
 62
     0
370
    -2
100
AcDbLine
 10
216.2049496199761
 20
169.2438128573029
 30
0.0
 11
225.4365162135802
 21
169.2438128573029
 31
0.0
  0
LINE
  5
26F6
330
26F3
100
AcDbEntity
  8
0
 62
     0
370
    -2
100
AcDbLine
 10
224.1865162135802
 20
183.7438128573029
 30
0.0
 11
224.1865162135802
 21
171.7438128573029
 31
0.0
  0
SOLID
  5
26F7
330
26F3
100
AcDbEntity
  8
0
 62
     0
100
AcDbTrace
 10
223.7698495469135
 20
183.7438128573029
 30
0.0
 11
224.6031828802469
 21
183.7438128573029
 31
0.0
 12
224.1865162135802
 22
186.2438128573029
 32
0.0
 13
224.1865162135802
 23
186.2438128573029
 33
0.0
  0
SOLID
  5
26F8
330
26F3
100
AcDbEntity
  8
0
 62
     0
100
AcDbTrace
 10
223.7698495469135
 20
171.7438128573029
 30
0.0
 11
224.6031828802469
 21
171.7438128573029
 31
0.0
 12
224.1865162135802
 22
169.2438128573029
 32
0.0
 13
224.1865162135802
 23
169.2438128573029
 33
0.0
  0
MTEXT
  5
26F9
330
26F3
100
AcDbEntity
  8
0
 62
     0
100
AcDbMText
 10
222.3115162135802
 20
177.743812857303
 30
0.0
 40
2.5
 41
0.0
 46
0.0
 71
     5
 72
     1
  1
17
 11
0.0000000000000001
 21
1.0
 31
0.0
 73
     1
 44
1.0
  0
POINT
  5
26FA
330
26F3
100
AcDbEntity
  8
Defpoints
 62
     0
100
AcDbPoint
 10
215.5799496199761
 20
186.2438128573029
 30
0.0
  0
POINT
  5
26FB
330
26F3
100
AcDbEntity
  8
Defpoints
 62
     0
100
AcDbPoint
 10
215.5799496199761
 20
169.2438128573029
 30
0.0
  0
POINT
  5
26FC
330
26F3
100
AcDbEntity
  8
Defpoints
 62
     0
100
AcDbPoint
 10
224.1865162135802
 20
169.2438128573029
 30
0.0
  0
ENDBLK
  5
26FE
330
26F3
100
AcDbEntity
  8
0
100
AcDbBlockEnd
  0
BLOCK
  5
270B
330
26FF
100
AcDbEntity
  8
0
100
AcDbBlockBegin
  2
*D9
 70
     1
 10
0.0
 20
0.0
 30
0.0
  3
*D9
  1
*D9
  0
LINE
  5
2700
330
26FF
100
AcDbEntity
  8
0
 62
     0
370
    -2
100
AcDbLine
 10
216.0799496199762
 20
186.3688128573029
 30
0.0
 11
216.0799496199762
 21
207.4015254713744
 31
0.0
  0
LINE
  5
2701
330
26FF
100
AcDbEntity
  8
0
 62
     0
370
    -2
100
AcDbLine
 10
210.5799496199761
 20
194.8688128573029
 30
0.0
 11
210.5799496199761
 21
207.4015254713744
 31
0.0
  0
LINE
  5
2702
330
26FF
100
AcDbEntity
  8
0
 62
     0
370
    -2
100
AcDbLine
 10
218.5799496199761
 20
206.1515254713745
 30
0.0
 11
221.0799496199761
 21
206.1515254713745
 31
0.0
  0
LINE
  5
2703
330
26FF
100
AcDbEntity
  8
0
 62
     0
370
    -2
100
AcDbLine
 10
208.0799496199762
 20
206.1515254713745
 30
0.0
 11
198.9132829533095
 21
206.1515254713745
 31
0.0
  0
LINE
  5
2704
330
26FF
100
AcDbEntity
  8
0
 62
     0
370
    -2
100
AcDbLine
 10
216.0799496199762
 20
206.1515254713745
 30
0.0
 11
210.5799496199761
 21
206.1515254713745
 31
0.0
  0
SOLID
  5
2705
330
26FF
100
AcDbEntity
  8
0
 62
     0
100
AcDbTrace
 10
218.5799496199761
 20
206.5681921380411
 30
0.0
 11
218.5799496199761
 21
205.7348588047078
 31
0.0
 12
216.0799496199762
 22
206.1515254713745
 32
0.0
 13
216.0799496199762
 23
206.1515254713745
 33
0.0
  0
SOLID
  5
2706
330
26FF
100
AcDbEntity
  8
0
 62
     0
100
AcDbTrace
 10
208.0799496199762
 20
206.5681921380411
 30
0.0
 11
208.0799496199762
 21
205.7348588047078
 31
0.0
 12
210.5799496199761
 22
206.1515254713745
 32
0.0
 13
210.5799496199761
 23
206.1515254713745
 33
0.0
  0
MTEXT
  5
2707
330
26FF
100
AcDbEntity
  8
0
 62
     0
100
AcDbMText
 10
202.2466162866428
 20
208.2348588047078
 30
0.0
 40
2.5
 41
0.0
 46
0.0
 71
     5
 72
     1
  1
5,5
 73
     1
 44
1.0
  0
POINT
  5
2708
330
26FF
100
AcDbEntity
  8
Defpoints
 62
     0
100
AcDbPoint
 10
216.0799496199762
 20
185.7438128573028
 30
0.0
  0
POINT
  5
2709
330
26FF
100
AcDbEntity
  8
Defpoints
 62
     0
100
AcDbPoint
 10
210.5799496199761
 20
194.2438128573029
 30
0.0
  0
POINT
  5
270A
330
26FF
100
AcDbEntity
  8
Defpoints
 62
     0
100
AcDbPoint
 10
210.5799496199761
 20
206.1515254713745
 30
0.0
  0
ENDBLK
  5
270C
330
26FF
100
AcDbEntity
  8
0
100
AcDbBlockEnd
  0
BLOCK
  5
2717
330
270D
100
AcDbEntity
  8
0
100
AcDbBlockBegin
  2
*D10
 70
     1
 10
0.0
 20
0.0
 30
0.0
  3
*D10
  1
*D10
  0
LINE
  5
270E
330
270D
100
AcDbEntity
  8
DOTTED
  6
Continuous
 62
     0
370
    -2
100
AcDbLine
 10
132.4549496199762
 20
190.2438128573029
 30
0.0
 11
129.2768849943368
 21
190.2438128573029
 31
0.0
  0
LINE
  5
270F
330
270D
100
AcDbEntity
  8
DOTTED
  6
Continuous
 62
     0
370
    -2
100
AcDbLine
 10
132.4549496199762
 20
165.2438128573029
 30
0.0
 11
129.2768849943368
 21
165.2438128573029
 31
0.0
  0
LINE
  5
2710
330
270D
100
AcDbEntity
  8
DOTTED
  6
Continuous
 62
     0
370
    -2
100
AcDbLine
 10
130.5268849943368
 20
187.7438128573029
 30
0.0
 11
130.5268849943368
 21
167.7438128573029
 31
0.0
  0
SOLID
  5
2711
330
270D
100
AcDbEntity
  8
DOTTED
  6
Continuous
 62
     0
100
AcDbTrace
 10
130.1102183276702
 20
187.7438128573029
 30
0.0
 11
130.9435516610035
 21
187.7438128573029
 31
0.0
 12
130.5268849943368
 22
190.2438128573029
 32
0.0
 13
130.5268849943368
 23
190.2438128573029
 33
0.0
  0
SOLID
  5
2712
330
270D
100
AcDbEntity
  8
DOTTED
  6
Continuous
 62
     0
100
AcDbTrace
 10
130.1102183276702
 20
167.7438128573029
 30
0.0
 11
130.9435516610035
 21
167.7438128573029
 31
0.0
 12
130.5268849943368
 22
165.2438128573029
 32
0.0
 13
130.5268849943368
 23
165.2438128573029
 33
0.0
  0
MTEXT
  5
2713
330
270D
100
AcDbEntity
  8
DOTTED
  6
Continuous
 62
     0
100
AcDbMText
 10
128.6518849943368
 20
177.7438128573029
 30
0.0
 40
2.5
 41
0.0
 46
0.0
 71
     5
 72
     1
  1
25
 11
0.0000000000000001
 21
1.0
 31
0.0
 73
     1
 44
1.0
  0
POINT
  5
2714
330
270D
100
AcDbEntity
  8
Defpoints
  6
Continuous
 62
     0
100
AcDbPoint
 10
133.0799496199762
 20
190.2438128573029
 30
0.0
  0
POINT
  5
2715
330
270D
100
AcDbEntity
  8
Defpoints
  6
Continuous
 62
     0
100
AcDbPoint
 10
133.0799496199762
 20
165.2438128573029
 30
0.0
  0
POINT
  5
2716
330
270D
100
AcDbEntity
  8
Defpoints
  6
Continuous
 62
     0
100
AcDbPoint
 10
130.5268849943368
 20
165.2438128573029
 30
0.0
  0
ENDBLK
  5
2718
330
270D
100
AcDbEntity
  8
0
100
AcDbBlockEnd
  0
BLOCK
  5
2723
330
2719
100
AcDbEntity
  8
0
100
AcDbBlockBegin
  2
*D11
 70
     1
 10
0.0
 20
0.0
 30
0.0
  3
*D11
  1
*D11
  0
LINE
  5
271A
330
2719
100
AcDbEntity
  8
DOTTED
  6
Continuous
 62
     0
370
    -2
100
AcDbLine
 10
137.0799496199762
 20
194.8688128573029
 30
0.0
 11
137.0799496199762
 21
198.9310023240239
 31
0.0
  0
LINE
  5
271B
330
2719
100
AcDbEntity
  8
DOTTED
  6
Continuous
 62
     0
370
    -2
100
AcDbLine
 10
207.0799496199761
 20
194.8688128573029
 30
0.0
 11
207.0799496199761
 21
198.9310023240239
 31
0.0
  0
LINE
  5
271C
330
2719
100
AcDbEntity
  8
DOTTED
  6
Continuous
 62
     0
370
    -2
100
AcDbLine
 10
139.5799496199762
 20
197.6810023240239
 30
0.0
 11
204.5799496199761
 21
197.6810023240239
 31
0.0
  0
SOLID
  5
271D
330
2719
100
AcDbEntity
  8
DOTTED
  6
Continuous
 62
     0
100
AcDbTrace
 10
139.5799496199762
 20
198.0976689906906
 30
0.0
 11
139.5799496199762
 21
197.2643356573573
 31
0.0
 12
137.0799496199762
 22
197.6810023240239
 32
0.0
 13
137.0799496199762
 23
197.6810023240239
 33
0.0
  0
SOLID
  5
271E
330
2719
100
AcDbEntity
  8
DOTTED
  6
Continuous
 62
     0
100
AcDbTrace
 10
204.5799496199761
 20
198.0976689906906
 30
0.0
 11
204.5799496199761
 21
197.2643356573573
 31
0.0
 12
207.0799496199761
 22
197.6810023240239
 32
0.0
 13
207.0799496199761
 23
197.6810023240239
 33
0.0
  0
MTEXT
  5
271F
330
2719
100
AcDbEntity
  8
DOTTED
  6
Continuous
 62
     0
100
AcDbMText
 10
172.0799496199762
 20
199.5560023240239
 30
0.0
 40
2.5
 41
0.0
 46
0.0
 71
     5
 72
     1
  1
70
 73
     1
 44
1.0
  0
POINT
  5
2720
330
2719
100
AcDbEntity
  8
Defpoints
  6
Continuous
 62
     0
100
AcDbPoint
 10
137.0799496199762
 20
194.2438128573029
 30
0.0
  0
POINT
  5
2721
330
2719
100
AcDbEntity
  8
Defpoints
  6
Continuous
 62
     0
100
AcDbPoint
 10
207.0799496199761
 20
194.2438128573029
 30
0.0
  0
POINT
  5
2722
330
2719
100
AcDbEntity
  8
Defpoints
  6
Continuous
 62
     0
100
AcDbPoint
 10
207.0799496199761
 20
197.6810023240239
 30
0.0
  0
ENDBLK
  5
2724
330
2719
100
AcDbEntity
  8
0
100
AcDbBlockEnd
  0
BLOCK
  5
2731
330
2725
100
AcDbEntity
  8
0
100
AcDbBlockBegin
  2
*D12
 70
     1
 10
0.0
 20
0.0
 30
0.0
  3
*D12
  1
*D12
  0
LINE
  5
2726
330
2725
100
AcDbEntity
  8
DOTTED
  6
Continuous
 62
     0
370
    -2
100
AcDbLine
 10
237.9562856199762
 20
193.8688128573028
 30
0.0
 11
237.9562856199762
 21
198.9310023240239
 31
0.0
  0
LINE
  5
2727
330
2725
100
AcDbEntity
  8
DOTTED
  6
Continuous
 62
     0
370
    -2
100
AcDbLine
 10
233.9562856199762
 20
194.8688128573029
 30
0.0
 11
233.9562856199762
 21
198.9310023240239
 31
0.0
  0
LINE
  5
2728
330
2725
100
AcDbEntity
  8
DOTTED
  6
Continuous
 62
     0
370
    -2
100
AcDbLine
 10
240.4562856199762
 20
197.6810023240239
 30
0.0
 11
242.9562856199761
 21
197.6810023240239
 31
0.0
  0
LINE
  5
2729
330
2725
100
AcDbEntity
  8
DOTTED
  6
Continuous
 62
     0
370
    -2
100
AcDbLine
 10
231.4562856199762
 20
197.6810023240239
 30
0.0
 11
228.9562856199761
 21
197.6810023240239
 31
0.0
  0
LINE
  5
272A
330
2725
100
AcDbEntity
  8
DOTTED
  6
Continuous
 62
     0
370
    -2
100
AcDbLine
 10
237.9562856199762
 20
197.6810023240239
 30
0.0
 11
233.9562856199762
 21
197.6810023240239
 31
0.0
  0
SOLID
  5
272B
330
2725
100
AcDbEntity
  8
DOTTED
  6
Continuous
 62
     0
100
AcDbTrace
 10
240.4562856199762
 20
198.0976689906906
 30
0.0
 11
240.4562856199762
 21
197.2643356573573
 31
0.0
 12
237.9562856199762
 22
197.6810023240239
 32
0.0
 13
237.9562856199762
 23
197.6810023240239
 33
0.0
  0
SOLID
  5
272C
330
2725
100
AcDbEntity
  8
DOTTED
  6
Continuous
 62
     0
100
AcDbTrace
 10
231.4562856199762
 20
198.0976689906906
 30
0.0
 11
231.4562856199762
 21
197.2643356573573
 31
0.0
 12
233.9562856199762
 22
197.6810023240239
 32
0.0
 13
233.9562856199762
 23
197.6810023240239
 33
0.0
  0
MTEXT
  5
272D
330
2725
100
AcDbEntity
  8
DOTTED
  6
Continuous
 62
     0
100
AcDbMText
 10
235.9562856199762
 20
199.5560023240239
 30
0.0
 40
2.5
 41
0.0
 46
0.0
 71
     5
 72
     1
  1
4
 73
     1
 44
1.0
  0
POINT
  5
272E
330
2725
100
AcDbEntity
  8
Defpoints
  6
Continuous
 62
     0
100
AcDbPoint
 10
237.9562856199762
 20
193.2438128573029
 30
0.0
  0
POINT
  5
272F
330
2725
100
AcDbEntity
  8
Defpoints
  6
Continuous
 62
     0
100
AcDbPoint
 10
233.9562856199762
 20
194.2438128573029
 30
0.0
  0
POINT
  5
2730
330
2725
100
AcDbEntity
  8
Defpoints
  6
Continuous
 62
     0
100
AcDbPoint
 10
233.9562856199762
 20
197.6810023240239
 30
0.0
  0
ENDBLK
  5
2732
330
2725
100
AcDbEntity
  8
0
100
AcDbBlockEnd
  0
BLOCK
  5
273D
330
2733
100
AcDbEntity
  8
0
100
AcDbBlockBegin
  2
*D13
 70
     1
 10
0.0
 20
0.0
 30
0.0
  3
*D13
  1
*D13
  0
LINE
  5
2734
330
2733
100
AcDbEntity
  8
0
 62
     0
370
    -2
100
AcDbLine
 10
157.5799496199761
 20
138.3993708573029
 30
0.0
 11
157.5799496199761
 21
116.1191556903644
 31
0.0
  0
LINE
  5
2735
330
2733
100
AcDbEntity
  8
0
 62
     0
370
    -2
100
AcDbLine
 10
193.079949619976
 20
138.3993708573029
 30
0.0
 11
193.079949619976
 21
116.1191556903644
 31
0.0
  0
LINE
  5
2736
330
2733
100
AcDbEntity
  8
0
 62
     0
370
    -2
100
AcDbLine
 10
160.0799496199762
 20
117.3691556903644
 30
0.0
 11
190.5799496199762
 21
117.3691556903644
 31
0.0
  0
SOLID
  5
2737
330
2733
100
AcDbEntity
  8
0
 62
     0
100
AcDbTrace
 10
160.0799496199762
 20
117.785822357031
 30
0.0
 11
160.0799496199762
 21
116.9524890236977
 31
0.0
 12
157.5799496199761
 22
117.3691556903644
 32
0.0
 13
157.5799496199761
 23
117.3691556903644
 33
0.0
  0
SOLID
  5
2738
330
2733
100
AcDbEntity
  8
0
 62
     0
100
AcDbTrace
 10
190.5799496199762
 20
117.785822357031
 30
0.0
 11
190.5799496199762
 21
116.9524890236977
 31
0.0
 12
193.079949619976
 22
117.3691556903644
 32
0.0
 13
193.079949619976
 23
117.3691556903644
 33
0.0
  0
MTEXT
  5
2739
330
2733
100
AcDbEntity
  8
0
 62
     0
100
AcDbMText
 10
175.329949619976
 20
119.4524890236977
 30
0.0
 40
2.5
 41
0.0
 46
0.0
 71
     5
 72
     1
  1
35,5
 73
     1
 44
1.0
  0
POINT
  5
273A
330
2733
100
AcDbEntity
  8
Defpoints
 62
     0
100
AcDbPoint
 10
157.5799496199761
 20
139.0243708573029
 30
0.0
  0
POINT
  5
273B
330
2733
100
AcDbEntity
  8
Defpoints
 62
     0
100
AcDbPoint
 10
193.079949619976
 20
139.0243708573029
 30
0.0
  0
POINT
  5
273C
330
2733
100
AcDbEntity
  8
Defpoints
 62
     0
100
AcDbPoint
 10
193.079949619976
 20
117.3691556903644
 30
0.0
  0
ENDBLK
  5
273E
330
2733
100
AcDbEntity
  8
0
100
AcDbBlockEnd
  0
BLOCK
  5
2749
330
273F
100
AcDbEntity
  8
0
100
AcDbBlockBegin
  2
*D14
 70
     1
 10
0.0
 20
0.0
 30
0.0
  3
*D14
  1
*D14
  0
LINE
  5
2740
330
273F
100
AcDbEntity
  8
0
 62
     0
370
    -2
100
AcDbLine
 10
157.5799496199761
 20
137.7743708573029
 30
0.0
 11
157.5799496199761
 21
128.8868446560878
 31
0.0
  0
LINE
  5
2741
330
273F
100
AcDbEntity
  8
0
 62
     0
370
    -2
100
AcDbLine
 10
172.079949619976
 20
142.8993708573029
 30
0.0
 11
172.079949619976
 21
128.8868446560878
 31
0.0
  0
LINE
  5
2742
330
273F
100
AcDbEntity
  8
0
 62
     0
370
    -2
100
AcDbLine
 10
160.0799496199762
 20
130.1368446560878
 30
0.0
 11
169.5799496199762
 21
130.1368446560878
 31
0.0
  0
SOLID
  5
2743
330
273F
100
AcDbEntity
  8
0
 62
     0
100
AcDbTrace
 10
160.0799496199762
 20
130.5535113227545
 30
0.0
 11
160.0799496199762
 21
129.7201779894211
 31
0.0
 12
157.5799496199761
 22
130.1368446560878
 32
0.0
 13
157.5799496199761
 23
130.1368446560878
 33
0.0
  0
SOLID
  5
2744
330
273F
100
AcDbEntity
  8
0
 62
     0
100
AcDbTrace
 10
169.5799496199762
 20
130.5535113227545
 30
0.0
 11
169.5799496199762
 21
129.7201779894211
 31
0.0
 12
172.079949619976
 22
130.1368446560878
 32
0.0
 13
172.079949619976
 23
130.1368446560878
 33
0.0
  0
MTEXT
  5
2745
330
273F
100
AcDbEntity
  8
0
 62
     0
100
AcDbMText
 10
164.8299496199761
 20
132.2201779894211
 30
0.0
 40
2.5
 41
0.0
 46
0.0
 71
     5
 72
     1
  1
14,5
 73
     1
 44
1.0
  0
POINT
  5
2746
330
273F
100
AcDbEntity
  8
Defpoints
 62
     0
100
AcDbPoint
 10
157.5799496199761
 20
138.3993708573029
 30
0.0
  0
POINT
  5
2747
330
273F
100
AcDbEntity
  8
Defpoints
 62
     0
100
AcDbPoint
 10
172.079949619976
 20
143.5243708573029
 30
0.0
  0
POINT
  5
2748
330
273F
100
AcDbEntity
  8
Defpoints
 62
     0
100
AcDbPoint
 10
172.079949619976
 20
130.1368446560878
 30
0.0
  0
ENDBLK
  5
274A
330
273F
100
AcDbEntity
  8
0
100
AcDbBlockEnd
  0
BLOCK
  5
2757
330
274B
100
AcDbEntity
  8
0
100
AcDbBlockBegin
  2
*D15
 70
     1
 10
0.0
 20
0.0
 30
0.0
  3
*D15
  1
*D15
  0
LINE
  5
274C
330
274B
100
AcDbEntity
  8
0
 62
     0
370
    -2
100
AcDbLine
 10
171.4549496199762
 20
147.0243708573029
 30
0.0
 11
165.9470525562604
 21
147.0243708573029
 31
0.0
  0
LINE
  5
274D
330
274B
100
AcDbEntity
  8
0
 62
     0
370
    -2
100
AcDbLine
 10
171.4549496199762
 20
144.5243708573029
 30
0.0
 11
165.9470525562604
 21
144.5243708573029
 31
0.0
  0
LINE
  5
274E
330
274B
100
AcDbEntity
  8
0
 62
     0
370
    -2
100
AcDbLine
 10
167.1970525562604
 20
142.0243708573029
 30
0.0
 11
167.1970525562604
 21
139.5243708573029
 31
0.0
  0
LINE
  5
274F
330
274B
100
AcDbEntity
  8
0
 62
     0
370
    -2
100
AcDbLine
 10
167.1970525562604
 20
149.5243708573029
 30
0.0
 11
167.1970525562604
 21
158.6910375239695
 31
0.0
  0
LINE
  5
2750
330
274B
100
AcDbEntity
  8
0
 62
     0
370
    -2
100
AcDbLine
 10
167.1970525562604
 20
144.5243708573029
 30
0.0
 11
167.1970525562604
 21
147.0243708573029
 31
0.0
  0
SOLID
  5
2751
330
274B
100
AcDbEntity
  8
0
 62
     0
100
AcDbTrace
 10
166.7803858895937
 20
142.0243708573029
 30
0.0
 11
167.6137192229271
 21
142.0243708573029
 31
0.0
 12
167.1970525562604
 22
144.5243708573029
 32
0.0
 13
167.1970525562604
 23
144.5243708573029
 33
0.0
  0
SOLID
  5
2752
330
274B
100
AcDbEntity
  8
0
 62
     0
100
AcDbTrace
 10
166.7803858895937
 20
149.5243708573029
 30
0.0
 11
167.6137192229271
 21
149.5243708573029
 31
0.0
 12
167.1970525562604
 22
147.0243708573029
 32
0.0
 13
167.1970525562604
 23
147.0243708573029
 33
0.0
  0
MTEXT
  5
2753
330
274B
100
AcDbEntity
  8
0
 62
     0
100
AcDbMText
 10
165.113719222927
 20
155.3577041906363
 30
0.0
 40
2.5
 41
0.0
 46
0.0
 71
     5
 72
     1
  1
2,5
 11
0.0000000000000001
 21
1.0
 31
0.0
 73
     1
 44
1.0
  0
POINT
  5
2754
330
274B
100
AcDbEntity
  8
Defpoints
 62
     0
100
AcDbPoint
 10
172.079949619976
 20
147.0243708573029
 30
0.0
  0
POINT
  5
2755
330
274B
100
AcDbEntity
  8
Defpoints
 62
     0
100
AcDbPoint
 10
172.079949619976
 20
144.5243708573029
 30
0.0
  0
POINT
  5
2756
330
274B
100
AcDbEntity
  8
Defpoints
 62
     0
100
AcDbPoint
 10
167.1970525562604
 20
144.5243708573029
 30
0.0
  0
ENDBLK
  5
2758
330
274B
100
AcDbEntity
  8
0
100
AcDbBlockEnd
  0
BLOCK
  5
2762
330
2759
100
AcDbEntity
  8
0
100
AcDbBlockBegin
  2
*D16
 70
     1
 10
0.0
 20
0.0
 30
0.0
  3
*D16
  1
*D16
  0
LINE
  5
275A
330
2759
100
AcDbEntity
  8
0
 62
     0
370
    -2
100
AcDbLine
 10
229.2460802370018
 20
150.9140530885325
 30
0.0
 11
210.5231101574966
 21
163.0179095546272
 31
0.0
  0
LINE
  5
275B
330
2759
100
AcDbEntity
  8
0
 62
     0
370
    -2
100
AcDbLine
 10
203.6367890824558
 20
167.4697161599785
 30
0.0
 11
201.5373009498214
 21
168.8269742713661
 31
0.0
  0
MTEXT
  5
275C
330
2759
100
AcDbEntity
  8
0
 62
     0
100
AcDbMText
 10
224.4904314557979
 20
156.2211289943242
 30
0.0
 40
2.5
 41
0.0
 46
0.0
 71
     5
 72
     1
  1
4-%%c3.2
 11
0.8397952530537502
 21
-0.5429032445550386
 31
0.0
 73
     1
 44
1.0
  0
LINE
  5
275D
330
2759
100
AcDbEntity
  8
0
 62
     0
370
    -2
100
AcDbLine
 10
205.7362772150901
 20
166.1124580485909
 30
0.0
 11
208.4236220248622
 21
164.3751676660148
 31
0.0
  0
SOLID
  5
275E
330
2759
100
AcDbEntity
  8
0
 62
     0
100
AcDbTrace
 10
203.862998767687
 20
167.819630848751
 30
0.0
 11
203.4105793972245
 21
167.1198014712062
 31
0.0
 12
205.7362772150901
 22
166.1124580485909
 32
0.0
 13
205.7362772150901
 23
166.1124580485909
 33
0.0
  0
SOLID
  5
275F
330
2759
100
AcDbEntity
  8
0
 62
     0
100
AcDbTrace
 10
210.7493198427278
 20
163.3678242433996
 30
0.0
 11
210.2969004722652
 21
162.6679948658549
 31
0.0
 12
208.4236220248622
 22
164.3751676660148
 32
0.0
 13
208.4236220248622
 23
164.3751676660148
 33
0.0
  0
POINT
  5
2760
330
2759
100
AcDbEntity
  8
Defpoints
 62
     0
100
AcDbPoint
 10
208.4236220248622
 20
164.3751676660148
 30
0.0
  0
POINT
  5
2761
330
2759
100
AcDbEntity
  8
Defpoints
 62
     0
100
AcDbPoint
 10
205.7362772150901
 20
166.1124580485909
 30
0.0
  0
ENDBLK
  5
2763
330
2759
100
AcDbEntity
  8
0
100
AcDbBlockEnd
  0
BLOCK
  5
2770
330
2764
100
AcDbEntity
  8
0
100
AcDbBlockBegin
  2
*D17
 70
     1
 10
0.0
 20
0.0
 30
0.0
  3
*D17
  1
*D17
  0
LINE
  5
2765
330
2764
100
AcDbEntity
  8
0
 62
     0
370
    -2
100
AcDbLine
 10
216.2049496199761
 20
144.5243708573029
 30
0.0
 11
225.4934390810709
 21
144.5243708573029
 31
0.0
  0
LINE
  5
2766
330
2764
100
AcDbEntity
  8
0
 62
     0
370
    -2
100
AcDbLine
 10
216.2049496199761
 20
140.5243708573029
 30
0.0
 11
225.4934390810709
 21
140.5243708573029
 31
0.0
  0
LINE
  5
2767
330
2764
100
AcDbEntity
  8
0
 62
     0
370
    -2
100
AcDbLine
 10
224.2434390810709
 20
147.0243708573029
 30
0.0
 11
224.2434390810709
 21
149.5243708573029
 31
0.0
  0
LINE
  5
2768
330
2764
100
AcDbEntity
  8
0
 62
     0
370
    -2
100
AcDbLine
 10
224.2434390810709
 20
138.0243708573029
 30
0.0
 11
224.2434390810709
 21
135.5243708573029
 31
0.0
  0
LINE
  5
2769
330
2764
100
AcDbEntity
  8
0
 62
     0
370
    -2
100
AcDbLine
 10
224.2434390810709
 20
144.5243708573029
 30
0.0
 11
224.2434390810709
 21
140.5243708573029
 31
0.0
  0
SOLID
  5
276A
330
2764
100
AcDbEntity
  8
0
 62
     0
100
AcDbTrace
 10
223.8267724144042
 20
147.0243708573029
 30
0.0
 11
224.6601057477376
 21
147.0243708573029
 31
0.0
 12
224.2434390810709
 22
144.5243708573029
 32
0.0
 13
224.2434390810709
 23
144.5243708573029
 33
0.0
  0
SOLID
  5
276B
330
2764
100
AcDbEntity
  8
0
 62
     0
100
AcDbTrace
 10
223.8267724144042
 20
138.0243708573029
 30
0.0
 11
224.6601057477376
 21
138.0243708573029
 31
0.0
 12
224.2434390810709
 22
140.5243708573029
 32
0.0
 13
224.2434390810709
 23
140.5243708573029
 33
0.0
  0
MTEXT
  5
276C
330
2764
100
AcDbEntity
  8
0
 62
     0
100
AcDbMText
 10
222.3684390810709
 20
142.5243708573029
 30
0.0
 40
2.5
 41
0.0
 46
0.0
 71
     5
 72
     1
  1
4
 11
0.0000000000000001
 21
1.0
 31
0.0
 73
     1
 44
1.0
  0
POINT
  5
276D
330
2764
100
AcDbEntity
  8
Defpoints
 62
     0
100
AcDbPoint
 10
215.5799496199761
 20
144.5243708573029
 30
0.0
  0
POINT
  5
276E
330
2764
100
AcDbEntity
  8
Defpoints
 62
     0
100
AcDbPoint
 10
215.5799496199761
 20
140.5243708573029
 30
0.0
  0
POINT
  5
276F
330
2764
100
AcDbEntity
  8
Defpoints
 62
     0
100
AcDbPoint
 10
224.2434390810709
 20
140.5243708573029
 30
0.0
  0
ENDBLK
  5
2771
330
2764
100
AcDbEntity
  8
0
100
AcDbBlockEnd
  0
BLOCK
  5
280A
330
2772
100
AcDbEntity
  8
0
100
AcDbBlockBegin
  2
A$C27BD67DC
 70
     0
 10
0.0
 20
0.0
 30
0.0
  3
A$C27BD67DC
  1
A$C27BD67DC
  0
LEADER
  5
2773
330
2772
100
AcDbEntity
  8
0
100
AcDbLeader
  3
ISO-25
 76
     2
 10
124.3772345200254
 20
21.90521495118309
 30
0.0
 10
130.372929216126
 20
15.33601465841211
 30
0.0
1001
ACAD
1000
DSTYLE
1002
{
1070
   147
1040
0.625
1070
    77
1070
     0
1002
}
  0
DIMENSION
  5
2774
102
{ACAD_XDICTIONARY
360
2775
102
}
102
{ACAD_REACTORS
330
2776
102
}
330
2772
100
AcDbEntity
  8
0
100
AcDbDimension
280
     0
  2
*D16
 10
123.0335621151394
 20
49.99330214247115
 30
0.0
 11
140.7697727723065
 21
38.5273569887286
 31
0.0
 12
-82.70271509995074
 22
-116.1191559061198
 32
0.0
 70
   131
  1
4-%%c3.2
 71
     5
 42
3.200000000000017
 73
     0
 74
     0
 75
     0
  3
ISO-25
100
AcDbDiametricDimension
 15
125.7209069249114
 25
48.25601175989501
 35
0.0
 40
0.0
1001
ACAD
1000
DSTYLE
1002
{
1070
   288
1070
     1
1002
}
  0
DIMENSION
  5
2777
102
{ACAD_XDICTIONARY
360
2778
102
}
102
{ACAD_REACTORS
330
2779
102
}
330
2772
100
AcDbEntity
  8
0
100
AcDbDimension
280
     0
  2
*D9
 10
127.8772345200254
 20
90.03236956525467
 30
0.0
 11
119.543901186692
 21
92.11570289858801
 31
0.0
 12
-82.70271509995074
 22
-116.1191559061198
 32
0.0
 70
    32
 71
     5
 42
5.5
 73
     0
 74
     0
 75
     0
  3
ISO-25
100
AcDbAlignedDimension
 13
133.3772345200254
 23
69.62465695118311
 33
0.0
 14
127.8772345200254
 24
78.12465695118311
 34
0.0
100
AcDbRotatedDimension
  0
DIMENSION
  5
277A
102
{ACAD_XDICTIONARY
360
277B
102
}
102
{ACAD_REACTORS
330
277C
102
}
330
2772
100
AcDbEntity
  8
0
100
AcDbDimension
280
     0
  2
*D5
 10
127.8772345200254
 20
90.03236956525467
 30
0.0
 11
89.51090001490356
 21
90.03236956525467
 31
0.0
 12
-82.70271509995074
 22
-116.1191559061198
 32
0.0
 70
   128
 71
     5
 42
76.99999999999997
 73
     0
 74
     0
 75
     0
  3
ISO-25
100
AcDbAlignedDimension
 13
50.87723452002546
 23
78.12465695118311
 33
0.0
 14
127.8772345200254
 24
78.12465695118311
 34
0.0
100
AcDbRotatedDimension
  0
LINE
  5
277D
330
2772
100
AcDbEntity
  8
CENTER
100
AcDbLine
 10
128.3772345200254
 20
74.12465695118311
 30
0.0
 11
120.3772345200254
 21
74.12465695118311
 31
0.0
  0
CIRCLE
  5
277E
330
2772
100
AcDbEntity
  8
DOTTED
100
AcDbCircle
 10
124.3772345200254
 20
49.12465695118311
 30
0.0
 40
3.0
  0
LINE
  5
277F
330
2772
100
AcDbEntity
  8
CENTER
100
AcDbLine
 10
128.3772345200254
 20
49.12465695118311
 30
0.0
 11
120.3772345200254
 21
49.12465695118311
 31
0.0
  0
LINE
  5
2780
330
2772
100
AcDbEntity
  8
DOTTED
100
AcDbLine
 10
110.3772345200254
 20
70.12465695118311
 30
0.0
 11
127.8772345200254
 21
70.12465695118311
 31
0.0
  0
LINE
  5
2781
330
2772
100
AcDbEntity
  8
DOTTED
100
AcDbLine
 10
110.3772345200254
 20
53.12465695118311
 30
0.0
 11
127.8772345200254
 21
53.12465695118311
 31
0.0
  0
CIRCLE
  5
2782
330
2772
100
AcDbEntity
  8
DOTTED
100
AcDbCircle
 10
124.3772345200254
 20
74.12465695118311
 30
0.0
 40
3.0
  0
LINE
  5
2783
330
2772
100
AcDbEntity
  8
DOTTED
100
AcDbLine
 10
127.3772345200254
 20
26.90521495118309
 30
0.0
 11
121.3772345200254
 21
26.90521495118309
 31
0.0
  0
LINE
  5
2784
102
{ACAD_REACTORS
330
2798
102
}
330
2772
100
AcDbEntity
  8
CONTINUOUS
100
AcDbLine
 10
110.3772345200254
 20
22.90521495118309
 30
0.0
 11
127.8772345200254
 21
22.90521495118309
 31
0.0
  0
LINE
  5
2785
330
2772
100
AcDbEntity
  8
DOTTED
100
AcDbLine
 10
110.3772345200254
 20
24.40521495118309
 30
0.0
 11
127.8772345200254
 21
24.40521495118309
 31
0.0
  0
LINE
  5
2786
330
2772
100
AcDbEntity
  8
DOTTED
100
AcDbLine
 10
110.3772345200254
 20
28.40521495118309
 30
0.0
 11
127.8772345200254
 21
28.40521495118309
 31
0.0
  0
LINE
  5
2787
102
{ACAD_REACTORS
330
277C
102
}
330
2772
100
AcDbEntity
  8
CONTINUOUS
100
AcDbLine
 10
50.87723452002546
 20
78.12465695118311
 30
0.0
 11
127.8772345200254
 21
78.12465695118311
 31
0.0
  0
LINE
  5
2788
102
{ACAD_REACTORS
330
27B4
102
}
330
2772
100
AcDbEntity
  8
CONTINUOUS
100
AcDbLine
 10
50.87723452002546
 20
45.12465695118311
 30
0.0
 11
127.8772345200254
 21
45.12465695118311
 31
0.0
  0
LINE
  5
2789
330
2772
100
AcDbEntity
  8
CENTER
100
AcDbLine
 10
49.87723452002548
 20
61.62465695118311
 30
0.0
 11
128.8772345200254
 21
61.62465695118311
 31
0.0
  0
LINE
  5
278A
102
{ACAD_REACTORS
330
278D
102
}
330
2772
100
AcDbEntity
  8
CONTINUOUS
100
AcDbLine
 10
50.87723452002546
 20
30.90521495118309
 30
0.0
 11
127.8772345200254
 21
30.90521495118309
 31
0.0
  0
DIMENSION
  5
278B
102
{ACAD_XDICTIONARY
360
278C
102
}
102
{ACAD_REACTORS
330
278D
102
}
330
2772
100
AcDbEntity
  8
0
100
AcDbDimension
280
     0
  2
*D15
 10
84.49433745630969
 20
28.40521495118309
 30
0.0
 11
84.49433745630967
 21
39.23854828451647
 31
0.0
 12
-82.70271509995074
 22
-116.1191559061198
 32
0.0
 70
   128
 71
     5
 42
2.5
 73
     0
 74
     0
 75
     0
  3
ISO-25
100
AcDbAlignedDimension
 13
89.37723452002543
 23
30.90521495118309
 33
0.0
 14
89.37723452002543
 24
28.40521495118309
 34
0.0
 50
90.0
100
AcDbRotatedDimension
  0
LINE
  5
278E
102
{ACAD_REACTORS
330
2798
102
}
330
2772
100
AcDbEntity
  8
CONTINUOUS
100
AcDbLine
 10
50.87723452002546
 20
22.90521495118309
 30
0.0
 11
74.87723452002544
 21
22.90521495118309
 31
0.0
  0
LINE
  5
278F
330
2772
100
AcDbEntity
  8
DOTTED
100
AcDbLine
 10
51.37723452002546
 20
26.90521495118309
 30
0.0
 11
57.37723452002548
 21
26.90521495118309
 31
0.0
  0
LINE
  5
2790
330
2772
100
AcDbEntity
  8
DOTTED
100
AcDbLine
 10
51.37723452002546
 20
26.90521495118309
 30
0.0
 11
51.37723452002546
 21
22.90521495118309
 31
0.0
  0
LINE
  5
2791
330
2772
100
AcDbEntity
  8
CONTINUOUS
100
AcDbLine
 10
50.87723452002546
 20
30.90521495118309
 30
0.0
 11
50.87723452002546
 21
22.90521495118309
 31
0.0
  0
LINE
  5
2792
330
2772
100
AcDbEntity
  8
DOTTED
100
AcDbLine
 10
52.77723452002543
 20
30.90521495118309
 30
0.0
 11
52.77723452002543
 21
26.90521495118309
 31
0.0
  0
LINE
  5
2793
330
2772
100
AcDbEntity
  8
DOTTED
100
AcDbLine
 10
57.37723452002548
 20
26.90521495118309
 30
0.0
 11
57.37723452002548
 21
22.90521495118309
 31
0.0
  0
LINE
  5
2794
330
2772
100
AcDbEntity
  8
CENTER
100
AcDbLine
 10
54.37723452002547
 20
31.90521495118309
 30
0.0
 11
54.37723452002547
 21
21.90521495118309
 31
0.0
  0
LINE
  5
2795
330
2772
100
AcDbEntity
  8
DOTTED
100
AcDbLine
 10
55.97723452002544
 20
30.90521495118309
 30
0.0
 11
55.97723452002544
 21
26.90521495118309
 31
0.0
  0
DIMENSION
  5
2796
102
{ACAD_XDICTIONARY
360
2797
102
}
102
{ACAD_REACTORS
330
2798
102
}
330
2772
100
AcDbEntity
  8
0
100
AcDbDimension
280
     0
  2
*D13
 10
110.3772345200254
 20
1.249999784244579
 30
0.0
 11
92.62723452002544
 21
3.333333117577907
 31
0.0
 12
-82.70271509995074
 22
-116.1191559061198
 32
0.0
 70
    32
 71
     5
 42
35.5
 73
     0
 74
     0
 75
     0
  3
ISO-25
100
AcDbAlignedDimension
 13
74.87723452002544
 23
22.90521495118309
 33
0.0
 14
110.3772345200254
 24
22.90521495118309
 34
0.0
100
AcDbRotatedDimension
  0
LINE
  5
2799
102
{ACAD_REACTORS
330
278D
102
}
330
2772
100
AcDbEntity
  8
CONTINUOUS
100
AcDbLine
 10
74.87723452002544
 20
28.40521495118309
 30
0.0
 11
110.3772345200254
 21
28.40521495118309
 31
0.0
  0
DIMENSION
  5
279A
102
{ACAD_XDICTIONARY
360
279B
102
}
102
{ACAD_REACTORS
330
279C
102
}
330
2772
100
AcDbEntity
  8
0
100
AcDbDimension
280
     0
  2
*D14
 10
89.37723452002543
 20
14.01768874996801
 30
0.0
 11
82.12723452002544
 21
16.10102208330135
 31
0.0
 12
-82.70271509995074
 22
-116.1191559061198
 32
0.0
 70
    32
 71
     5
 42
14.5
 73
     0
 74
     0
 75
     0
  3
ISO-25
100
AcDbAlignedDimension
 13
74.87723452002544
 23
22.28021495118309
 33
0.0
 14
89.37723452002543
 24
27.4052149511831
 34
0.0
100
AcDbRotatedDimension
  0
LINE
  5
279D
330
2772
100
AcDbEntity
  8
CONTINUOUS
100
AcDbLine
 10
76.37723452002544
 20
26.90521495118309
 30
0.0
 11
76.87723452002543
 21
26.4052149511831
 31
0.0
  0
LINE
  5
279E
330
2772
100
AcDbEntity
  8
CONTINUOUS
100
AcDbLine
 10
74.87723452002544
 20
22.90521495118309
 30
0.0
 11
74.87723452002544
 21
28.40521495118309
 31
0.0
  0
LINE
  5
279F
330
2772
100
AcDbEntity
  8
CONTINUOUS
100
AcDbLine
 10
76.87723452002543
 20
26.4052149511831
 30
0.0
 11
76.87723452002543
 21
25.90521495118309
 31
0.0
  0
LINE
  5
27A0
330
2772
100
AcDbEntity
  8
CONTINUOUS
100
AcDbLine
 10
76.87723452002543
 20
25.90521495118309
 30
0.0
 11
74.87723452002544
 21
22.90521495118309
 31
0.0
  0
LINE
  5
27A1
330
2772
100
AcDbEntity
  8
CONTINUOUS
100
AcDbLine
 10
74.87723452002544
 20
26.90521495118309
 30
0.0
 11
76.37723452002544
 21
26.90521495118309
 31
0.0
  0
LINE
  5
27A2
102
{ACAD_REACTORS
330
279C
330
278D
102
}
330
2772
100
AcDbEntity
  8
CENTER
100
AcDbLine
 10
89.37723452002543
 20
31.90521495118309
 30
0.0
 11
89.37723452002543
 21
27.4052149511831
 31
0.0
  0
LINE
  5
27A3
330
2772
100
AcDbEntity
  8
CONTINUOUS
100
AcDbLine
 10
110.3772345200254
 20
28.40521495118309
 30
0.0
 11
110.3772345200254
 21
22.90521495118309
 31
0.0
  0
LINE
  5
27A4
330
2772
100
AcDbEntity
  8
CONTINUOUS
100
AcDbLine
 10
107.5894215200254
 20
26.72839295118313
 30
0.0
 11
110.3772345200254
 21
24.40521495118309
 31
0.0
  0
LINE
  5
27A5
330
2772
100
AcDbEntity
  8
CONTINUOUS
100
AcDbLine
 10
108.8772345200254
 20
28.40521495118309
 30
0.0
 11
108.8772345200254
 21
26.90521495118309
 31
0.0
  0
ARC
  5
27A6
330
2772
100
AcDbEntity
  8
CONTINUOUS
100
AcDbCircle
 10
107.6534395200254
 20
26.80521495118313
 30
0.0
 40
0.1
100
AcDbArc
 50
90.0
 51
230.1944289999996
  0
LINE
  5
27A7
330
2772
100
AcDbEntity
  8
CONTINUOUS
100
AcDbLine
 10
107.6534395200254
 20
26.90521495118309
 30
0.0
 11
108.8772345200254
 21
26.90521495118309
 31
0.0
  0
LINE
  5
27A8
330
2772
100
AcDbEntity
  8
DOTTED
100
AcDbLine
 10
121.3772345200254
 20
26.90521495118309
 30
0.0
 11
121.3772345200254
 21
22.90521495118309
 31
0.0
  0
LINE
  5
27A9
330
2772
100
AcDbEntity
  8
CENTER
100
AcDbLine
 10
124.3772345200254
 20
31.90521495118309
 30
0.0
 11
124.3772345200254
 21
21.90521495118309
 31
0.0
  0
LINE
  5
27AA
330
2772
100
AcDbEntity
  8
DOTTED
100
AcDbLine
 10
122.7772345200254
 20
30.90521495118309
 30
0.0
 11
122.7772345200254
 21
26.90521495118309
 31
0.0
  0
LINE
  5
27AB
330
2772
100
AcDbEntity
  8
DOTTED
100
AcDbLine
 10
125.9772345200254
 20
30.90521495118309
 30
0.0
 11
125.9772345200254
 21
26.90521495118309
 31
0.0
  0
DIMENSION
  5
27AC
102
{ACAD_XDICTIONARY
360
27AD
102
}
102
{ACAD_REACTORS
330
27AE
102
}
330
2772
100
AcDbEntity
  8
DOTTED
  6
Continuous
100
AcDbDimension
280
     0
  2
*D11
 10
124.3772345200254
 20
81.56184641790416
 30
0.0
 11
89.37723452002547
 21
83.43684641790416
 31
0.0
 12
-82.70271509995074
 22
-116.1191559061198
 32
0.0
 70
    32
 71
     5
 42
69.99999999999997
 73
     0
 74
     0
 75
     0
  3
ISO-25
100
AcDbAlignedDimension
 13
54.37723452002547
 23
78.12465695118311
 33
0.0
 14
124.3772345200254
 24
78.12465695118311
 34
0.0
100
AcDbRotatedDimension
  0
DIMENSION
  5
27AF
102
{ACAD_XDICTIONARY
360
27B0
102
}
102
{ACAD_REACTORS
330
27B1
102
}
330
2772
100
AcDbEntity
  8
DOTTED
  6
Continuous
100
AcDbDimension
280
     0
  2
*D10
 10
47.8241698943861
 20
49.12465695118311
 30
0.0
 11
45.94916989438607
 21
61.62465695118314
 31
0.0
 12
-82.70271509995074
 22
-116.1191559061198
 32
0.0
 70
    32
 71
     5
 42
25.0
 73
     0
 74
     0
 75
     0
  3
ISO-25
100
AcDbAlignedDimension
 13
50.37723452002548
 23
74.12465695118311
 33
0.0
 14
50.37723452002548
 24
49.12465695118311
 34
0.0
 50
90.0
100
AcDbRotatedDimension
  0
DIMENSION
  5
27B2
102
{ACAD_XDICTIONARY
360
27B3
102
}
102
{ACAD_REACTORS
330
27B4
102
}
330
2772
100
AcDbEntity
  8
0
100
AcDbDimension
280
     0
  2
*D6
 10
38.23140221161464
 20
45.12465695118311
 30
0.0
 11
36.35640221161461
 21
61.62465695118314
 31
0.0
 12
-82.70271509995074
 22
-116.1191559061198
 32
0.0
 70
    32
 71
     5
 42
33.0
 73
     0
 74
     0
 75
     0
  3
ISO-25
100
AcDbAlignedDimension
 13
50.87723452002546
 23
78.12465695118311
 33
0.0
 14
50.87723452002546
 24
45.12465695118311
 34
0.0
 50
90.0
100
AcDbRotatedDimension
  0
LINE
  5
27B5
330
2772
100
AcDbEntity
  8
CONTINUOUS
100
AcDbLine
 10
50.87723452002546
 20
78.12465695118311
 30
0.0
 11
50.87723452002546
 21
45.12465695118311
 31
0.0
  0
CIRCLE
  5
27B6
330
2772
100
AcDbEntity
  8
DOTTED
100
AcDbCircle
 10
54.37723452002547
 20
49.12465695118311
 30
0.0
 40
3.0
  0
CIRCLE
  5
27B7
330
2772
100
AcDbEntity
  8
CONTINUOUS
100
AcDbCircle
 10
54.37723452002547
 20
49.12465695118311
 30
0.0
 40
1.6
  0
LINE
  5
27B8
102
{ACAD_REACTORS
330
27B1
102
}
330
2772
100
AcDbEntity
  8
CENTER
100
AcDbLine
 10
58.37723452002546
 20
49.12465695118311
 30
0.0
 11
50.37723452002548
 21
49.12465695118311
 31
0.0
  0
LINE
  5
27B9
330
2772
100
AcDbEntity
  8
CENTER
100
AcDbLine
 10
54.37723452002547
 20
53.12465695118311
 30
0.0
 11
54.37723452002547
 21
45.12465695118311
 31
0.0
  0
CIRCLE
  5
27BA
330
2772
100
AcDbEntity
  8
CONTINUOUS
100
AcDbCircle
 10
54.37723452002547
 20
74.12465695118311
 30
0.0
 40
1.6
  0
LINE
  5
27BB
102
{ACAD_REACTORS
330
27B1
102
}
330
2772
100
AcDbEntity
  8
CENTER
100
AcDbLine
 10
58.37723452002546
 20
74.12465695118311
 30
0.0
 11
50.37723452002548
 21
74.12465695118311
 31
0.0
  0
CIRCLE
  5
27BC
330
2772
100
AcDbEntity
  8
DOTTED
100
AcDbCircle
 10
54.37723452002547
 20
74.12465695118311
 30
0.0
 40
3.0
  0
LINE
  5
27BD
102
{ACAD_REACTORS
330
27AE
102
}
330
2772
100
AcDbEntity
  8
CENTER
100
AcDbLine
 10
54.37723452002547
 20
78.12465695118311
 30
0.0
 11
54.37723452002547
 21
70.12465695118311
 31
0.0
  0
LINE
  5
27BE
330
2772
100
AcDbEntity
  8
CENTER
100
AcDbLine
 10
89.37723452002543
 20
79.12465695118311
 30
0.0
 11
89.37723452002543
 21
44.12465695118311
 31
0.0
  0
LINE
  5
27BF
330
2772
100
AcDbEntity
  8
DOTTED
100
AcDbLine
 10
74.87723452002544
 20
78.12465695118311
 30
0.0
 11
74.87723452002544
 21
45.12465695118311
 31
0.0
  0
LINE
  5
27C0
330
2772
100
AcDbEntity
  8
DOTTED
100
AcDbLine
 10
76.87723452002543
 20
51.62465695118311
 30
0.0
 11
76.87723452002543
 21
48.62465695118311
 31
0.0
  0
LINE
  5
27C1
330
2772
100
AcDbEntity
  8
DOTTED
100
AcDbLine
 10
76.87723452002543
 20
48.62465695118311
 30
0.0
 11
74.87723452002544
 21
48.62465695118311
 31
0.0
  0
LINE
  5
27C2
330
2772
100
AcDbEntity
  8
DOTTED
100
AcDbLine
 10
74.87723452002544
 20
51.62465695118311
 30
0.0
 11
76.87723452002543
 21
51.62465695118311
 31
0.0
  0
LINE
  5
27C3
330
2772
100
AcDbEntity
  8
DOTTED
100
AcDbLine
 10
76.87723452002543
 20
74.62465695118311
 30
0.0
 11
76.87723452002543
 21
71.62465695118311
 31
0.0
  0
LINE
  5
27C4
330
2772
100
AcDbEntity
  8
DOTTED
100
AcDbLine
 10
74.87723452002544
 20
71.62465695118311
 30
0.0
 11
76.87723452002543
 21
71.62465695118311
 31
0.0
  0
LINE
  5
27C5
330
2772
100
AcDbEntity
  8
DOTTED
100
AcDbLine
 10
74.87723452002544
 20
74.62465695118311
 30
0.0
 11
76.87723452002543
 21
74.62465695118311
 31
0.0
  0
LINE
  5
27C6
330
2772
100
AcDbEntity
  8
DOTTED
100
AcDbLine
 10
107.3772345200254
 20
68.87465695118311
 30
0.0
 11
107.3772345200254
 21
54.37465695118311
 31
0.0
  0
LINE
  5
27C7
330
2772
100
AcDbEntity
  8
DOTTED
100
AcDbLine
 10
110.3772345200254
 20
78.12465695118311
 30
0.0
 11
110.3772345200254
 21
45.12465695118311
 31
0.0
  0
LINE
  5
27C8
330
2772
100
AcDbEntity
  8
DOTTED
100
AcDbLine
 10
110.3772345200254
 20
54.37465695118311
 30
0.0
 11
107.3772345200254
 21
54.37465695118311
 31
0.0
  0
LINE
  5
27C9
330
2772
100
AcDbEntity
  8
CENTER
100
AcDbLine
 10
124.3772345200254
 20
53.12465695118311
 30
0.0
 11
124.3772345200254
 21
45.12465695118311
 31
0.0
  0
CIRCLE
  5
27CA
102
{ACAD_REACTORS
330
2776
102
}
330
2772
100
AcDbEntity
  8
CONTINUOUS
100
AcDbCircle
 10
124.3772345200254
 20
49.12465695118311
 30
0.0
 40
1.6
  0
LINE
  5
27CB
330
2772
100
AcDbEntity
  8
DOTTED
100
AcDbLine
 10
107.3772345200254
 20
68.87465695118311
 30
0.0
 11
110.3772345200254
 21
68.87465695118311
 31
0.0
  0
CIRCLE
  5
27CC
330
2772
100
AcDbEntity
  8
CONTINUOUS
100
AcDbCircle
 10
124.3772345200254
 20
74.12465695118311
 30
0.0
 40
1.6
  0
LINE
  5
27CD
102
{ACAD_REACTORS
330
27AE
102
}
330
2772
100
AcDbEntity
  8
CENTER
100
AcDbLine
 10
124.3772345200254
 20
78.12465695118311
 30
0.0
 11
124.3772345200254
 21
70.12465695118311
 31
0.0
  0
DIMENSION
  5
27CE
102
{ACAD_XDICTIONARY
360
27CF
102
}
102
{ACAD_REACTORS
330
27D0
102
}
330
2772
100
AcDbEntity
  8
0
100
AcDbDimension
280
     0
  2
*D17
 10
141.5407239811202
 20
24.40521495118309
 30
0.0
 11
139.6657239811201
 21
26.40521495118315
 31
0.0
 12
-82.70271509995074
 22
-116.1191559061198
 32
0.0
 70
    32
 71
     5
 42
4.0
 73
     0
 74
     0
 75
     0
  3
ISO-25
100
AcDbAlignedDimension
 13
132.8772345200254
 23
28.40521495118309
 33
0.0
 14
132.8772345200254
 24
24.40521495118309
 34
0.0
 50
90.0
100
AcDbRotatedDimension
  0
MTEXT
  5
27D1
330
2772
100
AcDbEntity
  8
0
100
AcDbMText
 10
127.5840091692676
 20
14.18810364899849
 30
0.0
 40
2.5
 41
24.44409999999999
 46
0.0
 71
     1
 72
     5
  1
M3{\fMS UI Gothic|b0|i0|c128|p17;ネジ用穴}
 73
     1
 44
1.0
  0
LINE
  5
27D2
330
2772
100
AcDbEntity
  8
CONTINUOUS
100
AcDbLine
 10
133.3772345200254
 20
27.90521495118309
 30
0.0
 11
133.3772345200254
 21
24.9052149511831
 31
0.0
  0
LINE
  5
27D3
330
2772
100
AcDbEntity
  8
DOTTED
100
AcDbLine
 10
128.8772345200254
 20
28.40521495118309
 30
0.0
 11
128.8772345200254
 21
24.40521495118309
 31
0.0
  0
LINE
  5
27D4
102
{ACAD_REACTORS
330
27D0
102
}
330
2772
100
AcDbEntity
  8
DOTTED
100
AcDbLine
 10
132.8772345200254
 20
28.40521495118309
 30
0.0
 11
132.8772345200254
 21
24.40521495118309
 31
0.0
  0
LINE
  5
27D5
330
2772
100
AcDbEntity
  8
DOTTED
100
AcDbLine
 10
130.8772345200254
 20
28.40521495118309
 30
0.0
 11
130.8772345200254
 21
24.40521495118309
 31
0.0
  0
LINE
  5
27D6
330
2772
100
AcDbEntity
  8
DOTTED
100
AcDbLine
 10
127.3772345200254
 20
26.90521495118309
 30
0.0
 11
127.3772345200254
 21
22.90521495118309
 31
0.0
  0
LINE
  5
27D7
330
2772
100
AcDbEntity
  8
CONTINUOUS
100
AcDbLine
 10
127.8772345200254
 20
30.90521495118309
 30
0.0
 11
127.8772345200254
 21
22.90521495118309
 31
0.0
  0
LINE
  5
27D8
330
2772
100
AcDbEntity
  8
CONTINUOUS
100
AcDbLine
 10
127.8772345200254
 20
24.40521495118309
 30
0.0
 11
132.8772345200254
 21
24.40521495118309
 31
0.0
  0
ARC
  5
27D9
330
2772
100
AcDbEntity
  8
CONTINUOUS
100
AcDbCircle
 10
132.8772345200254
 20
24.9052149511831
 30
0.0
 40
0.5
100
AcDbArc
 50
270.0
 51
0.0
  0
LINE
  5
27DA
330
2772
100
AcDbEntity
  8
CONTINUOUS
100
AcDbLine
 10
127.8772345200254
 20
28.40521495118309
 30
0.0
 11
132.8772345200254
 21
28.40521495118309
 31
0.0
  0
ARC
  5
27DB
330
2772
100
AcDbEntity
  8
CONTINUOUS
100
AcDbCircle
 10
132.8772345200254
 20
27.90521495118309
 30
0.0
 40
0.5
100
AcDbArc
 50
0.0
 51
90.0
  0
DIMENSION
  5
27DC
102
{ACAD_XDICTIONARY
360
27DD
102
}
102
{ACAD_REACTORS
330
27DE
102
}
330
2772
100
AcDbEntity
  8
DOTTED
  6
Continuous
100
AcDbDimension
280
     0
  2
*D12
 10
151.2535705200254
 20
81.56184641790416
 30
0.0
 11
153.2535705200254
 21
83.43684641790416
 31
0.0
 12
-82.70271509995074
 22
-116.1191559061198
 32
0.0
 70
    32
 71
     5
 42
4.0
 73
     0
 74
     0
 75
     0
  3
ISO-25
100
AcDbAlignedDimension
 13
155.2535705200254
 23
77.12465695118311
 33
0.0
 14
151.2535705200254
 24
78.12465695118311
 34
0.0
100
AcDbRotatedDimension
  0
DIMENSION
  5
27DF
102
{ACAD_XDICTIONARY
360
27E0
102
}
102
{ACAD_REACTORS
330
27E1
102
}
330
2772
100
AcDbEntity
  8
0
100
AcDbDimension
280
     0
  2
*D7
 10
159.2535705200254
 20
90.03236956525467
 30
0.0
 11
155.2535705200254
 21
91.90736956525467
 31
0.0
 12
-82.70271509995074
 22
-116.1191559061198
 32
0.0
 70
    32
 71
     5
 42
8.0
 73
     0
 74
     0
 75
     0
  3
ISO-25
100
AcDbAlignedDimension
 13
151.2535705200254
 23
78.12465695118311
 33
0.0
 14
159.2535705200254
 24
78.12465695118311
 34
0.0
100
AcDbRotatedDimension
  0
LINE
  5
27E2
330
2772
100
AcDbEntity
  8
CENTER
100
AcDbLine
 10
150.2535705200254
 20
74.12465695118311
 30
0.0
 11
160.2535705200254
 21
74.12465695118311
 31
0.0
  0
LINE
  5
27E3
330
2772
100
AcDbEntity
  8
CENTER
100
AcDbLine
 10
150.2535705200254
 20
49.12465695118311
 30
0.0
 11
160.2535705200254
 21
49.12465695118311
 31
0.0
  0
DIMENSION
  5
27E4
102
{ACAD_XDICTIONARY
360
27E5
102
}
102
{ACAD_REACTORS
330
27E6
102
}
330
2772
100
AcDbEntity
  8
0
100
AcDbDimension
280
     0
  2
*D8
 10
141.4838011136295
 20
53.12465695118311
 30
0.0
 11
139.6088011136294
 21
61.62465695118317
 31
0.0
 12
-82.70271509995074
 22
-116.1191559061198
 32
0.0
 70
    32
 71
     5
 42
17.0
 73
     0
 74
     0
 75
     0
  3
ISO-25
100
AcDbAlignedDimension
 13
132.8772345200254
 23
70.12465695118311
 33
0.0
 14
132.8772345200254
 24
53.12465695118311
 34
0.0
 50
90.0
100
AcDbRotatedDimension
  0
LINE
  5
27E7
330
2772
100
AcDbEntity
  8
CONTINUOUS
100
AcDbLine
 10
153.7535705200254
 20
70.12465695118311
 30
0.0
 11
153.7535705200254
 21
53.12465695118311
 31
0.0
  0
LINE
  5
27E8
330
2772
100
AcDbEntity
  8
CONTINUOUS
100
AcDbLine
 10
157.7535705200254
 20
70.12465695118311
 30
0.0
 11
157.7535705200254
 21
53.12465695118311
 31
0.0
  0
LINE
  5
27E9
102
{ACAD_REACTORS
330
27E1
102
}
330
2772
100
AcDbEntity
  8
CONTINUOUS
100
AcDbLine
 10
151.2535705200254
 20
78.12465695118311
 30
0.0
 11
151.2535705200254
 21
45.12465695118311
 31
0.0
  0
LINE
  5
27EA
102
{ACAD_REACTORS
330
2779
102
}
330
2772
100
AcDbEntity
  8
CONTINUOUS
100
AcDbLine
 10
133.3772345200254
 20
69.62465695118311
 30
0.0
 11
133.3772345200254
 21
53.62465695118311
 31
0.0
  0
LINE
  5
27EB
330
2772
100
AcDbEntity
  8
CONTINUOUS
100
AcDbLine
 10
127.8772345200254
 20
78.12465695118311
 30
0.0
 11
127.8772345200254
 21
45.12465695118311
 31
0.0
  0
LINE
  5
27EC
102
{ACAD_REACTORS
330
27E6
102
}
330
2772
100
AcDbEntity
  8
CONTINUOUS
100
AcDbLine
 10
127.8772345200254
 20
53.12465695118311
 30
0.0
 11
132.8772345200254
 21
53.12465695118311
 31
0.0
  0
ARC
  5
27ED
330
2772
100
AcDbEntity
  8
CONTINUOUS
100
AcDbCircle
 10
132.8772345200254
 20
53.62465695118311
 30
0.0
 40
0.5
100
AcDbArc
 50
270.0
 51
0.0
  0
LINE
  5
27EE
330
2772
100
AcDbEntity
  8
DOTTED
100
AcDbLine
 10
151.2535705200254
 20
50.7246569511831
 30
0.0
 11
155.2535705200254
 21
50.7246569511831
 31
0.0
  0
LINE
  5
27EF
330
2772
100
AcDbEntity
  8
DOTTED
100
AcDbLine
 10
151.2535705200254
 20
47.52465695118312
 30
0.0
 11
155.2535705200254
 21
47.52465695118312
 31
0.0
  0
LINE
  5
27F0
330
2772
100
AcDbEntity
  8
CONTINUOUS
100
AcDbLine
 10
151.2535705200254
 20
45.12465695118311
 30
0.0
 11
159.2535705200254
 21
45.12465695118311
 31
0.0
  0
LINE
  5
27F1
330
2772
100
AcDbEntity
  8
CONTINUOUS
100
AcDbLine
 10
159.2535705200254
 20
54.12465695118311
 30
0.0
 11
159.2535705200254
 21
45.12465695118311
 31
0.0
  0
LINE
  5
27F2
330
2772
100
AcDbEntity
  8
DOTTED
100
AcDbLine
 10
155.2535705200254
 20
46.12465695118311
 30
0.0
 11
155.2535705200254
 21
52.12465695118311
 31
0.0
  0
LINE
  5
27F3
330
2772
100
AcDbEntity
  8
DOTTED
100
AcDbLine
 10
155.2535705200254
 20
46.12465695118311
 30
0.0
 11
159.2535705200254
 21
46.12465695118311
 31
0.0
  0
LINE
  5
27F4
330
2772
100
AcDbEntity
  8
CONTINUOUS
100
AcDbLine
 10
153.7535705200254
 20
53.12465695118311
 30
0.0
 11
157.7535705200254
 21
53.12465695118311
 31
0.0
  0
LINE
  5
27F5
330
2772
100
AcDbEntity
  8
DOTTED
100
AcDbLine
 10
155.2535705200254
 20
52.12465695118311
 30
0.0
 11
159.2535705200254
 21
52.12465695118311
 31
0.0
  0
LINE
  5
27F6
330
2772
100
AcDbEntity
  8
CONTINUOUS
100
AcDbLine
 10
157.7535705200254
 20
54.12465695118311
 30
0.0
 11
159.2535705200254
 21
54.12465695118311
 31
0.0
  0
ARC
  5
27F7
330
2772
100
AcDbEntity
  8
CONTINUOUS
100
AcDbCircle
 10
130.8772345200254
 20
61.62465695118311
 30
0.0
 40
2.0
100
AcDbArc
 50
270.0
 51
90.0
  0
LINE
  5
27F8
330
2772
100
AcDbEntity
  8
CONTINUOUS
100
AcDbLine
 10
128.8772345200254
 20
65.62465695118311
 30
0.0
 11
128.8772345200254
 21
57.62465695118311
 31
0.0
  0
LINE
  5
27F9
330
2772
100
AcDbEntity
  8
CONTINUOUS
100
AcDbLine
 10
128.8772345200254
 20
57.62465695118311
 30
0.0
 11
130.8772345200254
 21
57.62465695118311
 31
0.0
  0
LINE
  5
27FA
330
2772
100
AcDbEntity
  8
CONTINUOUS
100
AcDbLine
 10
130.8772345200254
 20
59.62465695118311
 30
0.0
 11
130.8772345200254
 21
57.62465695118311
 31
0.0
  0
LINE
  5
27FB
330
2772
100
AcDbEntity
  8
CONTINUOUS
100
AcDbLine
 10
130.8772345200254
 20
65.62465695118311
 30
0.0
 11
130.8772345200254
 21
63.62465695118311
 31
0.0
  0
LINE
  5
27FC
330
2772
100
AcDbEntity
  8
CONTINUOUS
100
AcDbLine
 10
128.8772345200254
 20
65.62465695118311
 30
0.0
 11
130.8772345200254
 21
65.62465695118311
 31
0.0
  0
LINE
  5
27FD
102
{ACAD_REACTORS
330
27E6
102
}
330
2772
100
AcDbEntity
  8
CONTINUOUS
100
AcDbLine
 10
127.8772345200254
 20
70.12465695118311
 30
0.0
 11
132.8772345200254
 21
70.12465695118311
 31
0.0
  0
ARC
  5
27FE
330
2772
100
AcDbEntity
  8
CONTINUOUS
100
AcDbCircle
 10
132.8772345200254
 20
69.62465695118311
 30
0.0
 40
0.5
100
AcDbArc
 50
0.0
 51
90.0
  0
LINE
  5
27FF
330
2772
100
AcDbEntity
  8
CENTER
100
AcDbLine
 10
150.2535705200254
 20
61.62465695118311
 30
0.0
 11
158.7535705200254
 21
61.62465695118311
 31
0.0
  0
LINE
  5
2800
102
{ACAD_REACTORS
330
27E1
102
}
330
2772
100
AcDbEntity
  8
CONTINUOUS
100
AcDbLine
 10
151.2535705200254
 20
78.12465695118311
 30
0.0
 11
159.2535705200254
 21
78.12465695118311
 31
0.0
  0
LINE
  5
2801
330
2772
100
AcDbEntity
  8
DOTTED
100
AcDbLine
 10
151.2535705200254
 20
75.72465695118309
 30
0.0
 11
155.2535705200254
 21
75.72465695118309
 31
0.0
  0
LINE
  5
2802
330
2772
100
AcDbEntity
  8
DOTTED
100
AcDbLine
 10
151.2535705200254
 20
72.52465695118313
 30
0.0
 11
155.2535705200254
 21
72.52465695118313
 31
0.0
  0
LINE
  5
2803
330
2772
100
AcDbEntity
  8
CONTINUOUS
100
AcDbLine
 10
159.2535705200254
 20
78.12465695118311
 30
0.0
 11
159.2535705200254
 21
69.12465695118311
 31
0.0
  0
LINE
  5
2804
102
{ACAD_REACTORS
330
27DE
102
}
330
2772
100
AcDbEntity
  8
DOTTED
100
AcDbLine
 10
155.2535705200254
 20
77.12465695118311
 30
0.0
 11
155.2535705200254
 21
71.12465695118311
 31
0.0
  0
LINE
  5
2805
330
2772
100
AcDbEntity
  8
CONTINUOUS
100
AcDbLine
 10
153.7535705200254
 20
70.12465695118311
 30
0.0
 11
157.7535705200254
 21
70.12465695118311
 31
0.0
  0
LINE
  5
2806
330
2772
100
AcDbEntity
  8
DOTTED
100
AcDbLine
 10
155.2535705200254
 20
71.12465695118311
 30
0.0
 11
159.2535705200254
 21
71.12465695118311
 31
0.0
  0
LINE
  5
2807
330
2772
100
AcDbEntity
  8
CONTINUOUS
100
AcDbLine
 10
157.7535705200254
 20
69.12465695118311
 30
0.0
 11
159.2535705200254
 21
69.12465695118311
 31
0.0
  0
LINE
  5
2808
330
2772
100
AcDbEntity
  8
DOTTED
100
AcDbLine
 10
155.2535705200254
 20
77.12465695118311
 30
0.0
 11
159.2535705200254
 21
77.12465695118311
 31
0.0
  0
MTEXT
  5
2809
330
2772
100
AcDbEntity
  8
GAIKEI
100
AcDbMText
 10
-0.000000287488092
 20
136.5341353288614
 30
0.0
 40
3.0
 41
106.2100999999999
 46
0.0
 71
     1
 72
     5
  1
{\Fsimplex.shx,bigfont.shx;DINレール取付プレート 外形図\P型番：SI-DIN70}
 73
     1
 44
1.0
  0
ENDBLK
  5
280B
330
2772
100
AcDbEntity
  8
0
100
AcDbBlockEnd
  0
BLOCK
  5
5728
330
5727
100
AcDbEntity
  8
0
100
AcDbBlockBegin
  2
_Open30
 70
     0
 10
0.0
 20
0.0
 30
0.0
  3
_Open30
  1

  0
LINE
  5
5729
330
5727
100
AcDbEntity
  8
0
  6
ByBlock
 62
     0
370
    -2
100
AcDbLine
 10
-1.0
 20
0.26794919
 30
0.0
 11
0.0
 21
0.0
 31
0.0
  0
LINE
  5
572A
330
5727
100
AcDbEntity
  8
0
  6
ByBlock
 62
     0
370
    -2
100
AcDbLine
 10
0.0
 20
0.0
 30
0.0
 11
-1.0
 21
-0.26794919
 31
0.0
  0
LINE
  5
572B
330
5727
100
AcDbEntity
  8
0
  6
ByBlock
 62
     0
370
    -2
100
AcDbLine
 10
0.0
 20
0.0
 30
0.0
 11
-1.0
 21
0.0
 31
0.0
  0
ENDBLK
  5
572C
330
5727
100
AcDbEntity
  8
0
100
AcDbBlockEnd
  0
BLOCK
  5
58EF
330
58EE
100
AcDbEntity
  8
0
100
AcDbBlockBegin
  2
*D20
 70
     1
 10
0.0
 20
0.0
 30
0.0
  3
*D20
  1

  0
LINE
  5
60AC
330
58EE
100
AcDbEntity
  8
寸法
440
 16777216
100
AcDbLine
 10
61.52546341931159
 20
199.9121287940269
 30
0.0
 11
61.52546341931159
 21
229.9121287940269
 31
0.0
  0
LINE
  5
60AD
330
58EE
100
AcDbEntity
  8
寸法
440
 16777216
100
AcDbLine
 10
117.5254634193116
 20
199.9121287940269
 30
0.0
 11
117.5254634193116
 21
229.9121287940269
 31
0.0
  0
LINE
  5
60AE
330
58EE
100
AcDbEntity
  8
寸法
440
 16777216
100
AcDbLine
 10
63.52546341931159
 20
228.9121287940269
 30
0.0
 11
115.5254634193116
 21
228.9121287940269
 31
0.0
  0
SOLID
  5
60AF
330
58EE
100
AcDbEntity
  8
寸法
440
 16777216
100
AcDbTrace
 10
63.52546341931159
 20
229.2454621273602
 30
0.0
 11
63.52546341931159
 21
228.5787954606936
 31
0.0
 12
61.52546341931159
 22
228.9121287940269
 32
0.0
 13
61.52546341931159
 23
228.9121287940269
 33
0.0
  0
SOLID
  5
60B0
330
58EE
100
AcDbEntity
  8
寸法
440
 16777216
100
AcDbTrace
 10
115.5254634193116
 20
229.2454621273602
 30
0.0
 11
115.5254634193116
 21
228.5787954606936
 31
0.0
 12
117.5254634193116
 22
228.9121287940269
 32
0.0
 13
117.5254634193116
 23
228.9121287940269
 33
0.0
  0
MTEXT
  5
60B1
330
58EE
100
AcDbEntity
  8
寸法
440
 16777216
100
AcDbMText
 10
89.52546341931158
 20
231.1621287940269
 30
0.0
 40
2.5
 41
0.0
 46
0.0
 71
     5
 72
     1
  1
\A1;56
 73
     1
 44
1.0
  0
POINT
  5
60B2
330
58EE
100
AcDbEntity
  8
Defpoints
 62
     0
440
 16777216
100
AcDbPoint
 10
61.52546341931159
 20
198.9121287940269
 30
0.0
  0
POINT
  5
60B3
330
58EE
100
AcDbEntity
  8
Defpoints
 62
     0
440
 16777216
100
AcDbPoint
 10
117.5254634193116
 20
198.9121287940269
 30
0.0
  0
POINT
  5
60B4
330
58EE
100
AcDbEntity
  8
Defpoints
 62
     0
440
 16777216
100
AcDbPoint
 10
117.5254634193116
 20
228.9121287940269
 30
0.0
  0
ENDBLK
  5
58F0
330
58EE
100
AcDbEntity
  8
0
100
AcDbBlockEnd
  0
BLOCK
  5
58FB
330
58FA
100
AcDbEntity
  8
0
100
AcDbBlockBegin
  2
*D21
 70
     1
 10
0.0
 20
0.0
 30
0.0
  3
*D21
  1

  0
LINE
  5
60B5
330
58FA
100
AcDbEntity
  8
寸法
440
 16777216
100
AcDbLine
 10
118.5254634193116
 20
198.9121287940269
 30
0.0
 11
148.5254634193116
 21
198.9121287940269
 31
0.0
  0
LINE
  5
60B6
330
58FA
100
AcDbEntity
  8
寸法
440
 16777216
100
AcDbLine
 10
118.5254634193116
 20
146.9121287940269
 30
0.0
 11
148.5254634193116
 21
146.9121287940269
 31
0.0
  0
LINE
  5
60B7
330
58FA
100
AcDbEntity
  8
寸法
440
 16777216
100
AcDbLine
 10
147.5254634193116
 20
196.9121287940269
 30
0.0
 11
147.5254634193116
 21
148.9121287940269
 31
0.0
  0
SOLID
  5
60B8
330
58FA
100
AcDbEntity
  8
寸法
440
 16777216
100
AcDbTrace
 10
147.1921300859783
 20
196.9121287940269
 30
0.0
 11
147.8587967526449
 21
196.9121287940269
 31
0.0
 12
147.5254634193116
 22
198.9121287940269
 32
0.0
 13
147.5254634193116
 23
198.9121287940269
 33
0.0
  0
SOLID
  5
60B9
330
58FA
100
AcDbEntity
  8
寸法
440
 16777216
100
AcDbTrace
 10
147.1921300859782
 20
148.9121287940269
 30
0.0
 11
147.8587967526449
 21
148.9121287940269
 31
0.0
 12
147.5254634193116
 22
146.9121287940269
 32
0.0
 13
147.5254634193116
 23
146.9121287940269
 33
0.0
  0
MTEXT
  5
60BA
330
58FA
100
AcDbEntity
  8
寸法
440
 16777216
100
AcDbMText
 10
145.2754634193115
 20
172.9121287940269
 30
0.0
 40
2.5
 41
0.0
 46
0.0
 71
     5
 72
     1
  1
\A1;52
 11
0.0000000000000001
 21
1.0
 31
0.0
 73
     1
 44
1.0
  0
POINT
  5
60BB
330
58FA
100
AcDbEntity
  8
Defpoints
 62
     0
440
 16777216
100
AcDbPoint
 10
117.5254634193116
 20
198.9121287940269
 30
0.0
  0
POINT
  5
60BC
330
58FA
100
AcDbEntity
  8
Defpoints
 62
     0
440
 16777216
100
AcDbPoint
 10
117.5254634193116
 20
146.9121287940269
 30
0.0
  0
POINT
  5
60BD
330
58FA
100
AcDbEntity
  8
Defpoints
 62
     0
440
 16777216
100
AcDbPoint
 10
147.5254634193116
 20
146.9121287940269
 30
0.0
  0
ENDBLK
  5
58FC
330
58FA
100
AcDbEntity
  8
0
100
AcDbBlockEnd
  0
BLOCK
  5
5907
330
5906
100
AcDbEntity
  8
0
100
AcDbBlockBegin
  2
*D22
 70
     1
 10
0.0
 20
0.0
 30
0.0
  3
*D22
  1

  0
LINE
  5
60BE
330
5906
100
AcDbEntity
  8
寸法
440
 16777216
100
AcDbLine
 10
116.7712568134991
 20
150.9122297129436
 30
0.0
 11
142.5254634193116
 21
150.9122297129436
 31
0.0
  0
LINE
  5
60BF
330
5906
100
AcDbEntity
  8
寸法
440
 16777216
100
AcDbLine
 10
114.5254634193116
 20
190.9121287940269
 30
0.0
 11
142.5254634193116
 21
190.9121287940269
 31
0.0
  0
LINE
  5
60C0
330
5906
100
AcDbEntity
  8
寸法
440
 16777216
100
AcDbLine
 10
141.5254634193116
 20
152.9122297129436
 30
0.0
 11
141.5254634193116
 21
188.9121287940269
 31
0.0
  0
SOLID
  5
60C1
330
5906
100
AcDbEntity
  8
寸法
440
 16777216
100
AcDbTrace
 10
141.1921300859782
 20
152.9122297129436
 30
0.0
 11
141.8587967526449
 21
152.9122297129436
 31
0.0
 12
141.5254634193116
 22
150.9122297129436
 32
0.0
 13
141.5254634193116
 23
150.9122297129436
 33
0.0
  0
SOLID
  5
60C2
330
5906
100
AcDbEntity
  8
寸法
440
 16777216
100
AcDbTrace
 10
141.1921300859782
 20
188.9121287940269
 30
0.0
 11
141.8587967526449
 21
188.9121287940269
 31
0.0
 12
141.5254634193116
 22
190.9121287940269
 32
0.0
 13
141.5254634193116
 23
190.9121287940269
 33
0.0
  0
MTEXT
  5
60C3
330
5906
100
AcDbEntity
  8
寸法
440
 16777216
100
AcDbMText
 10
139.2754634193115
 20
170.9121792534853
 30
0.0
 40
2.5
 41
0.0
 46
0.0
 71
     5
 72
     1
  1
\A1;40
 11
0.0000000000000001
 21
1.0
 31
0.0
 73
     1
 44
1.0
  0
POINT
  5
60C4
330
5906
100
AcDbEntity
  8
Defpoints
 62
     0
440
 16777216
100
AcDbPoint
 10
115.7712568134991
 20
150.9122297129436
 30
0.0
  0
POINT
  5
60C5
330
5906
100
AcDbEntity
  8
Defpoints
 62
     0
440
 16777216
100
AcDbPoint
 10
113.5254634193116
 20
190.9121287940269
 30
0.0
  0
POINT
  5
60C6
330
5906
100
AcDbEntity
  8
Defpoints
 62
     0
440
 16777216
100
AcDbPoint
 10
141.5254634193116
 20
190.9121287940269
 30
0.0
  0
ENDBLK
  5
5908
330
5906
100
AcDbEntity
  8
0
100
AcDbBlockEnd
  0
BLOCK
  5
5913
330
5912
100
AcDbEntity
  8
0
100
AcDbBlockBegin
  2
*D23
 70
     1
 10
0.0
 20
0.0
 30
0.0
  3
*D23
  1

  0
LINE
  5
60C7
330
5912
100
AcDbEntity
  8
寸法
440
 16777216
100
AcDbLine
 10
118.5254634193116
 20
146.9121287940269
 30
0.0
 11
142.5254634193116
 21
146.9121287940269
 31
0.0
  0
LINE
  5
60C8
330
5912
100
AcDbEntity
  8
寸法
440
 16777216
100
AcDbLine
 10
114.5112568134991
 20
150.9122297129436
 30
0.0
 11
142.5254634193116
 21
150.9122297129436
 31
0.0
  0
LINE
  5
60C9
330
5912
100
AcDbEntity
  8
寸法
440
 16777216
100
AcDbLine
 10
141.5254634193116
 20
144.9121287940269
 30
0.0
 11
141.5254634193116
 21
142.9121287940269
 31
0.0
  0
LINE
  5
60CA
330
5912
100
AcDbEntity
  8
寸法
440
 16777216
100
AcDbLine
 10
141.5254634193116
 20
152.9122297129436
 30
0.0
 11
141.5254634193116
 21
154.9122297129436
 31
0.0
  0
LINE
  5
60CB
330
5912
100
AcDbEntity
  8
寸法
440
 16777216
100
AcDbLine
 10
141.5254634193116
 20
146.9121287940269
 30
0.0
 11
141.5254634193116
 21
150.9122297129436
 31
0.0
  0
SOLID
  5
60CC
330
5912
100
AcDbEntity
  8
寸法
440
 16777216
100
AcDbTrace
 10
141.1921300859782
 20
144.9121287940269
 30
0.0
 11
141.8587967526449
 21
144.9121287940269
 31
0.0
 12
141.5254634193116
 22
146.9121287940269
 32
0.0
 13
141.5254634193116
 23
146.9121287940269
 33
0.0
  0
SOLID
  5
60CD
330
5912
100
AcDbEntity
  8
寸法
440
 16777216
100
AcDbTrace
 10
141.1921300859782
 20
152.9122297129436
 30
0.0
 11
141.8587967526449
 21
152.9122297129436
 31
0.0
 12
141.5254634193116
 22
150.9122297129436
 32
0.0
 13
141.5254634193116
 23
150.9122297129436
 33
0.0
  0
MTEXT
  5
60CE
330
5912
100
AcDbEntity
  8
寸法
440
 16777216
100
AcDbMText
 10
139.2754634193115
 20
148.9121792534853
 30
0.0
 40
2.5
 41
0.0
 46
0.0
 71
     5
 72
     1
  1
\A1;4
 11
0.0000000000000001
 21
1.0
 31
0.0
 73
     1
 44
1.0
  0
POINT
  5
60CF
330
5912
100
AcDbEntity
  8
Defpoints
 62
     0
440
 16777216
100
AcDbPoint
 10
117.5254634193116
 20
146.9121287940269
 30
0.0
  0
POINT
  5
60D0
330
5912
100
AcDbEntity
  8
Defpoints
 62
     0
440
 16777216
100
AcDbPoint
 10
113.5112568134991
 20
150.9122297129436
 30
0.0
  0
POINT
  5
60D1
330
5912
100
AcDbEntity
  8
Defpoints
 62
     0
440
 16777216
100
AcDbPoint
 10
141.5254634193116
 20
150.9122297129436
 30
0.0
  0
ENDBLK
  5
5914
330
5912
100
AcDbEntity
  8
0
100
AcDbBlockEnd
  0
BLOCK
  5
5921
330
5920
100
AcDbEntity
  8
0
100
AcDbBlockBegin
  2
*D24
 70
     1
 10
0.0
 20
0.0
 30
0.0
  3
*D24
  1

  0
LINE
  5
60D2
330
5920
100
AcDbEntity
  8
寸法
440
 16777216
100
AcDbLine
 10
113.5254634193116
 20
191.9121287940269
 30
0.0
 11
113.5254634193116
 21
223.9121287940269
 31
0.0
  0
LINE
  5
60D3
330
5920
100
AcDbEntity
  8
寸法
440
 16777216
100
AcDbLine
 10
65.52546341931159
 20
191.9121287940269
 30
0.0
 11
65.52546341931159
 21
223.9121287940269
 31
0.0
  0
LINE
  5
60D4
330
5920
100
AcDbEntity
  8
寸法
440
 16777216
100
AcDbLine
 10
111.5254634193116
 20
222.9121287940269
 30
0.0
 11
67.52546341931159
 21
222.9121287940269
 31
0.0
  0
SOLID
  5
60D5
330
5920
100
AcDbEntity
  8
寸法
440
 16777216
100
AcDbTrace
 10
111.5254634193116
 20
223.2454621273603
 30
0.0
 11
111.5254634193116
 21
222.5787954606936
 31
0.0
 12
113.5254634193116
 22
222.9121287940269
 32
0.0
 13
113.5254634193116
 23
222.9121287940269
 33
0.0
  0
SOLID
  5
60D6
330
5920
100
AcDbEntity
  8
寸法
440
 16777216
100
AcDbTrace
 10
67.52546341931159
 20
223.2454621273603
 30
0.0
 11
67.52546341931159
 21
222.5787954606936
 31
0.0
 12
65.52546341931159
 22
222.9121287940269
 32
0.0
 13
65.52546341931159
 23
222.9121287940269
 33
0.0
  0
MTEXT
  5
60D7
330
5920
100
AcDbEntity
  8
寸法
440
 16777216
100
AcDbMText
 10
93.53546341931158
 20
225.1621287940269
 30
0.0
 40
2.5
 41
0.0
 46
0.0
 71
     5
 72
     1
  1
\A1;48
 73
     1
 44
1.0
  0
POINT
  5
60D8
330
5920
100
AcDbEntity
  8
Defpoints
 62
     0
440
 16777216
100
AcDbPoint
 10
113.5254634193116
 20
190.9121287940269
 30
0.0
  0
POINT
  5
60D9
330
5920
100
AcDbEntity
  8
Defpoints
 62
     0
440
 16777216
100
AcDbPoint
 10
65.52546341931159
 20
190.9121287940269
 30
0.0
  0
POINT
  5
60DA
330
5920
100
AcDbEntity
  8
Defpoints
 62
     0
440
 16777216
100
AcDbPoint
 10
65.52546341931159
 20
222.9121287940269
 30
0.0
  0
ENDBLK
  5
5922
330
5920
100
AcDbEntity
  8
0
100
AcDbBlockEnd
  0
BLOCK
  5
592D
330
592C
100
AcDbEntity
  8
0
100
AcDbBlockBegin
  2
*D25
 70
     1
 10
0.0
 20
0.0
 30
0.0
  3
*D25
  1

  0
LINE
  5
60DB
330
592C
100
AcDbEntity
  8
寸法
440
 16777216
100
AcDbLine
 10
35.45172163847431
 20
200.6929773557448
 30
0.0
 11
62.43481067598113
 21
191.9172982425002
 31
0.0
  0
LINE
  5
60DC
330
592C
100
AcDbEntity
  8
寸法
440
 16777216
100
AcDbLine
 10
68.61611616264205
 20
189.9069593455536
 30
0.0
 11
70.51805631238386
 21
189.2883935311085
 31
0.0
  0
MTEXT
  5
60DD
330
592C
100
AcDbEntity
  8
寸法
440
 16777216
100
AcDbMText
 10
48.14535575719967
 20
199.3190057491009
 30
0.0
 40
2.5
 41
0.0
 46
0.0
 71
     5
 72
     1
  1
\A1;4-∅2.5キリ穴
 11
0.9509700748708997
 21
-0.3092829072225546
 31
0.0
 73
     1
 44
1.0
  0
LINE
  5
60DE
330
592C
100
AcDbEntity
  8
寸法
440
 16777216
100
AcDbLine
 10
66.71417601290025
 20
190.5255251599987
 30
0.0
 11
64.33675082572293
 21
191.2987324280551
 31
0.0
  0
SOLID
  5
60DF
330
592C
100
AcDbEntity
  8
寸法
440
 16777216
100
AcDbTrace
 10
68.71921046504958
 20
190.2239493705105
 30
0.0
 11
68.51302186023454
 21
189.5899693205966
 31
0.0
 12
66.71417601290025
 22
190.5255251599987
 32
0.0
 13
66.71417601290025
 23
190.5255251599987
 33
0.0
  0
SOLID
  5
60E0
330
592C
100
AcDbEntity
  8
寸法
440
 16777216
100
AcDbTrace
 10
62.53790497838865
 20
192.2342882674572
 30
0.0
 11
62.33171637357362
 21
191.6003082175432
 31
0.0
 12
64.33675082572293
 22
191.2987324280551
 32
0.0
 13
64.33675082572293
 23
191.2987324280551
 33
0.0
  0
POINT
  5
60E1
330
592C
100
AcDbEntity
  8
Defpoints
 62
     0
440
 16777216
100
AcDbPoint
 10
64.33675082572293
 20
191.2987324280551
 30
0.0
  0
POINT
  5
60E2
330
592C
100
AcDbEntity
  8
Defpoints
 62
     0
440
 16777216
100
AcDbPoint
 10
66.71417601290025
 20
190.5255251599987
 30
0.0
  0
ENDBLK
  5
592E
330
592C
100
AcDbEntity
  8
0
100
AcDbBlockEnd
  0
BLOCK
  5
5938
330
5937
100
AcDbEntity
  8
0
100
AcDbBlockBegin
  2
*D26
 70
     1
 10
0.0
 20
0.0
 30
0.0
  3
*D26
  1

  0
LINE
  5
60E3
330
5937
100
AcDbEntity
  8
寸法
440
 16777216
100
AcDbLine
 10
117.5254634193116
 20
199.9121287940269
 30
0.0
 11
117.5254634193116
 21
205.9121287940269
 31
0.0
  0
LINE
  5
60E4
330
5937
100
AcDbEntity
  8
寸法
440
 16777216
100
AcDbLine
 10
114.8654634193116
 20
186.9025319174279
 30
0.0
 11
114.8654634193116
 21
205.9121287940269
 31
0.0
  0
LINE
  5
60E5
330
5937
100
AcDbEntity
  8
寸法
440
 16777216
100
AcDbLine
 10
112.8654634193116
 20
204.9121287940269
 30
0.0
 11
110.8654634193116
 21
204.9121287940269
 31
0.0
  0
LINE
  5
60E6
330
5937
100
AcDbEntity
  8
寸法
440
 16777216
100
AcDbLine
 10
119.5254634193116
 20
204.9121287940269
 30
0.0
 11
130.4754634193116
 21
204.9121287940269
 31
0.0
  0
LINE
  5
60E7
330
5937
100
AcDbEntity
  8
寸法
440
 16777216
100
AcDbLine
 10
114.8654634193116
 20
204.9121287940269
 30
0.0
 11
117.5254634193116
 21
204.9121287940269
 31
0.0
  0
SOLID
  5
60E8
330
5937
100
AcDbEntity
  8
寸法
440
 16777216
100
AcDbTrace
 10
112.8654634193116
 20
205.2454621273603
 30
0.0
 11
112.8654634193116
 21
204.5787954606936
 31
0.0
 12
114.8654634193116
 22
204.9121287940269
 32
0.0
 13
114.8654634193116
 23
204.9121287940269
 33
0.0
  0
SOLID
  5
60E9
330
5937
100
AcDbEntity
  8
寸法
440
 16777216
100
AcDbTrace
 10
119.5254634193116
 20
205.2454621273603
 30
0.0
 11
119.5254634193116
 21
204.5787954606936
 31
0.0
 12
117.5254634193116
 22
204.9121287940269
 32
0.0
 13
117.5254634193116
 23
204.9121287940269
 33
0.0
  0
MTEXT
  5
60EA
330
5937
100
AcDbEntity
  8
寸法
440
 16777216
100
AcDbMText
 10
126.9754634193116
 20
207.1621287940269
 30
0.0
 40
2.5
 41
0.0
 46
0.0
 71
     5
 72
     1
  1
\A1;2.7
 73
     1
 44
1.0
  0
POINT
  5
60EB
330
5937
100
AcDbEntity
  8
Defpoints
 62
     0
440
 16777216
100
AcDbPoint
 10
117.5254634193116
 20
198.9121287940269
 30
0.0
  0
POINT
  5
60EC
330
5937
100
AcDbEntity
  8
Defpoints
 62
     0
440
 16777216
100
AcDbPoint
 10
114.8654634193116
 20
185.9025319174279
 30
0.0
  0
POINT
  5
60ED
330
5937
100
AcDbEntity
  8
Defpoints
 62
     0
440
 16777216
100
AcDbPoint
 10
114.8654634193116
 20
204.9121287940269
 30
0.0
  0
ENDBLK
  5
5939
330
5937
100
AcDbEntity
  8
0
100
AcDbBlockEnd
  0
BLOCK
  5
5946
330
5945
100
AcDbEntity
  8
0
100
AcDbBlockBegin
  2
*D27
 70
     1
 10
0.0
 20
0.0
 30
0.0
  3
*D27
  1

  0
LINE
  5
60EE
330
5945
100
AcDbEntity
  8
寸法
440
 16777216
100
AcDbLine
 10
113.5254634193116
 20
191.9121287940269
 30
0.0
 11
113.5254634193116
 21
217.9121287940269
 31
0.0
  0
LINE
  5
60EF
330
5945
100
AcDbEntity
  8
寸法
440
 16777216
100
AcDbLine
 10
82.77546341931159
 20
200.862128794027
 30
0.0
 11
82.77546341931159
 21
217.9121287940269
 31
0.0
  0
LINE
  5
60F0
330
5945
100
AcDbEntity
  8
寸法
440
 16777216
100
AcDbLine
 10
111.5254634193116
 20
216.9121287940269
 30
0.0
 11
84.77546341931159
 21
216.9121287940269
 31
0.0
  0
SOLID
  5
60F1
330
5945
100
AcDbEntity
  8
寸法
440
 16777216
100
AcDbTrace
 10
111.5254634193116
 20
217.2454621273603
 30
0.0
 11
111.5254634193116
 21
216.5787954606936
 31
0.0
 12
113.5254634193116
 22
216.9121287940269
 32
0.0
 13
113.5254634193116
 23
216.9121287940269
 33
0.0
  0
SOLID
  5
60F2
330
5945
100
AcDbEntity
  8
寸法
440
 16777216
100
AcDbTrace
 10
84.77546341931159
 20
217.2454621273603
 30
0.0
 11
84.77546341931159
 21
216.5787954606936
 31
0.0
 12
82.77546341931159
 22
216.9121287940269
 32
0.0
 13
82.77546341931159
 23
216.9121287940269
 33
0.0
  0
MTEXT
  5
60F3
330
5945
100
AcDbEntity
  8
寸法
440
 16777216
100
AcDbMText
 10
98.15046341931159
 20
219.1621287940269
 30
0.0
 40
2.5
 41
0.0
 46
0.0
 71
     5
 72
     1
  1
\A1;30.8
 73
     1
 44
1.0
  0
POINT
  5
60F4
330
5945
100
AcDbEntity
  8
Defpoints
 62
     0
440
 16777216
100
AcDbPoint
 10
113.5254634193116
 20
190.9121287940269
 30
0.0
  0
POINT
  5
60F5
330
5945
100
AcDbEntity
  8
Defpoints
 62
     0
440
 16777216
100
AcDbPoint
 10
82.77546341931159
 20
199.8621287940269
 30
0.0
  0
POINT
  5
60F6
330
5945
100
AcDbEntity
  8
Defpoints
 62
     0
440
 16777216
100
AcDbPoint
 10
82.77546341931159
 20
216.9121287940269
 30
0.0
  0
ENDBLK
  5
5947
330
5945
100
AcDbEntity
  8
0
100
AcDbBlockEnd
  0
BLOCK
  5
5952
330
5951
100
AcDbEntity
  8
0
100
AcDbBlockBegin
  2
*D28
 70
     1
 10
0.0
 20
0.0
 30
0.0
  3
*D28
  1

  0
LINE
  5
60F7
330
5951
100
AcDbEntity
  8
寸法
440
 16777216
100
AcDbLine
 10
117.5254634193116
 20
199.9121287940269
 30
0.0
 11
117.5254634193116
 21
211.9121287940269
 31
0.0
  0
LINE
  5
60F8
330
5951
100
AcDbEntity
  8
寸法
440
 16777216
100
AcDbLine
 10
113.5254634193116
 20
191.9121287940269
 30
0.0
 11
113.5254634193116
 21
211.9121287940269
 31
0.0
  0
LINE
  5
60F9
330
5951
100
AcDbEntity
  8
寸法
440
 16777216
100
AcDbLine
 10
119.5254634193116
 20
210.9121287940269
 30
0.0
 11
121.5254634193116
 21
210.9121287940269
 31
0.0
  0
LINE
  5
60FA
330
5951
100
AcDbEntity
  8
寸法
440
 16777216
100
AcDbLine
 10
111.5254634193116
 20
210.9121287940269
 30
0.0
 11
109.5254634193116
 21
210.9121287940269
 31
0.0
  0
LINE
  5
60FB
330
5951
100
AcDbEntity
  8
寸法
440
 16777216
100
AcDbLine
 10
117.5254634193116
 20
210.9121287940269
 30
0.0
 11
113.5254634193116
 21
210.9121287940269
 31
0.0
  0
SOLID
  5
60FC
330
5951
100
AcDbEntity
  8
寸法
440
 16777216
100
AcDbTrace
 10
119.5254634193116
 20
211.2454621273603
 30
0.0
 11
119.5254634193116
 21
210.5787954606936
 31
0.0
 12
117.5254634193116
 22
210.9121287940269
 32
0.0
 13
117.5254634193116
 23
210.9121287940269
 33
0.0
  0
SOLID
  5
60FD
330
5951
100
AcDbEntity
  8
寸法
440
 16777216
100
AcDbTrace
 10
111.5254634193116
 20
211.2454621273603
 30
0.0
 11
111.5254634193116
 21
210.5787954606936
 31
0.0
 12
113.5254634193116
 22
210.9121287940269
 32
0.0
 13
113.5254634193116
 23
210.9121287940269
 33
0.0
  0
MTEXT
  5
60FE
330
5951
100
AcDbEntity
  8
寸法
440
 16777216
100
AcDbMText
 10
115.5254634193116
 20
213.1621287940269
 30
0.0
 40
2.5
 41
0.0
 46
0.0
 71
     5
 72
     1
  1
\A1;4
 73
     1
 44
1.0
  0
POINT
  5
60FF
330
5951
100
AcDbEntity
  8
Defpoints
 62
     0
440
 16777216
100
AcDbPoint
 10
117.5254634193116
 20
198.9121287940269
 30
0.0
  0
POINT
  5
6100
330
5951
100
AcDbEntity
  8
Defpoints
 62
     0
440
 16777216
100
AcDbPoint
 10
113.5254634193116
 20
190.9121287940269
 30
0.0
  0
POINT
  5
6101
330
5951
100
AcDbEntity
  8
Defpoints
 62
     0
440
 16777216
100
AcDbPoint
 10
113.5254634193116
 20
210.9121287940269
 30
0.0
  0
ENDBLK
  5
5953
330
5951
100
AcDbEntity
  8
0
100
AcDbBlockEnd
  0
BLOCK
  5
5960
330
595F
100
AcDbEntity
  8
0
100
AcDbBlockBegin
  2
*D29
 70
     1
 10
0.0
 20
0.0
 30
0.0
  3
*D29
  1

  0
LINE
  5
6102
330
595F
100
AcDbEntity
  8
寸法
440
 16777216
100
AcDbLine
 10
74.02546341931159
 20
156.3121287940269
 30
0.0
 11
74.02546341931159
 21
125.9121287940269
 31
0.0
  0
LINE
  5
6103
330
595F
100
AcDbEntity
  8
寸法
440
 16777216
100
AcDbLine
 10
113.5212568134991
 20
149.9122297129436
 30
0.0
 11
113.5212568134991
 21
125.9121287940269
 31
0.0
  0
LINE
  5
6104
330
595F
100
AcDbEntity
  8
寸法
440
 16777216
100
AcDbLine
 10
76.02546341931159
 20
126.9121287940269
 30
0.0
 11
111.5212568134991
 21
126.9121287940269
 31
0.0
  0
SOLID
  5
6105
330
595F
100
AcDbEntity
  8
寸法
440
 16777216
100
AcDbTrace
 10
76.02546341931159
 20
127.2454621273602
 30
0.0
 11
76.02546341931159
 21
126.5787954606936
 31
0.0
 12
74.02546341931159
 22
126.9121287940269
 32
0.0
 13
74.02546341931159
 23
126.9121287940269
 33
0.0
  0
SOLID
  5
6106
330
595F
100
AcDbEntity
  8
寸法
440
 16777216
100
AcDbTrace
 10
111.5212568134991
 20
127.2454621273602
 30
0.0
 11
111.5212568134991
 21
126.5787954606936
 31
0.0
 12
113.5212568134991
 22
126.9121287940269
 32
0.0
 13
113.5212568134991
 23
126.9121287940269
 33
0.0
  0
MTEXT
  5
6107
330
595F
100
AcDbEntity
  8
寸法
440
 16777216
100
AcDbMText
 10
93.77336011640537
 20
129.1621287940269
 30
0.0
 40
2.5
 41
0.0
 46
0.0
 71
     5
 72
     1
  1
\A1;39.5
 73
     1
 44
1.0
  0
POINT
  5
6108
330
595F
100
AcDbEntity
  8
Defpoints
 62
     0
440
 16777216
100
AcDbPoint
 10
74.02546341931159
 20
157.3121287940269
 30
0.0
  0
POINT
  5
6109
330
595F
100
AcDbEntity
  8
Defpoints
 62
     0
440
 16777216
100
AcDbPoint
 10
113.5212568134991
 20
150.9122297129436
 30
0.0
  0
POINT
  5
610A
330
595F
100
AcDbEntity
  8
Defpoints
 62
     0
440
 16777216
100
AcDbPoint
 10
113.5212568134991
 20
126.9121287940269
 30
0.0
  0
ENDBLK
  5
5961
330
595F
100
AcDbEntity
  8
0
100
AcDbBlockEnd
  0
BLOCK
  5
596C
330
596B
100
AcDbEntity
  8
0
100
AcDbBlockBegin
  2
*D30
 70
     1
 10
0.0
 20
0.0
 30
0.0
  3
*D30
  1

  0
LINE
  5
610B
330
596B
100
AcDbEntity
  8
寸法
440
 16777216
100
AcDbLine
 10
113.5212568134991
 20
149.9122297129436
 30
0.0
 11
113.5212568134991
 21
135.9121287940269
 31
0.0
  0
LINE
  5
610C
330
596B
100
AcDbEntity
  8
寸法
440
 16777216
100
AcDbLine
 10
91.02546341931159
 20
149.2121287940269
 30
0.0
 11
91.02546341931159
 21
135.9121287940269
 31
0.0
  0
LINE
  5
610D
330
596B
100
AcDbEntity
  8
寸法
440
 16777216
100
AcDbLine
 10
111.5212568134991
 20
136.9121287940269
 30
0.0
 11
93.0254634193116
 21
136.9121287940269
 31
0.0
  0
SOLID
  5
610E
330
596B
100
AcDbEntity
  8
寸法
440
 16777216
100
AcDbTrace
 10
111.5212568134991
 20
137.2454621273603
 30
0.0
 11
111.5212568134991
 21
136.5787954606936
 31
0.0
 12
113.5212568134991
 22
136.9121287940269
 32
0.0
 13
113.5212568134991
 23
136.9121287940269
 33
0.0
  0
SOLID
  5
610F
330
596B
100
AcDbEntity
  8
寸法
440
 16777216
100
AcDbTrace
 10
93.0254634193116
 20
137.2454621273603
 30
0.0
 11
93.0254634193116
 21
136.5787954606936
 31
0.0
 12
91.02546341931159
 22
136.9121287940269
 32
0.0
 13
91.02546341931159
 23
136.9121287940269
 33
0.0
  0
MTEXT
  5
6110
330
596B
100
AcDbEntity
  8
寸法
440
 16777216
100
AcDbMText
 10
102.2733601164053
 20
139.1621287940269
 30
0.0
 40
2.5
 41
0.0
 46
0.0
 71
     5
 72
     1
  1
\A1;22.5
 73
     1
 44
1.0
  0
POINT
  5
6111
330
596B
100
AcDbEntity
  8
Defpoints
 62
     0
440
 16777216
100
AcDbPoint
 10
113.5212568134991
 20
150.9122297129436
 30
0.0
  0
POINT
  5
6112
330
596B
100
AcDbEntity
  8
Defpoints
 62
     0
440
 16777216
100
AcDbPoint
 10
91.02546341931159
 20
150.2121287940269
 30
0.0
  0
POINT
  5
6113
330
596B
100
AcDbEntity
  8
Defpoints
 62
     0
440
 16777216
100
AcDbPoint
 10
91.02546341931159
 20
136.9121287940269
 30
0.0
  0
ENDBLK
  5
596D
330
596B
100
AcDbEntity
  8
0
100
AcDbBlockEnd
  0
BLOCK
  5
5978
330
5977
100
AcDbEntity
  8
0
100
AcDbBlockBegin
  2
*D31
 70
     1
 10
0.0
 20
0.0
 30
0.0
  3
*D31
  1

  0
LINE
  5
6114
330
5977
100
AcDbEntity
  8
寸法
440
 16777216
100
AcDbLine
 10
113.5212568134991
 20
149.9122297129436
 30
0.0
 11
113.5212568134991
 21
130.9121287940269
 31
0.0
  0
LINE
  5
6115
330
5977
100
AcDbEntity
  8
寸法
440
 16777216
100
AcDbLine
 10
81.52546341931159
 20
136.6882761782473
 30
0.0
 11
81.52546341931159
 21
130.9121287940269
 31
0.0
  0
LINE
  5
6116
330
5977
100
AcDbEntity
  8
寸法
440
 16777216
100
AcDbLine
 10
111.5212568134991
 20
131.9121287940269
 30
0.0
 11
83.52546341931159
 21
131.9121287940269
 31
0.0
  0
SOLID
  5
6117
330
5977
100
AcDbEntity
  8
寸法
440
 16777216
100
AcDbTrace
 10
111.5212568134991
 20
132.2454621273603
 30
0.0
 11
111.5212568134991
 21
131.5787954606936
 31
0.0
 12
113.5212568134991
 22
131.9121287940269
 32
0.0
 13
113.5212568134991
 23
131.9121287940269
 33
0.0
  0
SOLID
  5
6118
330
5977
100
AcDbEntity
  8
寸法
440
 16777216
100
AcDbTrace
 10
83.52546341931159
 20
132.2454621273603
 30
0.0
 11
83.52546341931159
 21
131.5787954606936
 31
0.0
 12
81.52546341931159
 22
131.9121287940269
 32
0.0
 13
81.52546341931159
 23
131.9121287940269
 33
0.0
  0
MTEXT
  5
6119
330
5977
100
AcDbEntity
  8
寸法
440
 16777216
100
AcDbMText
 10
97.52336011640537
 20
134.1621287940269
 30
0.0
 40
2.5
 41
0.0
 46
0.0
 71
     5
 72
     1
  1
\A1;32
 73
     1
 44
1.0
  0
POINT
  5
611A
330
5977
100
AcDbEntity
  8
Defpoints
 62
     0
440
 16777216
100
AcDbPoint
 10
113.5212568134991
 20
150.9122297129436
 30
0.0
  0
POINT
  5
611B
330
5977
100
AcDbEntity
  8
Defpoints
 62
     0
440
 16777216
100
AcDbPoint
 10
81.52546341931159
 20
137.6882761782473
 30
0.0
  0
POINT
  5
611C
330
5977
100
AcDbEntity
  8
Defpoints
 62
     0
440
 16777216
100
AcDbPoint
 10
81.52546341931159
 20
131.9121287940269
 30
0.0
  0
ENDBLK
  5
5979
330
5977
100
AcDbEntity
  8
0
100
AcDbBlockEnd
  0
BLOCK
  5
5984
330
5983
100
AcDbEntity
  8
0
100
AcDbBlockBegin
  2
*D32
 70
     1
 10
0.0
 20
0.0
 30
0.0
  3
*D32
  1

  0
LINE
  5
6336
330
5983
100
AcDbEntity
  8
寸法
440
 16777216
100
AcDbLine
 10
64.52125681349915
 20
150.9122297129436
 30
0.0
 11
47.62777287319773
 21
150.9122297129436
 31
0.0
  0
LINE
  5
6337
330
5983
100
AcDbEntity
  8
寸法
440
 16777216
100
AcDbLine
 10
63.82546341931154
 20
171.412128794027
 30
0.0
 11
47.62777287319773
 21
171.412128794027
 31
0.0
  0
LINE
  5
6338
330
5983
100
AcDbEntity
  8
寸法
440
 16777216
100
AcDbLine
 10
48.62777287319772
 20
152.9122297129436
 30
0.0
 11
48.62777287319772
 21
169.412128794027
 31
0.0
  0
SOLID
  5
6339
330
5983
100
AcDbEntity
  8
寸法
440
 16777216
100
AcDbTrace
 10
48.29443953986439
 20
152.9122297129436
 30
0.0
 11
48.96110620653106
 21
152.9122297129436
 31
0.0
 12
48.62777287319772
 22
150.9122297129436
 32
0.0
 13
48.62777287319772
 23
150.9122297129436
 33
0.0
  0
SOLID
  5
633A
330
5983
100
AcDbEntity
  8
寸法
440
 16777216
100
AcDbTrace
 10
48.29443953986439
 20
169.412128794027
 30
0.0
 11
48.96110620653106
 21
169.412128794027
 31
0.0
 12
48.62777287319772
 22
171.412128794027
 32
0.0
 13
48.62777287319772
 23
171.412128794027
 33
0.0
  0
MTEXT
  5
633B
330
5983
100
AcDbEntity
  8
寸法
440
 16777216
100
AcDbMText
 10
46.3777728731977
 20
162.0822048212485
 30
0.0
 40
2.5
 41
0.0
 46
0.0
 71
     5
 72
     1
  1
\A1;20.5
 11
0.0000000000000001
 21
1.0
 31
0.0
 73
     1
 44
1.0
  0
POINT
  5
633C
330
5983
100
AcDbEntity
  8
Defpoints
 62
     0
440
 16777216
100
AcDbPoint
 10
65.52125681349915
 20
150.9122297129436
 30
0.0
  0
POINT
  5
633D
330
5983
100
AcDbEntity
  8
Defpoints
 62
     0
440
 16777216
100
AcDbPoint
 10
64.82546341931154
 20
171.4121287940269
 30
0.0
  0
POINT
  5
633E
330
5983
100
AcDbEntity
  8
Defpoints
 62
     0
440
 16777216
100
AcDbPoint
 10
48.62777287319772
 20
171.412128794027
 30
0.0
  0
ENDBLK
  5
5985
330
5983
100
AcDbEntity
  8
0
100
AcDbBlockEnd
  0
BLOCK
  5
5990
330
598F
100
AcDbEntity
  8
0
100
AcDbBlockBegin
  2
*D33
 70
     1
 10
0.0
 20
0.0
 30
0.0
  3
*D33
  1

  0
LINE
  5
632D
330
598F
100
AcDbEntity
  8
寸法
440
 16777216
100
AcDbLine
 10
113.5212568134991
 20
149.9122297129436
 30
0.0
 11
113.5212568134991
 21
130.5836388746383
 31
0.0
  0
LINE
  5
632E
330
598F
100
AcDbEntity
  8
寸法
440
 16777216
100
AcDbLine
 10
64.82546341931154
 20
170.4121287940269
 30
0.0
 11
64.82546341931154
 21
130.5836388746383
 31
0.0
  0
LINE
  5
632F
330
598F
100
AcDbEntity
  8
寸法
440
 16777216
100
AcDbLine
 10
111.5212568134991
 20
131.5836388746383
 30
0.0
 11
66.82546341931154
 21
131.5836388746383
 31
0.0
  0
SOLID
  5
6330
330
598F
100
AcDbEntity
  8
寸法
440
 16777216
100
AcDbTrace
 10
111.5212568134991
 20
131.9169722079716
 30
0.0
 11
111.5212568134991
 21
131.250305541305
 31
0.0
 12
113.5212568134991
 22
131.5836388746383
 32
0.0
 13
113.5212568134991
 23
131.5836388746383
 33
0.0
  0
SOLID
  5
6331
330
598F
100
AcDbEntity
  8
寸法
440
 16777216
100
AcDbTrace
 10
66.82546341931154
 20
131.9169722079716
 30
0.0
 11
66.82546341931154
 21
131.250305541305
 31
0.0
 12
64.82546341931154
 22
131.5836388746383
 32
0.0
 13
64.82546341931154
 23
131.5836388746383
 33
0.0
  0
MTEXT
  5
6332
330
598F
100
AcDbEntity
  8
寸法
440
 16777216
100
AcDbMText
 10
89.17336011640534
 20
133.8336388746383
 30
0.0
 40
2.5
 41
0.0
 46
0.0
 71
     5
 72
     1
  1
\A1;48.7
 73
     1
 44
1.0
  0
POINT
  5
6333
330
598F
100
AcDbEntity
  8
Defpoints
 62
     0
440
 16777216
100
AcDbPoint
 10
113.5212568134991
 20
150.9122297129436
 30
0.0
  0
POINT
  5
6334
330
598F
100
AcDbEntity
  8
Defpoints
 62
     0
440
 16777216
100
AcDbPoint
 10
64.82546341931154
 20
171.4121287940269
 30
0.0
  0
POINT
  5
6335
330
598F
100
AcDbEntity
  8
Defpoints
 62
     0
440
 16777216
100
AcDbPoint
 10
64.82546341931154
 20
131.5836388746383
 30
0.0
  0
ENDBLK
  5
5991
330
598F
100
AcDbEntity
  8
0
100
AcDbBlockEnd
  0
BLOCK
  5
599C
330
599B
100
AcDbEntity
  8
0
100
AcDbBlockBegin
  2
*D34
 70
     1
 10
0.0
 20
0.0
 30
0.0
  3
*D34
  1

  0
LINE
  5
612F
330
599B
100
AcDbEntity
  8
寸法
440
 16777216
100
AcDbLine
 10
113.5212568134991
 20
149.9122297129436
 30
0.0
 11
113.5212568134991
 21
140.9121287940269
 31
0.0
  0
LINE
  5
6130
330
599B
100
AcDbEntity
  8
寸法
440
 16777216
100
AcDbLine
 10
110.0254634193116
 20
154.7223256552315
 30
0.0
 11
110.0254634193116
 21
140.9121287940269
 31
0.0
  0
LINE
  5
6131
330
599B
100
AcDbEntity
  8
寸法
440
 16777216
100
AcDbLine
 10
115.5212568134991
 20
141.9121287940269
 30
0.0
 11
117.5212568134991
 21
141.9121287940269
 31
0.0
  0
LINE
  5
6132
330
599B
100
AcDbEntity
  8
寸法
440
 16777216
100
AcDbLine
 10
108.0254634193116
 20
141.9121287940269
 30
0.0
 11
99.02546341931159
 21
141.9121287940269
 31
0.0
  0
LINE
  5
6133
330
599B
100
AcDbEntity
  8
寸法
440
 16777216
100
AcDbLine
 10
113.5212568134991
 20
141.9121287940269
 30
0.0
 11
110.0254634193116
 21
141.9121287940269
 31
0.0
  0
SOLID
  5
6134
330
599B
100
AcDbEntity
  8
寸法
440
 16777216
100
AcDbTrace
 10
115.5212568134991
 20
142.2454621273603
 30
0.0
 11
115.5212568134991
 21
141.5787954606936
 31
0.0
 12
113.5212568134991
 22
141.9121287940269
 32
0.0
 13
113.5212568134991
 23
141.9121287940269
 33
0.0
  0
SOLID
  5
6135
330
599B
100
AcDbEntity
  8
寸法
440
 16777216
100
AcDbTrace
 10
108.0254634193116
 20
142.2454621273603
 30
0.0
 11
108.0254634193116
 21
141.5787954606936
 31
0.0
 12
110.0254634193116
 22
141.9121287940269
 32
0.0
 13
110.0254634193116
 23
141.9121287940269
 33
0.0
  0
MTEXT
  5
6136
330
599B
100
AcDbEntity
  8
寸法
440
 16777216
100
AcDbMText
 10
102.5254634193116
 20
144.1621287940269
 30
0.0
 40
2.5
 41
0.0
 46
0.0
 71
     5
 72
     1
  1
\A1;3.5
 73
     1
 44
1.0
  0
POINT
  5
6137
330
599B
100
AcDbEntity
  8
Defpoints
 62
     0
440
 16777216
100
AcDbPoint
 10
113.5212568134991
 20
150.9122297129436
 30
0.0
  0
POINT
  5
6138
330
599B
100
AcDbEntity
  8
Defpoints
 62
     0
440
 16777216
100
AcDbPoint
 10
110.0254634193116
 20
155.7223256552315
 30
0.0
  0
POINT
  5
6139
330
599B
100
AcDbEntity
  8
Defpoints
 62
     0
440
 16777216
100
AcDbPoint
 10
110.0254634193116
 20
141.9121287940269
 30
0.0
  0
ENDBLK
  5
599D
330
599B
100
AcDbEntity
  8
0
100
AcDbBlockEnd
  0
BLOCK
  5
59AA
330
59A9
100
AcDbEntity
  8
0
100
AcDbBlockBegin
  2
*D35
 70
     1
 10
0.0
 20
0.0
 30
0.0
  3
*D35
  1

  0
LINE
  5
613A
330
59A9
100
AcDbEntity
  8
寸法
440
 16777216
100
AcDbLine
 10
114.5212568134991
 20
150.9122297129436
 30
0.0
 11
124.5254634193116
 21
150.9122297129436
 31
0.0
  0
LINE
  5
613B
330
59A9
100
AcDbEntity
  8
寸法
440
 16777216
100
AcDbLine
 10
115.8654634193116
 20
158.6121287940269
 30
0.0
 11
124.5254634193116
 21
158.6121287940269
 31
0.0
  0
LINE
  5
613C
330
59A9
100
AcDbEntity
  8
寸法
440
 16777216
100
AcDbLine
 10
123.5254634193116
 20
152.9122297129436
 30
0.0
 11
123.5254634193116
 21
156.6121287940269
 31
0.0
  0
SOLID
  5
613D
330
59A9
100
AcDbEntity
  8
寸法
440
 16777216
100
AcDbTrace
 10
123.1921300859782
 20
152.9122297129436
 30
0.0
 11
123.8587967526449
 21
152.9122297129436
 31
0.0
 12
123.5254634193116
 22
150.9122297129436
 32
0.0
 13
123.5254634193116
 23
150.9122297129436
 33
0.0
  0
SOLID
  5
613E
330
59A9
100
AcDbEntity
  8
寸法
440
 16777216
100
AcDbTrace
 10
123.1921300859782
 20
156.6121287940269
 30
0.0
 11
123.8587967526449
 21
156.6121287940269
 31
0.0
 12
123.5254634193116
 22
158.6121287940269
 32
0.0
 13
123.5254634193116
 23
158.6121287940269
 33
0.0
  0
MTEXT
  5
613F
330
59A9
100
AcDbEntity
  8
寸法
440
 16777216
100
AcDbMText
 10
121.2754634193116
 20
154.7621792534853
 30
0.0
 40
2.5
 41
0.0
 46
0.0
 71
     5
 72
     1
  1
\A1;7.7
 11
0.0000000000000001
 21
1.0
 31
0.0
 73
     1
 44
1.0
  0
POINT
  5
6140
330
59A9
100
AcDbEntity
  8
Defpoints
 62
     0
440
 16777216
100
AcDbPoint
 10
113.5212568134991
 20
150.9122297129436
 30
0.0
  0
POINT
  5
6141
330
59A9
100
AcDbEntity
  8
Defpoints
 62
     0
440
 16777216
100
AcDbPoint
 10
114.8654634193116
 20
158.6121287940269
 30
0.0
  0
POINT
  5
6142
330
59A9
100
AcDbEntity
  8
Defpoints
 62
     0
440
 16777216
100
AcDbPoint
 10
123.5254634193116
 20
158.6121287940269
 30
0.0
  0
ENDBLK
  5
59AB
330
59A9
100
AcDbEntity
  8
0
100
AcDbBlockEnd
  0
BLOCK
  5
59B6
330
59B5
100
AcDbEntity
  8
0
100
AcDbBlockBegin
  2
*D36
 70
     1
 10
0.0
 20
0.0
 30
0.0
  3
*D36
  1

  0
LINE
  5
6143
330
59B5
100
AcDbEntity
  8
寸法
440
 16777216
100
AcDbLine
 10
114.5212568134991
 20
150.9122297129436
 30
0.0
 11
130.5254634193116
 21
150.9122297129436
 31
0.0
  0
LINE
  5
6144
330
59B5
100
AcDbEntity
  8
寸法
440
 16777216
100
AcDbLine
 10
111.0254634193116
 20
159.4121287940269
 30
0.0
 11
130.5254634193116
 21
159.4121287940269
 31
0.0
  0
LINE
  5
6145
330
59B5
100
AcDbEntity
  8
寸法
440
 16777216
100
AcDbLine
 10
129.5254634193116
 20
152.9122297129436
 30
0.0
 11
129.5254634193116
 21
157.4121287940269
 31
0.0
  0
SOLID
  5
6146
330
59B5
100
AcDbEntity
  8
寸法
440
 16777216
100
AcDbTrace
 10
129.1921300859782
 20
152.9122297129436
 30
0.0
 11
129.8587967526449
 21
152.9122297129436
 31
0.0
 12
129.5254634193116
 22
150.9122297129436
 32
0.0
 13
129.5254634193116
 23
150.9122297129436
 33
0.0
  0
SOLID
  5
6147
330
59B5
100
AcDbEntity
  8
寸法
440
 16777216
100
AcDbTrace
 10
129.1921300859782
 20
157.4121287940269
 30
0.0
 11
129.8587967526449
 21
157.4121287940269
 31
0.0
 12
129.5254634193116
 22
159.4121287940269
 32
0.0
 13
129.5254634193116
 23
159.4121287940269
 33
0.0
  0
MTEXT
  5
6148
330
59B5
100
AcDbEntity
  8
寸法
440
 16777216
100
AcDbMText
 10
127.2754634193115
 20
155.1621792534853
 30
0.0
 40
2.5
 41
0.0
 46
0.0
 71
     5
 72
     1
  1
\A1;8.5
 11
0.0000000000000001
 21
1.0
 31
0.0
 73
     1
 44
1.0
  0
POINT
  5
6149
330
59B5
100
AcDbEntity
  8
Defpoints
 62
     0
440
 16777216
100
AcDbPoint
 10
113.5212568134991
 20
150.9122297129436
 30
0.0
  0
POINT
  5
614A
330
59B5
100
AcDbEntity
  8
Defpoints
 62
     0
440
 16777216
100
AcDbPoint
 10
110.0254634193116
 20
159.4121287940269
 30
0.0
  0
POINT
  5
614B
330
59B5
100
AcDbEntity
  8
Defpoints
 62
     0
440
 16777216
100
AcDbPoint
 10
129.5254634193116
 20
159.4121287940269
 30
0.0
  0
ENDBLK
  5
59B7
330
59B5
100
AcDbEntity
  8
0
100
AcDbBlockEnd
  0
BLOCK
  5
59C2
330
59C1
100
AcDbEntity
  8
0
100
AcDbBlockBegin
  2
*D37
 70
     1
 10
0.0
 20
0.0
 30
0.0
  3
*D37
  1

  0
LINE
  5
614C
330
59C1
100
AcDbEntity
  8
寸法
440
 16777216
100
AcDbLine
 10
114.5212568134991
 20
150.9122297129436
 30
0.0
 11
136.5254634193116
 21
150.9122297129436
 31
0.0
  0
LINE
  5
614D
330
59C1
100
AcDbEntity
  8
寸法
440
 16777216
100
AcDbLine
 10
115.8654634193116
 20
165.9621287940269
 30
0.0
 11
136.5254634193116
 21
165.9621287940269
 31
0.0
  0
LINE
  5
614E
330
59C1
100
AcDbEntity
  8
寸法
440
 16777216
100
AcDbLine
 10
135.5254634193116
 20
152.9122297129436
 30
0.0
 11
135.5254634193116
 21
163.9621287940269
 31
0.0
  0
SOLID
  5
614F
330
59C1
100
AcDbEntity
  8
寸法
440
 16777216
100
AcDbTrace
 10
135.1921300859782
 20
152.9122297129436
 30
0.0
 11
135.8587967526449
 21
152.9122297129436
 31
0.0
 12
135.5254634193116
 22
150.9122297129436
 32
0.0
 13
135.5254634193116
 23
150.9122297129436
 33
0.0
  0
SOLID
  5
6150
330
59C1
100
AcDbEntity
  8
寸法
440
 16777216
100
AcDbTrace
 10
135.1921300859782
 20
163.9621287940269
 30
0.0
 11
135.8587967526449
 21
163.9621287940269
 31
0.0
 12
135.5254634193116
 22
165.9621287940269
 32
0.0
 13
135.5254634193116
 23
165.9621287940269
 33
0.0
  0
MTEXT
  5
6151
330
59C1
100
AcDbEntity
  8
寸法
440
 16777216
100
AcDbMText
 10
133.2754634193115
 20
158.4371792534853
 30
0.0
 40
2.5
 41
0.0
 46
0.0
 71
     5
 72
     1
  1
\A1;15
 11
0.0000000000000001
 21
1.0
 31
0.0
 73
     1
 44
1.0
  0
POINT
  5
6152
330
59C1
100
AcDbEntity
  8
Defpoints
 62
     0
440
 16777216
100
AcDbPoint
 10
113.5212568134991
 20
150.9122297129436
 30
0.0
  0
POINT
  5
6153
330
59C1
100
AcDbEntity
  8
Defpoints
 62
     0
440
 16777216
100
AcDbPoint
 10
114.8654634193116
 20
165.9621287940269
 30
0.0
  0
POINT
  5
6154
330
59C1
100
AcDbEntity
  8
Defpoints
 62
     0
440
 16777216
100
AcDbPoint
 10
135.5254634193116
 20
165.9621287940269
 30
0.0
  0
ENDBLK
  5
59C3
330
59C1
100
AcDbEntity
  8
0
100
AcDbBlockEnd
  0
BLOCK
  5
59CE
330
59CD
100
AcDbEntity
  8
0
100
AcDbBlockBegin
  2
*D38
 70
     1
 10
0.0
 20
0.0
 30
0.0
  3
*D38
  1

  0
LINE
  5
6155
330
59CD
100
AcDbEntity
  8
寸法
440
 16777216
100
AcDbLine
 10
93.0254634193116
 20
198.7476352868955
 30
0.0
 11
93.0254634193116
 21
211.9121287940269
 31
0.0
  0
LINE
  5
6156
330
59CD
100
AcDbEntity
  8
寸法
440
 16777216
100
AcDbLine
 10
113.5254634193116
 20
191.9121287940269
 30
0.0
 11
113.5254634193116
 21
211.9121287940269
 31
0.0
  0
LINE
  5
6157
330
59CD
100
AcDbEntity
  8
寸法
440
 16777216
100
AcDbLine
 10
95.02546341931159
 20
210.9121287940269
 30
0.0
 11
111.5254634193116
 21
210.9121287940269
 31
0.0
  0
SOLID
  5
6158
330
59CD
100
AcDbEntity
  8
寸法
440
 16777216
100
AcDbTrace
 10
95.02546341931159
 20
211.2454621273603
 30
0.0
 11
95.02546341931159
 21
210.5787954606936
 31
0.0
 12
93.0254634193116
 22
210.9121287940269
 32
0.0
 13
93.0254634193116
 23
210.9121287940269
 33
0.0
  0
SOLID
  5
6159
330
59CD
100
AcDbEntity
  8
寸法
440
 16777216
100
AcDbTrace
 10
111.5254634193116
 20
211.2454621273603
 30
0.0
 11
111.5254634193116
 21
210.5787954606936
 31
0.0
 12
113.5254634193116
 22
210.9121287940269
 32
0.0
 13
113.5254634193116
 23
210.9121287940269
 33
0.0
  0
MTEXT
  5
615A
330
59CD
100
AcDbEntity
  8
寸法
440
 16777216
100
AcDbMText
 10
103.2754634193116
 20
213.1621287940269
 30
0.0
 40
2.5
 41
0.0
 46
0.0
 71
     5
 72
     1
  1
\A1;20.5
 73
     1
 44
1.0
  0
POINT
  5
615B
330
59CD
100
AcDbEntity
  8
Defpoints
 62
     0
440
 16777216
100
AcDbPoint
 10
93.0254634193116
 20
197.7476352868955
 30
0.0
  0
POINT
  5
615C
330
59CD
100
AcDbEntity
  8
Defpoints
 62
     0
440
 16777216
100
AcDbPoint
 10
113.5254634193116
 20
190.9121287940269
 30
0.0
  0
POINT
  5
615D
330
59CD
100
AcDbEntity
  8
Defpoints
 62
     0
440
 16777216
100
AcDbPoint
 10
113.5254634193116
 20
210.9121287940269
 30
0.0
  0
ENDBLK
  5
59CF
330
59CD
100
AcDbEntity
  8
0
100
AcDbBlockEnd
  0
BLOCK
  5
59DA
330
59D9
100
AcDbEntity
  8
0
100
AcDbBlockBegin
  2
*D39
 70
     1
 10
0.0
 20
0.0
 30
0.0
  3
*D39
  1

  0
LINE
  5
615E
330
59D9
100
AcDbEntity
  8
寸法
440
 16777216
100
AcDbLine
 10
90.02546341931159
 20
150.2121287940269
 30
0.0
 11
54.52546341931162
 21
150.2121287940269
 31
0.0
  0
LINE
  5
615F
330
59D9
100
AcDbEntity
  8
寸法
440
 16777216
100
AcDbLine
 10
64.52125681349915
 20
150.9122297129436
 30
0.0
 11
54.52546341931162
 21
150.9122297129436
 31
0.0
  0
LINE
  5
6160
330
59D9
100
AcDbEntity
  8
寸法
440
 16777216
100
AcDbLine
 10
55.52546341931162
 20
152.9122297129436
 30
0.0
 11
55.52546341931162
 21
154.9122297129436
 31
0.0
  0
LINE
  5
6161
330
59D9
100
AcDbEntity
  8
寸法
440
 16777216
100
AcDbLine
 10
55.52546341931162
 20
148.2121287940269
 30
0.0
 11
55.52546341931162
 21
138.5109383178365
 31
0.0
  0
LINE
  5
6162
330
59D9
100
AcDbEntity
  8
寸法
440
 16777216
100
AcDbLine
 10
55.52546341931162
 20
150.9122297129436
 30
0.0
 11
55.52546341931162
 21
150.2121287940269
 31
0.0
  0
SOLID
  5
6163
330
59D9
100
AcDbEntity
  8
寸法
440
 16777216
100
AcDbTrace
 10
55.19213008597828
 20
152.9122297129436
 30
0.0
 11
55.85879675264496
 21
152.9122297129436
 31
0.0
 12
55.52546341931162
 22
150.9122297129436
 32
0.0
 13
55.52546341931162
 23
150.9122297129436
 33
0.0
  0
SOLID
  5
6164
330
59D9
100
AcDbEntity
  8
寸法
440
 16777216
100
AcDbTrace
 10
55.19213008597828
 20
148.2121287940269
 30
0.0
 11
55.85879675264496
 21
148.2121287940269
 31
0.0
 12
55.52546341931162
 22
150.2121287940269
 32
0.0
 13
55.52546341931162
 23
150.2121287940269
 33
0.0
  0
MTEXT
  5
6165
330
59D9
100
AcDbEntity
  8
寸法
440
 16777216
100
AcDbMText
 10
53.27546341931159
 20
141.8026049845032
 30
0.0
 40
2.5
 41
0.0
 46
0.0
 71
     5
 72
     1
  1
\A1;0.7
 11
0.0000000000000001
 21
1.0
 31
0.0
 73
     1
 44
1.0
  0
POINT
  5
6166
330
59D9
100
AcDbEntity
  8
Defpoints
 62
     0
440
 16777216
100
AcDbPoint
 10
91.02546341931159
 20
150.2121287940269
 30
0.0
  0
POINT
  5
6167
330
59D9
100
AcDbEntity
  8
Defpoints
 62
     0
440
 16777216
100
AcDbPoint
 10
65.52125681349915
 20
150.9122297129436
 30
0.0
  0
POINT
  5
6168
330
59D9
100
AcDbEntity
  8
Defpoints
 62
     0
440
 16777216
100
AcDbPoint
 10
55.52546341931162
 20
150.9122297129436
 30
0.0
  0
ENDBLK
  5
59DB
330
59D9
100
AcDbEntity
  8
0
100
AcDbBlockEnd
  0
BLOCK
  5
59E8
330
59E7
100
AcDbEntity
  8
0
100
AcDbBlockBegin
  2
*D40
 70
     1
 10
0.0
 20
0.0
 30
0.0
  3
*D40
  1

  0
LINE
  5
6169
330
59E7
100
AcDbEntity
  8
寸法
440
 16777216
100
AcDbLine
 10
64.52125681349915
 20
150.9122297129436
 30
0.0
 11
48.52546341931162
 21
150.9122297129436
 31
0.0
  0
LINE
  5
616A
330
59E7
100
AcDbEntity
  8
寸法
440
 16777216
100
AcDbLine
 10
73.02546341931159
 20
157.3121287940269
 30
0.0
 11
48.52546341931162
 21
157.3121287940269
 31
0.0
  0
LINE
  5
616B
330
59E7
100
AcDbEntity
  8
寸法
440
 16777216
100
AcDbLine
 10
49.52546341931162
 20
152.9122297129436
 30
0.0
 11
49.52546341931162
 21
155.3121287940269
 31
0.0
  0
SOLID
  5
616C
330
59E7
100
AcDbEntity
  8
寸法
440
 16777216
100
AcDbTrace
 10
49.19213008597829
 20
152.9122297129436
 30
0.0
 11
49.85879675264495
 21
152.9122297129436
 31
0.0
 12
49.52546341931162
 22
150.9122297129436
 32
0.0
 13
49.52546341931162
 23
150.9122297129436
 33
0.0
  0
SOLID
  5
616D
330
59E7
100
AcDbEntity
  8
寸法
440
 16777216
100
AcDbTrace
 10
49.19213008597829
 20
155.3121287940269
 30
0.0
 11
49.85879675264495
 21
155.3121287940269
 31
0.0
 12
49.52546341931162
 22
157.3121287940269
 32
0.0
 13
49.52546341931162
 23
157.3121287940269
 33
0.0
  0
MTEXT
  5
616E
330
59E7
100
AcDbEntity
  8
寸法
440
 16777216
100
AcDbMText
 10
47.27546341931159
 20
154.1121792534853
 30
0.0
 40
2.5
 41
0.0
 46
0.0
 71
     5
 72
     1
  1
\A1;6.4
 11
0.0000000000000001
 21
1.0
 31
0.0
 73
     1
 44
1.0
  0
POINT
  5
616F
330
59E7
100
AcDbEntity
  8
Defpoints
 62
     0
440
 16777216
100
AcDbPoint
 10
65.52125681349915
 20
150.9122297129436
 30
0.0
  0
POINT
  5
6170
330
59E7
100
AcDbEntity
  8
Defpoints
 62
     0
440
 16777216
100
AcDbPoint
 10
74.02546341931159
 20
157.3121287940269
 30
0.0
  0
POINT
  5
6171
330
59E7
100
AcDbEntity
  8
Defpoints
 62
     0
440
 16777216
100
AcDbPoint
 10
49.52546341931162
 20
157.3121287940269
 30
0.0
  0
ENDBLK
  5
59E9
330
59E7
100
AcDbEntity
  8
0
100
AcDbBlockEnd
  0
ENDSEC
  0
SECTION
  2
ENTITIES
  0
LINE
  5
5895
330
1F
100
AcDbEntity
  8
外形１
 48
2.0
100
AcDbLine
 10
61.52546341931159
 20
146.9121287940269
 30
0.0
 11
117.5254634193116
 21
146.9121287940269
 31
0.0
  0
LINE
  5
5896
330
1F
100
AcDbEntity
  8
外形１
 48
2.0
100
AcDbLine
 10
117.5254634193116
 20
146.9121287940269
 30
0.0
 11
117.5254634193116
 21
198.9121287940269
 31
0.0
  0
LINE
  5
5897
330
1F
100
AcDbEntity
  8
寸法
 48
2.0
100
AcDbLine
 10
147.5254634193116
 20
146.9121287940269
 30
0.0
 11
147.5254634193116
 21
198.9121287940269
 31
0.0
  0
LINE
  5
5898
330
1F
100
AcDbEntity
  8
中心線
 48
2.0
100
AcDbLine
 10
114.8654634193116
 20
154.9223256552315
 30
0.0
 11
114.8654634193116
 21
185.9025319174279
 31
0.0
  0
LINE
  5
5899
330
1F
100
AcDbEntity
  8
外形１
 48
2.0
100
AcDbLine
 10
117.5254634193116
 20
198.9121287940269
 30
0.0
 11
61.52546341931159
 21
198.9121287940269
 31
0.0
  0
LINE
  5
589A
330
1F
100
AcDbEntity
  8
寸法
 48
2.0
100
AcDbLine
 10
117.5254634193116
 20
228.9121287940269
 30
0.0
 11
61.52546341931159
 21
228.9121287940269
 31
0.0
  0
LINE
  5
589B
330
1F
100
AcDbEntity
  8
外形１
 48
2.0
100
AcDbLine
 10
61.52546341931159
 20
198.9121287940269
 30
0.0
 11
61.52546341931159
 21
146.9121287940269
 31
0.0
  0
CIRCLE
  5
589C
330
1F
100
AcDbEntity
  8
外形１
 48
2.0
100
AcDbCircle
 10
65.52125681349915
 20
150.9122297129436
 30
0.0
 40
1.25
  0
LWPOLYLINE
  5
589D
330
1F
100
AcDbEntity
  8
隠れ線
  6
HIDDEN2
100
AcDbPolyline
 90
        4
 70
     1
 43
0.0
 10
113.6154634193116
 20
185.0121287940269
 10
113.6154634193116
 20
164.6921287940269
 10
116.1154634193116
 20
164.6921287940269
 10
116.1154634193116
 20
185.0121287940269
  0
MTEXT
  5
589E
330
1F
100
AcDbEntity
  8
寸法
100
AcDbMText
 10
113.784978186131
 20
186.6534552868339
 30
0.0
 40
1.5
 41
2.0
 46
0.0
 71
     1
 72
     5
  1
1
  7
LINEEYE
 11
-0.0000000000000002
 21
-1.0
 31
0.0
 73
     1
 44
1.0
1001
ACAD
1000
ACAD_MTEXT_COLUMN_INFO_BEGIN
1070
    75
1070
     2
1070
    79
1070
     0
1070
    76
1070
     1
1070
    78
1070
     0
1070
    48
1040
2.0
1070
    49
1040
10.0
1070
    50
1070
     1
1040
0.0
1000
ACAD_MTEXT_COLUMN_INFO_END
  0
MTEXT
  5
589F
330
1F
100
AcDbEntity
  8
寸法
100
AcDbMText
 10
112.6266694466906
 20
166.4492944172415
 30
0.0
 40
1.5
 41
2.0
 46
0.0
 71
     1
 72
     5
  1
8
  7
LINEEYE
 11
-0.0000000000000002
 21
-1.0
 31
0.0
 73
     1
 44
1.0
1001
ACAD
1000
ACAD_MTEXT_COLUMN_INFO_BEGIN
1070
    75
1070
     2
1070
    79
1070
     0
1070
    76
1070
     1
1070
    78
1070
     0
1070
    48
1040
2.0
1070
    49
1040
10.0
1070
    50
1070
     1
1040
0.0
1000
ACAD_MTEXT_COLUMN_INFO_END
  0
LWPOLYLINE
  5
58A0
330
1F
100
AcDbEntity
  8
隠れ線
  6
HIDDEN2
100
AcDbPolyline
 90
        4
 70
     1
 43
0.0
 10
96.52546341931159
 20
166.9621287940269
 10
111.5254634193116
 20
166.9621287940269
 10
111.5254634193116
 20
182.962128794027
 10
96.52546341931159
 20
182.962128794027
  0
MTEXT
  5
58A1
330
1F
100
AcDbEntity
  8
寸法
100
AcDbMText
 10
103.8254634193115
 20
175.4621287940269
 30
0.0
 40
1.8
 41
10.64649050176132
 46
0.0
 71
     5
 72
     5
  1
マイクロSIM\Pコネクタ\PCN8
  7
LINEEYE
 73
     1
 44
1.0
1001
ACAD
1000
ACAD_MTEXT_COLUMN_INFO_BEGIN
1070
    75
1070
     2
1070
    79
1070
     0
1070
    76
1070
     1
1070
    78
1070
     0
1070
    48
1040
10.64649050176132
1070
    49
1040
10.0
1070
    50
1070
     1
1040
15.93815356697802
1000
ACAD_MTEXT_COLUMN_INFO_END
  0
LWPOLYLINE
  5
58A2
330
1F
100
AcDbEntity
  8
隠れ線
  6
HIDDEN2
100
AcDbPolyline
 90
        4
 70
     1
 43
0.0
 10
71.52546341931159
 20
164.1121287940269
 10
94.52546341931158
 20
164.1121287940269
 10
94.52546341931158
 20
186.1121287940269
 10
71.52546341931159
 20
186.1121287940269
  0
MTEXT
  5
58A3
330
1F
100
AcDbEntity
  8
寸法
100
AcDbMText
 10
83.2735117703576
 20
175.5496194296912
 30
0.0
 40
1.8
 41
11.69107152943746
 46
0.0
 71
     5
 72
     5
  1
HL7539\PU3
  7
LINEEYE
 73
     1
 44
1.0
1001
ACAD
1000
ACAD_MTEXT_COLUMN_INFO_BEGIN
1070
    75
1070
     2
1070
    79
1070
     0
1070
    76
1070
     1
1070
    78
1070
     0
1070
    48
1040
11.69107152943746
1070
    49
1040
10.0
1070
    50
1070
     1
1040
6.857987928092249
1000
ACAD_MTEXT_COLUMN_INFO_END
  0
CIRCLE
  5
58A5
330
1F
100
AcDbEntity
  8
隠れ線
  6
HIDDEN2
100
AcDbCircle
 10
64.82546341931154
 20
171.4121287940269
 30
0.0
 40
1.0
  0
MTEXT
  5
58A6
330
1F
100
AcDbEntity
  8
寸法
100
AcDbMText
 10
118.6361581680836
 20
182.7742004018114
 30
0.0
 40
1.5
 41
3.90200930156071
 46
0.0
 71
     5
 72
     5
  1
CN1
  7
LINEEYE
 11
-0.0000000000000002
 21
-1.0
 31
0.0
 73
     1
 44
1.0
1001
ACAD
1000
ACAD_MTEXT_COLUMN_INFO_BEGIN
1070
    75
1070
     2
1070
    79
1070
     0
1070
    76
1070
     1
1070
    78
1070
     0
1070
    48
1040
3.90200930156071
1070
    49
1040
10.0
1070
    50
1070
     1
1040
0.0
1000
ACAD_MTEXT_COLUMN_INFO_END
  0
DIMENSION
  5
58A7
330
1F
100
AcDbEntity
  8
寸法
100
AcDbDimension
280
     0
  2
*D20
 10
117.5254634193116
 20
228.9121287940269
 30
0.0
 11
89.52546341931158
 21
228.9121287940269
 31
0.0
 70
   160
 71
     5
 42
56.0
 73
     0
 74
     0
 75
     0
  3
LINEEYE
100
AcDbAlignedDimension
 13
61.52546341931159
 23
198.9121287940269
 33
0.0
 14
117.5254634193116
 24
198.9121287940269
 34
0.0
100
AcDbRotatedDimension
  0
DIMENSION
  5
58A8
330
1F
100
AcDbEntity
  8
寸法
100
AcDbDimension
280
     0
  2
*D21
 10
147.5254634193116
 20
146.9121287940269
 30
0.0
 11
145.2754634193115
 21
172.9121287940269
 31
0.0
 70
    32
 71
     5
 42
51.99999999999997
 73
     0
 74
     0
 75
     0
  3
LINEEYE
100
AcDbAlignedDimension
 13
117.5254634193116
 23
198.9121287940269
 33
0.0
 14
117.5254634193116
 24
146.9121287940269
 34
0.0
 50
90.0
100
AcDbRotatedDimension
  0
CIRCLE
  5
58A9
330
1F
100
AcDbEntity
  8
外形１
 48
2.0
100
AcDbCircle
 10
113.5212568134991
 20
150.9122297129436
 30
0.0
 40
1.25
  0
CIRCLE
  5
58AA
330
1F
100
AcDbEntity
  8
外形１
 48
2.0
100
AcDbCircle
 10
113.5254634193116
 20
190.9121287940269
 30
0.0
 40
1.25
  0
CIRCLE
  5
58AB
330
1F
100
AcDbEntity
  8
外形１
 48
2.0
100
AcDbCircle
 10
65.52546341931159
 20
190.9121287940269
 30
0.0
 40
1.25
  0
DIMENSION
  5
58AC
330
1F
100
AcDbEntity
  8
寸法
100
AcDbDimension
280
     0
  2
*D22
 10
141.5254634193116
 20
190.9121287940269
 30
0.0
 11
139.2754634193115
 21
170.9121792534853
 31
0.0
 70
    32
 71
     5
 42
39.99989908108333
 73
     0
 74
     0
 75
     0
  3
LINEEYE
100
AcDbAlignedDimension
 13
115.7712568134991
 23
150.9122297129436
 33
0.0
 14
113.5254634193116
 24
190.9121287940269
 34
0.0
 50
90.0
100
AcDbRotatedDimension
  0
LWPOLYLINE
  5
58AD
330
1F
100
AcDbEntity
  8
隠れ線
  6
HIDDEN2
100
AcDbPolyline
 90
        4
 70
     1
 43
0.0
 10
88.97546341931164
 20
148.5371287940269
 10
93.07546341931166
 20
148.5371287940269
 10
93.07546341931166
 20
151.8871287940269
 10
88.97546341931164
 20
151.8871287940269
  0
CIRCLE
  5
58AE
330
1F
100
AcDbEntity
  8
隠れ線
  6
HIDDEN2
100
AcDbCircle
 10
91.02546341931159
 20
150.2121287940269
 30
0.0
 40
1.0
  0
LWPOLYLINE
  5
58AF
330
1F
100
AcDbEntity
  8
隠れ線
  6
HIDDEN2
100
AcDbPolyline
 90
        4
 70
     1
 43
0.0
 10
77.87546341931161
 20
195.0621287940269
 10
87.67546341931156
 20
195.0621287940269
 10
87.67546341931156
 20
199.8621287940269
 10
77.87546341931161
 20
199.8621287940269
  0
MTEXT
  5
58B0
330
1F
100
AcDbEntity
  8
寸法
100
AcDbMText
 10
82.79694419648459
 20
197.1200470242206
 30
0.0
 40
1.199999999999999
 41
9.923245250880654
 46
0.0
 71
     5
 72
     5
  1
マイクロUSB
  7
LINEEYE
 73
     1
 44
1.0
1001
ACAD
1000
ACAD_MTEXT_COLUMN_INFO_BEGIN
1070
    75
1070
     2
1070
    79
1070
     0
1070
    76
1070
     1
1070
    78
1070
     0
1070
    48
1040
9.923245250880654
1070
    49
1040
10.0
1070
    50
1070
     1
1040
6.531410583066012
1000
ACAD_MTEXT_COLUMN_INFO_END
  0
DIMENSION
  5
58B1
330
1F
100
AcDbEntity
  8
寸法
100
AcDbDimension
280
     0
  2
*D23
 10
141.5254634193116
 20
150.9122297129436
 30
0.0
 11
139.2754634193115
 21
148.9121792534853
 31
0.0
 70
    32
 71
     5
 42
4.000100918916643
 73
     0
 74
     0
 75
     0
  3
LINEEYE
100
AcDbAlignedDimension
 13
117.5254634193116
 23
146.9121287940269
 33
0.0
 14
113.5112568134991
 24
150.9122297129436
 34
0.0
 50
90.0
100
AcDbRotatedDimension
  0
DIMENSION
  5
58B2
330
1F
100
AcDbEntity
  8
寸法
100
AcDbDimension
280
     0
  2
*D24
 10
65.52546341931159
 20
222.9121287940269
 30
0.0
 11
93.53546341931158
 21
222.9121287940269
 31
0.0
 70
   160
 71
     5
 42
48.0
 73
     0
 74
     0
 75
     0
  3
LINEEYE
100
AcDbAlignedDimension
 13
113.5254634193116
 23
190.9121287940269
 33
0.0
 14
65.52546341931159
 24
190.9121287940269
 34
0.0
100
AcDbRotatedDimension
  0
DIMENSION
  5
58BC
330
1F
100
AcDbEntity
  8
寸法
100
AcDbDimension
280
     0
  2
*D25
 10
66.71417601290025
 20
190.5255251599987
 30
0.0
 11
47.33524541498605
 21
196.8281125416265
 31
0.0
 70
   163
  1
4-<>キリ穴
 71
     5
 42
2.500000000000085
 73
     0
 74
     0
 75
     0
  3
LINEEYE
100
AcDbDiametricDimension
 15
64.33675082572293
 25
191.2987324280551
 35
0.0
 40
0.0
1001
ACAD_DSTYLE_DIMRADIAL_EXTENSION
1070
   387
1070
     1
1070
   388
1040
0.0
1070
   390
1040
0.0
1001
ACAD
1000
DSTYLE
1002
{
1070
   288
1070
     1
1002
}
  0
LWPOLYLINE
  5
58BE
330
1F
100
AcDbEntity
  8
隠れ線
  6
HIDDEN2
100
AcDbPolyline
 90
        4
 70
     1
 43
0.0
 10
63.15046341931147
 20
173.462128794027
 10
63.15046341931147
 20
169.362128794027
 10
66.5004634193115
 20
169.362128794027
 10
66.5004634193115
 20
173.462128794027
  0
LWPOLYLINE
  5
58BF
330
1F
100
AcDbEntity
  8
隠れ線
  6
HIDDEN2
100
AcDbPolyline
 90
        4
 70
     1
 43
0.0
 10
112.9654634193116
 20
163.3621287940269
 10
112.9654634193116
 20
155.8621287940269
 10
116.7654634193117
 20
155.8621287940269
 10
116.7654634193117
 20
163.3621287940269
  0
MTEXT
  5
58C0
330
1F
100
AcDbEntity
  8
寸法
100
AcDbMText
 10
113.4182226790355
 20
164.2029493901479
 30
0.0
 40
1.5
 41
2.0
 46
0.0
 71
     1
 72
     5
  1
1
  7
LINEEYE
 11
-0.0000000000000002
 21
-1.0
 31
0.0
 73
     1
 44
1.0
1001
ACAD
1000
ACAD_MTEXT_COLUMN_INFO_BEGIN
1070
    75
1070
     2
1070
    79
1070
     0
1070
    76
1070
     1
1070
    78
1070
     0
1070
    48
1040
2.0
1070
    49
1040
10.0
1070
    50
1070
     1
1040
0.0
1000
ACAD_MTEXT_COLUMN_INFO_END
  0
MTEXT
  5
58C1
330
1F
100
AcDbEntity
  8
寸法
100
AcDbMText
 10
113.3130056087331
 20
155.538487562823
 30
0.0
 40
1.5
 41
2.0
 46
0.0
 71
     1
 72
     5
  1
2
  7
LINEEYE
 11
-0.0000000000000002
 21
-1.0
 31
0.0
 73
     1
 44
1.0
1001
ACAD
1000
ACAD_MTEXT_COLUMN_INFO_BEGIN
1070
    75
1070
     2
1070
    79
1070
     0
1070
    76
1070
     1
1070
    78
1070
     0
1070
    48
1040
2.0
1070
    49
1040
10.0
1070
    50
1070
     1
1040
0.0
1000
ACAD_MTEXT_COLUMN_INFO_END
  0
MTEXT
  5
58C2
330
1F
100
AcDbEntity
  8
寸法
100
AcDbMText
 10
118.7123785150799
 20
162.0901213890811
 30
0.0
 40
1.5
 41
3.90200930156071
 46
0.0
 71
     5
 72
     5
  1
CN2
  7
LINEEYE
 11
-0.0000000000000002
 21
-1.0
 31
0.0
 73
     1
 44
1.0
1001
ACAD
1000
ACAD_MTEXT_COLUMN_INFO_BEGIN
1070
    75
1070
     2
1070
    79
1070
     0
1070
    76
1070
     1
1070
    78
1070
     0
1070
    48
1040
3.90200930156071
1070
    49
1040
10.0
1070
    50
1070
     1
1040
0.0
1000
ACAD_MTEXT_COLUMN_INFO_END
  0
MTEXT
  5
58C3
330
1F
100
AcDbEntity
  8
寸法
100
AcDbMText
 10
89.10494725287881
 20
154.1871287940269
 30
0.0
 40
1.5
 41
2.0
 46
0.0
 71
     1
 72
     5
  1
CN4
  7
LINEEYE
 73
     1
 44
1.0
1001
ACAD
1000
ACAD_MTEXT_COLUMN_INFO_BEGIN
1070
    75
1070
     2
1070
    79
1070
     0
1070
    76
1070
     1
1070
    78
1070
     0
1070
    48
1040
2.0
1070
    49
1040
10.0
1070
    50
1070
     1
1040
0.0
1000
ACAD_MTEXT_COLUMN_INFO_END
  0
MTEXT
  5
58C6
330
1F
100
AcDbEntity
  8
寸法
100
AcDbMText
 10
68.80046341931145
 20
173.3326449604598
 30
0.0
 40
1.5
 41
2.0
 46
0.0
 71
     1
 72
     5
  1
CN7
  7
LINEEYE
 11
-0.0000000000000002
 21
-1.0
 31
0.0
 73
     1
 44
1.0
1001
ACAD
1000
ACAD_MTEXT_COLUMN_INFO_BEGIN
1070
    75
1070
     2
1070
    79
1070
     0
1070
    76
1070
     1
1070
    78
1070
     0
1070
    48
1040
2.0
1070
    49
1040
10.0
1070
    50
1070
     1
1040
0.0
1000
ACAD_MTEXT_COLUMN_INFO_END
  0
CIRCLE
  5
58C7
330
1F
100
AcDbEntity
  8
隠れ線
  6
HIDDEN2
100
AcDbCircle
 10
114.8654634193116
 20
173.5821287940269
 30
0.0
 40
1.0
  0
CIRCLE
  5
58C8
330
1F
100
AcDbEntity
  8
隠れ線
  6
HIDDEN2
100
AcDbCircle
 10
114.8654634193116
 20
171.0421287940269
 30
0.0
 40
1.0
  0
CIRCLE
  5
58C9
330
1F
100
AcDbEntity
  8
隠れ線
  6
HIDDEN2
100
AcDbCircle
 10
114.8654634193116
 20
168.5021287940269
 30
0.0
 40
1.0
  0
CIRCLE
  5
58CA
330
1F
100
AcDbEntity
  8
隠れ線
  6
HIDDEN2
100
AcDbCircle
 10
114.8654634193116
 20
165.9621287940269
 30
0.0
 40
1.0
  0
CIRCLE
  5
58CB
330
1F
100
AcDbEntity
  8
隠れ線
  6
HIDDEN2
100
AcDbCircle
 10
114.8654634193116
 20
176.1221287940269
 30
0.0
 40
1.0
  0
CIRCLE
  5
58CC
330
1F
100
AcDbEntity
  8
隠れ線
  6
HIDDEN2
100
AcDbCircle
 10
114.8654634193116
 20
178.6621287940269
 30
0.0
 40
1.0
  0
CIRCLE
  5
58CD
330
1F
100
AcDbEntity
  8
隠れ線
  6
HIDDEN2
100
AcDbCircle
 10
114.8654634193116
 20
181.2021287940269
 30
0.0
 40
1.0
  0
CIRCLE
  5
58CE
330
1F
100
AcDbEntity
  8
隠れ線
  6
HIDDEN2
100
AcDbCircle
 10
114.8654634193116
 20
183.7421287940269
 30
0.0
 40
1.0
  0
DIMENSION
  5
58CF
330
1F
100
AcDbEntity
  8
寸法
100
AcDbDimension
280
     0
  2
*D26
 10
114.8654634193116
 20
204.9121287940269
 30
0.0
 11
126.9754634193116
 21
204.9121287940269
 31
0.0
 70
   160
 71
     5
 42
2.659999999999968
 73
     0
 74
     0
 75
     0
  3
LINEEYE
100
AcDbAlignedDimension
 13
117.5254634193116
 23
198.9121287940269
 33
0.0
 14
114.8654634193116
 24
185.9025319174279
 34
0.0
100
AcDbRotatedDimension
  0
DIMENSION
  5
58D0
330
1F
100
AcDbEntity
  8
寸法
100
AcDbDimension
280
     0
  2
*D27
 10
82.77546341931159
 20
216.9121287940269
 30
0.0
 11
98.15046341931159
 21
216.9121287940269
 31
0.0
 70
   160
 71
     5
 42
30.75
 73
     0
 74
     0
 75
     0
  3
LINEEYE
100
AcDbAlignedDimension
 13
113.5254634193116
 23
190.9121287940269
 33
0.0
 14
82.77546341931159
 24
199.8621287940269
 34
0.0
100
AcDbRotatedDimension
  0
DIMENSION
  5
58D1
330
1F
100
AcDbEntity
  8
寸法
100
AcDbDimension
280
     0
  2
*D28
 10
113.5254634193116
 20
210.9121287940269
 30
0.0
 11
115.5254634193116
 21
213.1621287940269
 31
0.0
 70
    32
 71
     5
 42
4.0
 73
     0
 74
     0
 75
     0
  3
LINEEYE
100
AcDbAlignedDimension
 13
117.5254634193116
 23
198.9121287940269
 33
0.0
 14
113.5254634193116
 24
190.9121287940269
 34
0.0
100
AcDbRotatedDimension
  0
DIMENSION
  5
58D3
330
1F
100
AcDbEntity
  8
寸法
100
AcDbDimension
280
     0
  2
*D30
 10
91.02546341931159
 20
136.9121287940269
 30
0.0
 11
102.2733601164053
 21
136.9121287940269
 31
0.0
 70
   160
 71
     5
 42
22.49579339418756
 73
     0
 74
     0
 75
     0
  3
LINEEYE
100
AcDbAlignedDimension
 13
113.5212568134991
 23
150.9122297129436
 33
0.0
 14
91.02546341931159
 24
150.2121287940269
 34
0.0
100
AcDbRotatedDimension
  0
DIMENSION
  5
58D6
330
1F
100
AcDbEntity
  8
寸法
100
AcDbDimension
280
     0
  2
*D32
 10
48.62777287319772
 20
171.412128794027
 30
0.0
 11
48.6277728731977
 21
162.0822048212485
 31
0.0
 70
   160
 71
     5
 42
20.49989908108336
 73
     0
 74
     0
 75
     0
  3
LINEEYE
100
AcDbAlignedDimension
 13
65.52125681349915
 23
150.9122297129436
 33
0.0
 14
64.82546341931154
 24
171.4121287940269
 34
0.0
 50
90.0
100
AcDbRotatedDimension
  0
DIMENSION
  5
58D7
330
1F
100
AcDbEntity
  8
寸法
100
AcDbDimension
280
     0
  2
*D33
 10
64.82546341931154
 20
131.5836388746383
 30
0.0
 11
89.17336011640534
 21
131.5836388746383
 31
0.0
 70
   160
 71
     5
 42
48.6957933941876
 73
     0
 74
     0
 75
     0
  3
LINEEYE
100
AcDbAlignedDimension
 13
113.5212568134991
 23
150.9122297129436
 33
0.0
 14
64.82546341931154
 24
171.4121287940269
 34
0.0
100
AcDbRotatedDimension
  0
LWPOLYLINE
  5
58D8
330
1F
100
AcDbEntity
  8
隠れ線
  6
HIDDEN2
100
AcDbPolyline
 90
        4
 70
     1
 43
0.0
 10
108.6254634193116
 20
163.3621287940269
 10
108.6254634193116
 20
155.8621287940269
 10
111.4254634193116
 20
155.8621287940269
 10
111.4254634193116
 20
163.3621287940269
  0
MTEXT
  5
58D9
330
1F
100
AcDbEntity
  8
寸法
100
AcDbMText
 10
107.068484303588
 20
161.3940848453287
 30
0.0
 40
1.5
 41
3.90200930156071
 46
0.0
 71
     5
 72
     5
  1
JP1
  7
LINEEYE
 11
-0.0000000000000002
 21
-1.0
 31
0.0
 73
     1
 44
1.0
1001
ACAD
1000
ACAD_MTEXT_COLUMN_INFO_BEGIN
1070
    75
1070
     2
1070
    79
1070
     0
1070
    76
1070
     1
1070
    78
1070
     0
1070
    48
1040
3.90200930156071
1070
    49
1040
10.0
1070
    50
1070
     1
1040
0.0
1000
ACAD_MTEXT_COLUMN_INFO_END
  0
CIRCLE
  5
58DA
330
1F
100
AcDbEntity
  8
隠れ線
  6
HIDDEN2
100
AcDbCircle
 10
110.0254634193116
 20
159.4121287940269
 30
0.0
 40
0.75
  0
CIRCLE
  5
58DB
330
1F
100
AcDbEntity
  8
隠れ線
  6
HIDDEN2
100
AcDbCircle
 10
110.0254634193116
 20
156.9121287940269
 30
0.0
 40
0.75
  0
CIRCLE
  5
58DC
330
1F
100
AcDbEntity
  8
隠れ線
  6
HIDDEN2
100
AcDbCircle
 10
110.0254634193116
 20
161.9121287940269
 30
0.0
 40
0.75
  0
LINE
  5
58DD
330
1F
100
AcDbEntity
  8
中心線
 48
2.0
100
AcDbLine
 10
110.0254634193116
 20
155.7223256552315
 30
0.0
 11
110.0254634193116
 21
163.7476352868955
 31
0.0
  0
DIMENSION
  5
58DE
330
1F
100
AcDbEntity
  8
寸法
100
AcDbDimension
280
     0
  2
*D34
 10
110.0254634193116
 20
141.9121287940269
 30
0.0
 11
102.5254634193116
 21
144.1621287940269
 31
0.0
 70
    32
 71
     5
 42
3.495793394187558
 73
     0
 74
     0
 75
     0
  3
LINEEYE
100
AcDbAlignedDimension
 13
113.5212568134991
 23
150.9122297129436
 33
0.0
 14
110.0254634193116
 24
155.7223256552315
 34
0.0
100
AcDbRotatedDimension
  0
DIMENSION
  5
58DF
330
1F
100
AcDbEntity
  8
寸法
100
AcDbDimension
280
     0
  2
*D35
 10
123.5254634193116
 20
158.6121287940269
 30
0.0
 11
121.2754634193116
 21
154.7621792534853
 31
0.0
 70
    32
 71
     5
 42
7.699899081083344
 73
     0
 74
     0
 75
     0
  3
LINEEYE
100
AcDbAlignedDimension
 13
113.5212568134991
 23
150.9122297129436
 33
0.0
 14
114.8654634193116
 24
158.6121287940269
 34
0.0
 50
90.0
100
AcDbRotatedDimension
  0
DIMENSION
  5
58E0
330
1F
100
AcDbEntity
  8
寸法
100
AcDbDimension
280
     0
  2
*D36
 10
129.5254634193116
 20
159.4121287940269
 30
0.0
 11
127.2754634193115
 21
155.1621792534853
 31
0.0
 70
    32
 71
     5
 42
8.499899081083356
 73
     0
 74
     0
 75
     0
  3
LINEEYE
100
AcDbAlignedDimension
 13
113.5212568134991
 23
150.9122297129436
 33
0.0
 14
110.0254634193116
 24
159.4121287940269
 34
0.0
 50
90.0
100
AcDbRotatedDimension
  0
DIMENSION
  5
58E1
330
1F
100
AcDbEntity
  8
寸法
100
AcDbDimension
280
     0
  2
*D37
 10
135.5254634193116
 20
165.9621287940269
 30
0.0
 11
133.2754634193115
 21
158.4371792534853
 31
0.0
 70
    32
 71
     5
 42
15.04989908108334
 73
     0
 74
     0
 75
     0
  3
LINEEYE
100
AcDbAlignedDimension
 13
113.5212568134991
 23
150.9122297129436
 33
0.0
 14
114.8654634193116
 24
165.9621287940269
 34
0.0
 50
90.0
100
AcDbRotatedDimension
  0
LWPOLYLINE
  5
58E2
330
1F
100
AcDbEntity
  8
隠れ線
  6
HIDDEN2
100
AcDbPolyline
 90
        4
 70
     1
 43
0.0
 10
91.62546341931161
 20
197.3621287940269
 10
91.62546341931161
 20
189.8621287940269
 10
94.42546341931167
 20
189.8621287940269
 10
94.42546341931167
 20
197.3621287940269
  0
MTEXT
  5
58E3
330
1F
100
AcDbEntity
  8
寸法
100
AcDbMText
 10
90.30375981863214
 20
195.3940848453287
 30
0.0
 40
1.5
 41
3.90200930156071
 46
0.0
 71
     5
 72
     5
  1
JP2
  7
LINEEYE
 11
-0.0000000000000002
 21
-1.0
 31
0.0
 73
     1
 44
1.0
1001
ACAD
1000
ACAD_MTEXT_COLUMN_INFO_BEGIN
1070
    75
1070
     2
1070
    79
1070
     0
1070
    76
1070
     1
1070
    78
1070
     0
1070
    48
1040
3.90200930156071
1070
    49
1040
10.0
1070
    50
1070
     1
1040
0.0
1000
ACAD_MTEXT_COLUMN_INFO_END
  0
CIRCLE
  5
58E4
330
1F
100
AcDbEntity
  8
隠れ線
  6
HIDDEN2
100
AcDbCircle
 10
93.0254634193116
 20
193.4121287940269
 30
0.0
 40
0.75
  0
CIRCLE
  5
58E5
330
1F
100
AcDbEntity
  8
隠れ線
  6
HIDDEN2
100
AcDbCircle
 10
93.0254634193116
 20
190.9121287940269
 30
0.0
 40
0.75
  0
CIRCLE
  5
58E6
330
1F
100
AcDbEntity
  8
隠れ線
  6
HIDDEN2
100
AcDbCircle
 10
93.0254634193116
 20
195.9121287940269
 30
0.0
 40
0.75
  0
LINE
  5
58E7
330
1F
100
AcDbEntity
  8
中心線
 48
2.0
100
AcDbLine
 10
93.0254634193116
 20
189.7223256552315
 30
0.0
 11
93.0254634193116
 21
197.7476352868955
 31
0.0
  0
DIMENSION
  5
58E8
330
1F
100
AcDbEntity
  8
寸法
100
AcDbDimension
280
     0
  2
*D38
 10
113.5254634193116
 20
210.9121287940269
 30
0.0
 11
103.2754634193116
 21
213.1621287940269
 31
0.0
 70
    32
 71
     5
 42
20.5
 73
     0
 74
     0
 75
     0
  3
LINEEYE
100
AcDbAlignedDimension
 13
93.0254634193116
 23
197.7476352868955
 33
0.0
 14
113.5254634193116
 24
190.9121287940269
 34
0.0
100
AcDbRotatedDimension
  0
MTEXT
  5
58E9
330
1F
100
AcDbEntity
  8
寸法
100
AcDbMText
 10
83.74253581479743
 20
193.3745355139106
 30
0.0
 40
1.199999999999999
 41
9.923245250880654
 46
0.0
 71
     5
 72
     5
  1
CN3
  7
LINEEYE
 73
     1
 44
1.0
1001
ACAD
1000
ACAD_MTEXT_COLUMN_INFO_BEGIN
1070
    75
1070
     2
1070
    79
1070
     0
1070
    76
1070
     1
1070
    78
1070
     0
1070
    48
1040
9.923245250880654
1070
    49
1040
10.0
1070
    50
1070
     1
1040
6.531410583066012
1000
ACAD_MTEXT_COLUMN_INFO_END
  0
DIMENSION
  5
58EA
330
1F
100
AcDbEntity
  8
寸法
100
AcDbDimension
280
     0
  2
*D39
 10
55.52546341931162
 20
150.9122297129436
 30
0.0
 11
55.52546341931159
 21
141.8026049845032
 31
0.0
 70
   160
 71
     5
 42
0.700100918916661
 73
     0
 74
     0
 75
     0
  3
LINEEYE
100
AcDbAlignedDimension
 13
91.02546341931159
 23
150.2121287940269
 33
0.0
 14
65.52125681349915
 24
150.9122297129436
 34
0.0
 50
90.0
100
AcDbRotatedDimension
  0
CIRCLE
  5
58EC
330
1F
100
AcDbEntity
  8
隠れ線
  6
HIDDEN2
100
AcDbCircle
 10
114.8654634193116
 20
160.6121287940269
 30
0.0
 40
0.75
  0
CIRCLE
  5
58ED
330
1F
100
AcDbEntity
  8
隠れ線
  6
HIDDEN2
100
AcDbCircle
 10
114.8654634193116
 20
158.6121287940269
 30
0.0
 40
0.75
  0
VIEWPORT
  5
467
330
1B
100
AcDbEntity
 67
     1
  8
0
348
36DF
100
AcDbViewport
 10
142.5510386587946
 20
117.0585869219871
 30
0.0
 40
366.2890119277495
 41
243.1250595863838
 68
     1
 69
     1
 12
142.5510386587946
 22
117.0585869219871
 13
0.0
 23
0.0
 14
10.0
 24
10.0
 15
10.0
 25
10.0
 16
0.0
 26
0.0
 36
1.0
 17
0.0
 27
0.0
 37
0.0
 42
50.0
 43
0.0
 44
0.0
 45
243.1250595863838
 50
0.0
 51
0.0
 72
   100
 90
    32800
  1

281
     0
 71
     1
 74
     0
110
0.0
120
0.0
130
0.0
111
1.0
121
0.0
131
0.0
112
0.0
122
1.0
132
0.0
 79
     0
146
0.0
170
     0
 61
     5
348
36DF
292
     1
282
     1
141
0.0
142
0.0
361
36FF
  0
VIEWPORT
  5
469
102
{ACAD_XDICTIONARY
360
3BFB
102
}
330
1B
100
AcDbEntity
 67
     1
  8
0
348
36DF
100
AcDbViewport
 10
148.1378897606556
 20
99.00850465465111
 30
0.0
 40
257.5080359132773
 41
160.0
 68
     2
 69
     2
 12
0.0
 22
0.0
 13
0.0
 23
0.0
 14
10.0
 24
10.0
 15
10.0
 25
10.0
 16
0.0
 26
0.0
 36
360.9134067558764
 17
92.42806065500204
 27
174.3163690748937
 37
0.0
 42
50.0
 43
0.0
 44
0.0
 45
159.9999999926585
 50
0.0
 51
0.0
 72
   100
 90
    32864
  1

281
     0
 71
     1
 74
     0
110
0.0
120
0.0
130
0.0
111
1.0
121
0.0
131
0.0
112
0.0
122
1.0
132
0.0
 79
     0
146
0.0
170
     0
 61
     5
348
36DF
292
     1
282
     1
141
0.0
142
0.0
  0
LINE
  5
3C06
330
1B
100
AcDbEntity
 67
     1
  8
GAIKEI
100
AcDbLine
 10
-0.6161281959830376
 20
-0.9914953453488806
 30
0.0
 11
296.8919077172943
 21
-0.9914953453488806
 31
0.0
  0
LINE
  5
3C07
330
1B
100
AcDbEntity
 67
     1
  8
GAIKEI
100
AcDbLine
 10
296.8919077172943
 20
-0.9914953453488806
 30
0.0
 11
296.8919077172943
 21
209.0085046546511
 31
0.0
  0
LINE
  5
3C08
330
1B
100
AcDbEntity
 67
     1
  8
GAIKEI
100
AcDbLine
 10
296.8919077172943
 20
209.0085046546511
 30
0.0
 11
-0.6161281959830376
 21
209.0085046546511
 31
0.0
  0
LINE
  5
3C09
330
1B
100
AcDbEntity
 67
     1
  8
GAIKEI
100
AcDbLine
 10
-0.6161281959830376
 20
209.0085046546511
 30
0.0
 11
-0.6161281959830376
 21
-0.9914953453488806
 31
0.0
  0
MTEXT
  5
3C1C
330
1B
100
AcDbEntity
 67
     1
  8
0
100
AcDbMText
 10
22.09387197189744
 20
194.0680498017592
 30
0.0
 40
4.0
 41
120.9694262123507
 46
7.006666666666667
 71
     1
 72
     5
  1
{\fMS UI Gothic|b0|i0|c128|p50;LTE無線ﾓｼﾞｭｰﾙ HL7539 組込み評価ボード\P型番 ： EB-SL01L}
 73
     1
 44
1.0
1001
ACAD
1000
ACAD_MTEXT_DEFINED_HEIGHT_BEGIN
1070
    46
1040
7.006666666666667
1000
ACAD_MTEXT_DEFINED_HEIGHT_END
  0
MTEXT
  5
3C1D
102
{ACAD_XDICTIONARY
360
3C1E
102
}
330
1B
100
AcDbEntity
 67
     1
  8
文字
100
AcDbMText
 10
223.9823266110419
 20
194.2347715348862
 30
0.0
 40
4.0
 41
43.80805967065966
 46
11.93936756140624
 71
     1
 72
     5
  1
{\fMS UI Gothic|b0|i0|c128|p50;株式会社ラインアイ\P\pi17.831;単位 ： mm}
 73
     1
 44
1.0
  0
ENDSEC
  0
SECTION
  2
OBJECTS
  0
DICTIONARY
  5
C
330
0
100
AcDbDictionary
281
     1
  3
ACAD_CIP_PREVIOUS_PRODUCT_INFO
350
3BBF
  3
ACAD_COLOR
350
371B
  3
ACAD_DETAILVIEWSTYLE
350
3BAC
  3
ACAD_GROUP
350
D
  3
ACAD_IMAGE_VARS
350
36FD
  3
ACAD_LAYOUT
350
1A
  3
ACAD_MATERIAL
350
36F3
  3
ACAD_MLEADERSTYLE
350
36F9
  3
ACAD_MLINESTYLE
350
17
  3
ACAD_PLOTSETTINGS
350
19
  3
ACAD_PLOTSTYLENAME
350
E
  3
ACAD_SCALELIST
350
36B8
  3
ACAD_SECTIONVIEWSTYLE
350
3BAD
  3
ACAD_TABLESTYLE
350
36F7
  3
ACAD_VISUALSTYLE
350
36DA
  3
ACDB_RECOMPOSE_DATA
350
635E
  3
AcDbVariableDictionary
350
193
  3
APPDATA
350
36FB
  0
SUN
  5
36FC
330
36B7
100
AcDbSun
 90
        1
290
     1
 63
     7
421
 16777215
 40
1.0
291
     1
 91
  2455826
 92
 54000000
292
     0
 70
     0
 71
   256
280
     1
  0
DICTIONARY
  5
396B
330
2
100
AcDbDictionary
280
     1
281
     1
  3
ACAD_LAYERSTATES
360
396C
  0
DICTIONARY
  5
370E
330
370D
100
AcDbDictionary
280
     1
281
     1
  3
ADSK_XREC_LAYER_RECONCILED
360
370F
  0
DICTIONARY
  5
5835
330
5834
100
AcDbDictionary
280
     1
281
     1
  0
DICTIONARY
  5
F87
330
1F
100
AcDbDictionary
280
     1
281
     1
  3
ACAD_SORTENTS
360
F88
  0
DICTIONARY
  5
3C0A
330
1B
100
AcDbDictionary
280
     1
281
     1
  3
ACAD_SORTENTS
360
3C0B
  0
DICTIONARY
  5
2775
330
2774
100
AcDbDictionary
280
     1
281
     1
  3
ACAD_DIMASSOC
360
2776
  0
DICTIONARY
  5
2778
330
2777
100
AcDbDictionary
280
     1
281
     1
  3
ACAD_DIMASSOC
360
2779
  0
DICTIONARY
  5
277B
330
277A
100
AcDbDictionary
280
     1
281
     1
  3
ACAD_DIMASSOC
360
277C
  0
DICTIONARY
  5
278C
330
278B
100
AcDbDictionary
280
     1
281
     1
  3
ACAD_DIMASSOC
360
278D
  0
DICTIONARY
  5
2797
330
2796
100
AcDbDictionary
280
     1
281
     1
  3
ACAD_DIMASSOC
360
2798
  0
DICTIONARY
  5
279B
330
279A
100
AcDbDictionary
280
     1
281
     1
  3
ACAD_DIMASSOC
360
279C
  0
DICTIONARY
  5
27AD
330
27AC
100
AcDbDictionary
280
     1
281
     1
  3
ACAD_DIMASSOC
360
27AE
  0
DICTIONARY
  5
27B0
330
27AF
100
AcDbDictionary
280
     1
281
     1
  3
ACAD_DIMASSOC
360
27B1
  0
DICTIONARY
  5
27B3
330
27B2
100
AcDbDictionary
280
     1
281
     1
  3
ACAD_DIMASSOC
360
27B4
  0
DICTIONARY
  5
27CF
330
27CE
100
AcDbDictionary
280
     1
281
     1
  3
ACAD_DIMASSOC
360
27D0
  0
DICTIONARY
  5
27DD
330
27DC
100
AcDbDictionary
280
     1
281
     1
  3
ACAD_DIMASSOC
360
27DE
  0
DICTIONARY
  5
27E0
330
27DF
100
AcDbDictionary
280
     1
281
     1
  3
ACAD_DIMASSOC
360
27E1
  0
DICTIONARY
  5
27E5
330
27E4
100
AcDbDictionary
280
     1
281
     1
  3
ACAD_DIMASSOC
360
27E6
  0
SUN
  5
36FF
330
467
100
AcDbSun
 90
        1
290
     1
 63
     7
421
 16777215
 40
1.0
291
     1
 91
  2455826
 92
 54000000
292
     0
 70
     0
 71
   256
280
     1
  0
DICTIONARY
  5
3BFB
330
469
100
AcDbDictionary
280
     1
281
     1
  3
ASDK_XREC_ANNOTATION_SCALE_INFO
360
3BFC
  0
DICTIONARY
  5
3C1E
330
3C1D
100
AcDbDictionary
280
     1
281
     1
  3
ACAD_MTEXT_2008_RT
360
635D
  0
XRECORD
  5
3BBF
102
{ACAD_REACTORS
330
C
102
}
330
C
100
AcDbXrecord
280
     1
300
ACDLT
300
2013
300
ACDLT_F_S
  0
DICTIONARY
  5
371B
102
{ACAD_REACTORS
330
C
102
}
330
C
100
AcDbDictionary
281
     1
  0
DICTIONARY
  5
3BAC
102
{ACAD_REACTORS
330
C
102
}
330
C
100
AcDbDictionary
281
     1
  3
Metric50
350
3BBA
  0
DICTIONARY
  5
D
102
{ACAD_REACTORS
330
C
102
}
330
C
100
AcDbDictionary
281
     1
  0
RASTERVARIABLES
  5
36FD
102
{ACAD_REACTORS
330
C
102
}
330
C
100
AcDbRasterVariables
 90
        0
 70
     1
 71
     1
 72
     1
  0
DICTIONARY
  5
1A
102
{ACAD_REACTORS
330
C
102
}
330
C
100
AcDbDictionary
281
     1
  3
Model
350
22
  3
ﾚｲｱｳﾄ1
350
1E
  0
DICTIONARY
  5
36F3
102
{ACAD_REACTORS
330
C
102
}
330
C
100
AcDbDictionary
281
     1
  3
ByBlock
350
36F5
  3
ByLayer
350
36F4
  3
Global
350
36F6
  0
DICTIONARY
  5
36F9
102
{ACAD_REACTORS
330
C
102
}
330
C
100
AcDbDictionary
281
     1
  3
Standard
350
36FA
  0
DICTIONARY
  5
17
102
{ACAD_REACTORS
330
C
102
}
330
C
100
AcDbDictionary
281
     1
  3
Standard
350
18
  0
DICTIONARY
  5
19
102
{ACAD_REACTORS
330
C
102
}
330
C
100
AcDbDictionary
281
     1
  0
ACDBDICTIONARYWDFLT
  5
E
102
{ACAD_REACTORS
330
C
102
}
330
C
100
AcDbDictionary
281
     1
  3
Normal
350
F
100
AcDbDictionaryWithDefault
340
F
  0
DICTIONARY
  5
36B8
102
{ACAD_REACTORS
330
C
102
}
330
C
100
AcDbDictionary
281
     1
  3
A0
350
36B9
  3
A1
350
36BA
  3
A2
350
36BB
  3
A3
350
36BC
  3
A4
350
36BD
  3
A5
350
36BE
  3
A6
350
36BF
  3
A7
350
36C0
  3
A8
350
36C1
  3
A9
350
36C2
  3
B0
350
36C3
  3
B1
350
36C4
  3
B2
350
36C5
  3
B3
350
36C6
  3
B4
350
36C7
  3
B5
350
36C8
  3
B6
350
36C9
  3
B7
350
36CA
  3
B8
350
36CB
  3
B9
350
36CC
  3
C0
350
36CD
  3
C1
350
36CE
  3
C2
350
36CF
  3
C3
350
36D0
  3
C4
350
36D1
  3
C5
350
36D2
  3
C6
350
36D3
  3
C7
350
36D4
  3
C8
350
36D5
  3
C9
350
36D6
  3
D0
350
36D7
  3
D1
350
36D8
  3
D2
350
36D9
  0
DICTIONARY
  5
3BAD
102
{ACAD_REACTORS
330
C
102
}
330
C
100
AcDbDictionary
281
     1
  3
Metric50
350
3BB9
  0
DICTIONARY
  5
36F7
102
{ACAD_REACTORS
330
C
102
}
330
C
100
AcDbDictionary
281
     1
  3
Standard
350
36F8
  0
DICTIONARY
  5
36DA
102
{ACAD_REACTORS
330
C
102
}
330
C
100
AcDbDictionary
281
     1
  3
2dWireframe
350
36DF
  3
Basic
350
36E2
  3
Brighten
350
36E6
  3
ColorChange
350
36EA
  3
Conceptual
350
36E4
  3
Dim
350
36E5
  3
EdgeColorOff
350
36ED
  3
Facepattern
350
36E9
  3
Flat
350
36DB
  3
FlatWithEdges
350
36DC
  3
Gouraud
350
36DD
  3
GouraudWithEdges
350
36DE
  3
Hidden
350
36E1
  3
JitterOff
350
36EB
  3
Linepattern
350
36E8
  3
OverhangOff
350
36EC
  3
Realistic
350
36E3
  3
Shaded
350
36F2
  3
Shaded with edges
350
36F1
  3
Shades of Gray
350
36EE
  3
Sketchy
350
36EF
  3
Thicken
350
36E7
  3
Wireframe
350
36E0
  3
X-Ray
350
36F0
  0
XRECORD
  5
635E
102
{ACAD_REACTORS
330
C
102
}
330
C
100
AcDbXrecord
280
     1
 90
        1
330
36F8
330
3C1D
330
589E
330
589F
330
58A1
330
58A3
330
58A6
330
58B0
330
58C0
330
58C1
330
58C2
330
58C3
330
58C6
330
58D9
330
58E3
330
58E9
  0
DICTIONARY
  5
193
102
{ACAD_REACTORS
330
C
102
}
330
C
100
AcDbDictionary
281
     1
  3
CANNOSCALE
350
3BA8
  3
CMLEADERSTYLE
350
3BAA
  3
CTABLESTYLE
350
3BA9
  3
CVIEWDETAILSTYLE
350
3BC3
  3
CVIEWSECTIONSTYLE
350
3BC4
  3
DIMASSOC
350
195
  3
HIDETEXT
350
194
  3
MSLTSCALE
350
3BAB
  3
SORTENTS
350
FE8
  0
DICTIONARY
  5
36FB
102
{ACAD_REACTORS
330
C
102
}
330
C
100
AcDbDictionary
281
     1
  0
DICTIONARY
  5
396C
102
{ACAD_REACTORS
330
396B
102
}
330
396B
100
AcDbDictionary
281
     1
  0
XRECORD
  5
370F
102
{ACAD_REACTORS
330
370E
102
}
330
370E
100
AcDbXrecord
280
     1
290
     1
  0
SORTENTSTABLE
  5
F88
102
{ACAD_REACTORS
330
F87
102
}
330
F87
100
AcDbSortentsTable
330
1F
331
58CF
  5
58D0
331
58CB
  5
58CC
331
58C7
  5
58C8
331
58C3
  5
58C4
331
58BF
  5
58C0
331
58AF
  5
58B0
331
58EA
  5
58EB
331
58AB
  5
58AC
331
58E6
  5
58E7
331
58E2
  5
58E3
331
58A7
  5
58A8
331
58A3
  5
58A4
331
589F
  5
58A0
331
58DE
  5
58DF
331
589B
  5
589C
331
58DA
  5
58DB
331
58D6
  5
58D7
331
5897
  5
5897
331
58CE
  5
58CF
331
58CA
  5
58CB
331
58C6
  5
58C7
331
58C2
  5
58C3
331
58BE
  5
58BF
331
58B2
  5
58B3
331
58ED
  5
5B8D
331
58AE
  5
58AF
331
58E9
  5
58EA
331
58AA
  5
58AB
331
58E5
  5
58E6
331
58E1
  5
58E2
331
58A6
  5
58A7
331
58A2
  5
58A3
331
589E
  5
589F
331
58DD
  5
58DE
331
589A
  5
589B
331
58D9
  5
58DA
331
58D1
  5
58D2
331
5896
  5
5896
331
58CD
  5
58CE
331
58C9
  5
58CA
331
58C1
  5
58C2
331
58B1
  5
58B2
331
58EC
  5
58ED
331
58AD
  5
58AE
331
58E8
  5
58E9
331
58A9
  5
58AA
331
58E4
  5
58E5
331
58E0
  5
58E1
331
58A5
  5
58A6
331
58A1
  5
58A2
331
589D
  5
589E
331
58DC
  5
58DD
331
5899
  5
5899
331
58D8
  5
58D9
331
58D0
  5
58D1
331
5895
  5
5895
331
58CC
  5
58CD
331
58C8
  5
58C9
331
58C0
  5
58C1
331
58BC
  5
58BD
331
58B0
  5
58B1
331
58AC
  5
58AD
331
58E7
  5
58E8
331
58A8
  5
58A9
331
58E3
  5
58E4
331
58A0
  5
58A1
331
58DF
  5
58E0
331
589C
  5
589D
331
58DB
  5
58DC
331
5898
  5
5898
331
58D7
  5
58D8
331
58D3
  5
58D4
  0
SORTENTSTABLE
  5
3C0B
102
{ACAD_REACTORS
330
3C0A
102
}
330
3C0A
100
AcDbSortentsTable
330
1B
331
3C06
  5
3C06
331
3C07
  5
3C08
331
3C08
  5
3C0D
331
3C09
  5
3C0F
331
467
  5
467
331
469
  5
469
  0
DIMASSOC
  5
2776
102
{ACAD_REACTORS
330
2775
102
}
330
2775
100
AcDbDimAssoc
330
2774
 90
        2
 70
     0
 71
     0
  1
AcDbOsnapPointRef
 72
     3
331
27CA
 73
     2
 91
        0
 40
0.0
 10
207.0799496199761
 20
165.2438128573029
 30
0.0
 75
     0
  0
DIMASSOC
  5
2779
102
{ACAD_REACTORS
330
2778
102
}
330
2778
100
AcDbDimAssoc
330
2777
 90
        1
 70
     0
 71
     0
  1
AcDbOsnapPointRef
 72
    13
331
27EA
 73
     2
 91
        0
 40
0.0
 10
216.0799496199762
 20
185.7438128573028
 30
0.0
 75
     0
  0
DIMASSOC
  5
277C
102
{ACAD_REACTORS
330
277B
102
}
330
277B
100
AcDbDimAssoc
330
277A
 90
        3
 70
     0
 71
     0
  1
AcDbOsnapPointRef
 72
    13
331
2787
 73
     2
 91
        0
 40
0.0
 10
133.5799496199762
 20
194.2438128573029
 30
0.0
 75
     0
  1
AcDbOsnapPointRef
 72
     1
331
2787
 73
     2
 91
        0
 40
1.0
 10
210.5799496199761
 20
194.2438128573029
 30
0.0
 75
     0
  0
DIMASSOC
  5
278D
102
{ACAD_REACTORS
330
278C
102
}
330
278C
100
AcDbDimAssoc
330
278B
 90
        3
 70
     0
 71
     0
  1
AcDbOsnapPointRef
 72
     6
331
278A
 73
     2
 91
        0
 40
0.5
 10
172.079949619976
 20
147.0243708573029
 30
0.0
332
27A2
 74
     2
 92
        0
 75
     0
  1
AcDbOsnapPointRef
 72
     6
331
2799
 73
     2
 91
        0
 40
0.4084507042253521
 10
172.079949619976
 20
144.5243708573029
 30
0.0
332
27A2
 74
     2
 92
        0
 75
     0
  0
DIMASSOC
  5
2798
102
{ACAD_REACTORS
330
2797
102
}
330
2797
100
AcDbDimAssoc
330
2796
 90
        3
 70
     0
 71
     0
  1
AcDbOsnapPointRef
 72
     1
331
278E
 73
     2
 91
        0
 40
1.0
 10
157.5799496199761
 20
139.0243708573029
 30
0.0
 75
     0
  1
AcDbOsnapPointRef
 72
    13
331
2784
 73
     2
 91
        0
 40
0.0
 10
193.079949619976
 20
139.0243708573029
 30
0.0
 75
     0
  0
DIMASSOC
  5
279C
102
{ACAD_REACTORS
330
279B
102
}
330
279B
100
AcDbDimAssoc
330
279A
 90
        2
 70
     0
 71
     0
  1
AcDbOsnapPointRef
 72
     1
331
27A2
 73
     2
 91
        0
 40
1.0
 10
172.079949619976
 20
143.5243708573029
 30
0.0
 75
     0
  0
DIMASSOC
  5
27AE
102
{ACAD_REACTORS
330
27AD
102
}
330
27AD
100
AcDbDimAssoc
330
27AC
 90
        3
 70
     0
 71
     0
  1
AcDbOsnapPointRef
 72
    13
331
27BD
 73
     2
 91
        0
 40
0.0
 10
137.0799496199762
 20
194.2438128573029
 30
0.0
 75
     0
  1
AcDbOsnapPointRef
 72
    13
331
27CD
 73
     2
 91
        0
 40
0.0
 10
207.0799496199761
 20
194.2438128573029
 30
0.0
 75
     0
  0
DIMASSOC
  5
27B1
102
{ACAD_REACTORS
330
27B0
102
}
330
27B0
100
AcDbDimAssoc
330
27AF
 90
        3
 70
     0
 71
     0
  1
AcDbOsnapPointRef
 72
     1
331
27BB
 73
     2
 91
        0
 40
1.0
 10
133.0799496199762
 20
190.2438128573029
 30
0.0
 75
     0
  1
AcDbOsnapPointRef
 72
     1
331
27B8
 73
     2
 91
        0
 40
1.0
 10
133.0799496199762
 20
165.2438128573029
 30
0.0
 75
     0
  0
DIMASSOC
  5
27B4
102
{ACAD_REACTORS
330
27B3
102
}
330
27B3
100
AcDbDimAssoc
330
27B2
 90
        2
 70
     0
 71
     0
  1
AcDbOsnapPointRef
 72
    13
331
2788
 73
     2
 91
        0
 40
0.0
 10
133.5799496199762
 20
161.2438128573029
 30
0.0
 75
     0
  0
DIMASSOC
  5
27D0
102
{ACAD_REACTORS
330
27CF
102
}
330
27CF
100
AcDbDimAssoc
330
27CE
 90
        3
 70
     0
 71
     0
  1
AcDbOsnapPointRef
 72
    13
331
27D4
 73
     2
 91
        0
 40
0.0
 10
215.5799496199761
 20
144.5243708573029
 30
0.0
 75
     0
  1
AcDbOsnapPointRef
 72
     1
331
27D4
 73
     2
 91
        0
 40
1.0
 10
215.5799496199761
 20
140.5243708573029
 30
0.0
 75
     0
  0
DIMASSOC
  5
27DE
102
{ACAD_REACTORS
330
27DD
102
}
330
27DD
100
AcDbDimAssoc
330
27DC
 90
        1
 70
     0
 71
     0
  1
AcDbOsnapPointRef
 72
    13
331
2804
 73
     2
 91
        0
 40
0.0
 10
237.9562856199762
 20
193.2438128573029
 30
0.0
 75
     0
  0
DIMASSOC
  5
27E1
102
{ACAD_REACTORS
330
27E0
102
}
330
27E0
100
AcDbDimAssoc
330
27DF
 90
        3
 70
     0
 71
     0
  1
AcDbOsnapPointRef
 72
    13
331
27E9
 73
     2
 91
        0
 40
0.0
 10
233.9562856199762
 20
194.2438128573029
 30
0.0
 75
     0
  1
AcDbOsnapPointRef
 72
     1
331
2800
 73
     2
 91
        0
 40
1.0
 10
241.9562856199762
 20
194.2438128573029
 30
0.0
 75
     0
  0
DIMASSOC
  5
27E6
102
{ACAD_REACTORS
330
27E5
102
}
330
27E5
100
AcDbDimAssoc
330
27E4
 90
        3
 70
     0
 71
     0
  1
AcDbOsnapPointRef
 72
     1
331
27FD
 73
     2
 91
        0
 40
1.0
 10
215.5799496199761
 20
186.2438128573029
 30
0.0
 75
     0
  1
AcDbOsnapPointRef
 72
     1
331
27EC
 73
     2
 91
        0
 40
1.0
 10
215.5799496199761
 20
169.2438128573029
 30
0.0
 75
     0
  0
XRECORD
  5
3BFC
102
{ACAD_REACTORS
330
3BFB
102
}
330
3BFB
100
AcDbXrecord
280
     1
 90
        1
340
36B9
  0
XRECORD
  5
635D
102
{ACAD_REACTORS
330
3C1E
102
}
330
3C1E
100
AcDbXrecord
280
     1
 40
11789949.0
  1
{\fMS UI Gothic|b0|i0|c128|p50;株式会社ラインアイ\P\pxqr;単位 ： mm}
  0
ACDBDETAILVIEWSTYLE
  5
3BBA
102
{ACAD_REACTORS
330
3BAC
102
}
330
3BAC
100
AcDbModelDocViewStyle
 70
     0
  3
Metric50
290
     0
100
AcDbDetailViewStyle
 70
     0
 71
     0
 90
        3
 71
     1
340
11
 62
   256
 40
5.0
340
0
 62
   256
 40
5.0
300

 40
0.0
280
     1
 71
     2
340
16
 90
       25
 62
   256
 71
     3
340
11
 62
   256
 40
5.0
 90
        0
 40
15.0
 90
        1
300
%<\AcVar ViewDetailId>% (%<\AcVar ViewScale \f "%sn">%)
 71
     4
340
16
 90
       25
 62
   256
340
16
 90
       25
 62
   256
280
     0
  0
LAYOUT
  5
22
102
{ACAD_REACTORS
330
1A
102
}
330
1A
100
AcDbPlotSettings
  1

  2
Acrobat PDFWriter
  4
A4
  6

 40
7.143749999999998
 41
7.143741
 42
7.143767999999998
 43
7.143753
 44
297.053009
 45
209.973328
 46
25.48
 47
0.0
 48
1435.704606
 49
1108.925252
140
1540.197795
141
1197.136093
142
1.0
143
0.4507778575326002
 70
 28340
 72
     1
 73
     0
 74
     4
  7
Grayscale.ctb
 75
     0
147
2.218387578914476
 76
     0
 77
     2
 78
   300
148
-1435.704606
149
-1108.925252
100
AcDbLayout
  1
Model
 70
     1
 71
     0
 10
0.0
 20
0.0
 11
12.0
 21
9.0
 12
0.0
 22
0.0
 32
0.0
 14
0.0
 24
0.0
 34
0.0
 15
0.0
 25
0.0
 35
0.0
146
0.0
 13
0.0
 23
0.0
 33
0.0
 16
1.0
 26
0.0
 36
0.0
 17
0.0
 27
1.0
 37
0.0
 76
     0
330
1F
331
36B7
  0
LAYOUT
  5
1E
102
{ACAD_REACTORS
330
1A
102
}
330
1A
100
AcDbPlotSettings
  1

  2
DWG To PDF.pc3
  4
ISO_full_bleed_A4_(297.00_x_210.00_MM)
  6

 40
0.7937499880790711
 41
0.7937499880790711
 42
0.79376220703125
 43
0.7937469482421875
 44
297.0
 45
210.0
 46
0.0
 47
0.0
 48
0.0
 49
0.0
140
0.0
141
0.0
142
1.0
143
1.0
 70
   688
 72
     1
 73
     0
 74
     5
  7
monochrome.ctb
 75
    16
147
1.0
 76
     0
 77
     2
 78
   300
148
0.0
149
0.0
100
AcDbLayout
  1
ﾚｲｱｳﾄ1
 70
     1
 71
     1
 10
-0.7937499880790711
 20
-0.7937499880790711
 11
296.2062500119209
 21
209.2062500119209
 12
0.0
 22
0.0
 32
0.0
 14
-0.6161281959830376
 24
-0.9914953453488806
 34
0.0
 15
296.8919077172943
 25
209.0085046546511
 35
0.0
146
0.0
 13
0.0
 23
0.0
 33
0.0
 16
1.0
 26
0.0
 36
0.0
 17
0.0
 27
1.0
 37
0.0
 76
     0
330
1B
331
467
1001
ACAD_PSEXT
1000
DWG To PDF.pc3
1000
DWG To PDF
1000
ファイル
1000

1070
     0
  0
MATERIAL
  5
36F5
102
{ACAD_REACTORS
330
36F3
102
}
330
36F3
100
AcDbMaterial
  1
ByBlock
  0
MATERIAL
  5
36F4
102
{ACAD_REACTORS
330
36F3
102
}
330
36F3
100
AcDbMaterial
  1
ByLayer
  0
MATERIAL
  5
36F6
102
{ACAD_REACTORS
330
36F3
102
}
330
36F3
100
AcDbMaterial
  1
Global
  0
MLEADERSTYLE
  5
36FA
102
{ACAD_REACTORS
330
36F9
102
}
330
36F9
100
AcDbMLeaderStyle
179
     2
170
     2
171
     1
172
     0
 90
        2
 40
0.0
 41
0.0
173
     1
 91
-1056964608
340
14
 92
       -2
290
     1
 42
2.0
291
     1
 43
8.0
  3
Standard
 44
2.0
300

342
11
174
     5
178
     8
175
     0
176
     0
 93
-1056964608
 45
2.5
292
     0
297
     0
 46
4.0
 94
-1056964608
 47
1.0
 49
1.0
140
1.0
293
     1
141
0.0
294
     1
177
     0
142
1.0
295
     0
296
     0
143
3.75
271
     0
272
     9
273
     9
298
     0
  0
MLINESTYLE
  5
18
102
{ACAD_REACTORS
330
17
102
}
330
17
100
AcDbMlineStyle
  2
STANDARD
 70
     0
  3

 62
   256
 51
90.0
 52
90.0
 71
     2
 49
0.5
 62
   256
  6
BYLAYER
 49
-0.5
 62
   256
  6
BYLAYER
  0
ACDBPLACEHOLDER
  5
F
102
{ACAD_REACTORS
330
E
102
}
330
E
  0
SCALE
  5
36B9
102
{ACAD_REACTORS
330
36B8
102
}
330
36B8
100
AcDbScale
 70
     0
300
1:1
140
1.0
141
1.0
290
     1
  0
SCALE
  5
36BA
102
{ACAD_REACTORS
330
36B8
102
}
330
36B8
100
AcDbScale
 70
     0
300
1:2
140
1.0
141
2.0
290
     0
  0
SCALE
  5
36BB
102
{ACAD_REACTORS
330
36B8
102
}
330
36B8
100
AcDbScale
 70
     0
300
1:4
140
1.0
141
4.0
290
     0
  0
SCALE
  5
36BC
102
{ACAD_REACTORS
330
36B8
102
}
330
36B8
100
AcDbScale
 70
     0
300
1:5
140
1.0
141
5.0
290
     0
  0
SCALE
  5
36BD
102
{ACAD_REACTORS
330
36B8
102
}
330
36B8
100
AcDbScale
 70
     0
300
1:8
140
1.0
141
8.0
290
     0
  0
SCALE
  5
36BE
102
{ACAD_REACTORS
330
36B8
102
}
330
36B8
100
AcDbScale
 70
     0
300
1:10
140
1.0
141
10.0
290
     0
  0
SCALE
  5
36BF
102
{ACAD_REACTORS
330
36B8
102
}
330
36B8
100
AcDbScale
 70
     0
300
1:16
140
1.0
141
16.0
290
     0
  0
SCALE
  5
36C0
102
{ACAD_REACTORS
330
36B8
102
}
330
36B8
100
AcDbScale
 70
     0
300
1:20
140
1.0
141
20.0
290
     0
  0
SCALE
  5
36C1
102
{ACAD_REACTORS
330
36B8
102
}
330
36B8
100
AcDbScale
 70
     0
300
1:30
140
1.0
141
30.0
290
     0
  0
SCALE
  5
36C2
102
{ACAD_REACTORS
330
36B8
102
}
330
36B8
100
AcDbScale
 70
     0
300
1:40
140
1.0
141
40.0
290
     0
  0
SCALE
  5
36C3
102
{ACAD_REACTORS
330
36B8
102
}
330
36B8
100
AcDbScale
 70
     0
300
1:50
140
1.0
141
50.0
290
     0
  0
SCALE
  5
36C4
102
{ACAD_REACTORS
330
36B8
102
}
330
36B8
100
AcDbScale
 70
     0
300
1:100
140
1.0
141
100.0
290
     0
  0
SCALE
  5
36C5
102
{ACAD_REACTORS
330
36B8
102
}
330
36B8
100
AcDbScale
 70
     0
300
2:1
140
2.0
141
1.0
290
     0
  0
SCALE
  5
36C6
102
{ACAD_REACTORS
330
36B8
102
}
330
36B8
100
AcDbScale
 70
     0
300
4:1
140
4.0
141
1.0
290
     0
  0
SCALE
  5
36C7
102
{ACAD_REACTORS
330
36B8
102
}
330
36B8
100
AcDbScale
 70
     0
300
8:1
140
8.0
141
1.0
290
     0
  0
SCALE
  5
36C8
102
{ACAD_REACTORS
330
36B8
102
}
330
36B8
100
AcDbScale
 70
     0
300
10:1
140
10.0
141
1.0
290
     0
  0
SCALE
  5
36C9
102
{ACAD_REACTORS
330
36B8
102
}
330
36B8
100
AcDbScale
 70
     0
300
100:1
140
100.0
141
1.0
290
     0
  0
SCALE
  5
36CA
102
{ACAD_REACTORS
330
36B8
102
}
330
36B8
100
AcDbScale
 70
     0
300
1/128" = 1'-0"
140
0.0078125
141
12.0
290
     0
  0
SCALE
  5
36CB
102
{ACAD_REACTORS
330
36B8
102
}
330
36B8
100
AcDbScale
 70
     0
300
1/64" = 1'-0"
140
0.015625
141
12.0
290
     0
  0
SCALE
  5
36CC
102
{ACAD_REACTORS
330
36B8
102
}
330
36B8
100
AcDbScale
 70
     0
300
1/32" = 1'-0"
140
0.03125
141
12.0
290
     0
  0
SCALE
  5
36CD
102
{ACAD_REACTORS
330
36B8
102
}
330
36B8
100
AcDbScale
 70
     0
300
1/16" = 1'-0"
140
0.0625
141
12.0
290
     0
  0
SCALE
  5
36CE
102
{ACAD_REACTORS
330
36B8
102
}
330
36B8
100
AcDbScale
 70
     0
300
3/32" = 1'-0"
140
0.09375
141
12.0
290
     0
  0
SCALE
  5
36CF
102
{ACAD_REACTORS
330
36B8
102
}
330
36B8
100
AcDbScale
 70
     0
300
1/8" = 1'-0"
140
0.125
141
12.0
290
     0
  0
SCALE
  5
36D0
102
{ACAD_REACTORS
330
36B8
102
}
330
36B8
100
AcDbScale
 70
     0
300
3/16" = 1'-0"
140
0.1875
141
12.0
290
     0
  0
SCALE
  5
36D1
102
{ACAD_REACTORS
330
36B8
102
}
330
36B8
100
AcDbScale
 70
     0
300
1/4" = 1'-0"
140
0.25
141
12.0
290
     0
  0
SCALE
  5
36D2
102
{ACAD_REACTORS
330
36B8
102
}
330
36B8
100
AcDbScale
 70
     0
300
3/8" = 1'-0"
140
0.375
141
12.0
290
     0
  0
SCALE
  5
36D3
102
{ACAD_REACTORS
330
36B8
102
}
330
36B8
100
AcDbScale
 70
     0
300
1/2" = 1'-0"
140
0.5
141
12.0
290
     0
  0
SCALE
  5
36D4
102
{ACAD_REACTORS
330
36B8
102
}
330
36B8
100
AcDbScale
 70
     0
300
3/4" = 1'-0"
140
0.75
141
12.0
290
     0
  0
SCALE
  5
36D5
102
{ACAD_REACTORS
330
36B8
102
}
330
36B8
100
AcDbScale
 70
     0
300
1" = 1'-0"
140
1.0
141
12.0
290
     0
  0
SCALE
  5
36D6
102
{ACAD_REACTORS
330
36B8
102
}
330
36B8
100
AcDbScale
 70
     0
300
1-1/2" = 1'-0"
140
1.5
141
12.0
290
     0
  0
SCALE
  5
36D7
102
{ACAD_REACTORS
330
36B8
102
}
330
36B8
100
AcDbScale
 70
     0
300
3" = 1'-0"
140
3.0
141
12.0
290
     0
  0
SCALE
  5
36D8
102
{ACAD_REACTORS
330
36B8
102
}
330
36B8
100
AcDbScale
 70
     0
300
6" = 1'-0"
140
6.0
141
12.0
290
     0
  0
SCALE
  5
36D9
102
{ACAD_REACTORS
330
36B8
102
}
330
36B8
100
AcDbScale
 70
     0
300
1'-0" = 1'-0"
140
12.0
141
12.0
290
     0
  0
ACDBSECTIONVIEWSTYLE
  5
3BB9
102
{ACAD_REACTORS
330
3BAD
102
}
330
3BAD
100
AcDbModelDocViewStyle
 70
     0
  3
Metric50
290
     0
100
AcDbSectionViewStyle
 70
     0
 71
     0
 90
      102
 71
     1
340
11
 62
   256
 40
5.0
340
0
340
0
 62
   256
 40
5.0
300
I, O, Q, S, X, Z
 40
10.0
 90
        0
 40
2.5
 90
        0
 71
     2
340
16
 90
       25
 62
   256
340
16
 90
       50
 62
   256
 40
5.0
 40
2.5
 40
5.0
 71
     3
340
11
 62
   256
 40
5.0
 90
        0
 40
15.0
 90
        1
300
%<\AcVar ViewSectionStartId>%-%<\AcVar ViewSectionEndId>% (%<\AcVar ViewScale \f "%sn">%)
 71
     4
 62
   256
 62
   257
300
ANSI31
 40
1.0
 90
        0
290
     0
290
     0
 90
        6
 40
0.0
 40
1.570796326794896
 40
0.2617993877991494
 40
1.308996938995747
 40
-0.2617993877991494
 40
1.832595714594046
  0
TABLESTYLE
  5
36F8
102
{ACAD_XDICTIONARY
360
3BB1
102
}
102
{ACAD_REACTORS
330
36F7
102
}
330
36F7
100
AcDbTableStyle
280
     0
  3
Standard
 70
     0
 71
     0
 40
1.5
 41
1.5
280
     0
281
     0
  7
Standard
140
4.5
170
     2
 62
     0
 63
     7
283
     0
 90
        4
 91
        0
  1

274
    -2
284
     1
 64
     0
275
    -2
285
     1
 65
     0
276
    -2
286
     1
 66
     0
277
    -2
287
     1
 67
     0
278
    -2
288
     1
 68
     0
279
    -2
289
     1
 69
     0
  7
Standard
140
6.0
170
     5
 62
     0
 63
     7
283
     0
 90
        4
 91
        0
  1

274
    -2
284
     1
 64
     0
275
    -2
285
     1
 65
     0
276
    -2
286
     1
 66
     0
277
    -2
287
     1
 67
     0
278
    -2
288
     1
 68
     0
279
    -2
289
     1
 69
     0
  7
Standard
140
4.5
170
     5
 62
     0
 63
     7
283
     0
 90
        4
 91
        0
  1

274
    -2
284
     1
 64
     0
275
    -2
285
     1
 65
     0
276
    -2
286
     1
 66
     0
277
    -2
287
     1
 67
     0
278
    -2
288
     1
 68
     0
279
    -2
289
     1
 69
     0
  0
VISUALSTYLE
  5
36DF
102
{ACAD_REACTORS
330
36DA
102
}
330
36DA
100
AcDbVisualStyle
  2
2dWireframe
 70
     4
177
     3
291
     0
 70
    58
 90
        0
176
     1
 90
        2
176
     1
 90
        0
176
     1
 90
        0
176
     1
 40
0.6
176
     1
 40
30.0
176
     1
 62
     7
420
 16777215
176
     1
 90
        1
176
     1
 90
        4
176
     1
 62
     7
176
     1
 62
   257
176
     1
 90
        1
176
     1
 90
        1
176
     1
 40
1.0
176
     1
 90
        0
176
     1
 62
   257
176
     1
 40
1.0
176
     1
 90
        1
176
     1
 90
        6
176
     1
 90
        2
176
     1
 62
     7
176
     1
 90
        5
176
     1
 90
        0
176
     1
 90
        0
176
     1
290
     0
176
     1
 90
        1
176
     1
 40
0.0
176
     1
 90
        0
176
     1
290
     1
176
     1
290
     1
176
     1
290
     0
176
     1
290
     0
176
     1
290
     0
176
     1
290
     0
176
     1
290
     0
176
     1
290
     0
176
     1
290
     0
176
     1
 90
       50
176
     1
 40
0.0
176
     1
 40
1.0
176
     1
 90
        0
176
     1
 62
    18
176
     1
 90
       50
176
     1
 90
        3
176
     1
 62
     5
420
      255
176
     1
290
     0
176
     1
 90
       50
176
     1
 90
       50
176
     1
 90
       50
176
     1
290
     0
176
     1
 90
       50
176
     1
 62
   256
176
     0
 40
1.0
176
     0
 90
        2
176
     1
  1
strokes_ogs.tif
176
     1
290
     0
176
     1
 40
1.0
176
     1
 40
1.0
176
     1
  0
VISUALSTYLE
  5
36E2
102
{ACAD_REACTORS
330
36DA
102
}
330
36DA
100
AcDbVisualStyle
  2
Basic
 70
     7
177
     3
291
     1
 70
    58
 90
        1
176
     1
 90
        0
176
     1
 90
        1
176
     1
 90
        0
176
     1
 40
0.6
176
     1
 40
30.0
176
     1
 62
     7
420
 16777215
176
     1
 90
        0
176
     1
 90
        4
176
     1
 62
     7
176
     1
 62
   257
176
     1
 90
        1
176
     1
 90
        1
176
     1
 40
1.0
176
     1
 90
        8
176
     1
 62
     7
176
     1
 40
1.0
176
     1
 90
        1
176
     1
 90
        6
176
     1
 90
        2
176
     1
 62
     7
176
     1
 90
        5
176
     1
 90
        0
176
     1
 90
        0
176
     1
290
     0
176
     1
 90
        1
176
     1
 40
0.0
176
     1
 90
        0
176
     1
290
     0
176
     1
290
     1
176
     1
290
     1
176
     1
290
     0
176
     1
290
     0
176
     1
290
     0
176
     1
290
     0
176
     1
290
     0
176
     1
290
     0
176
     1
 90
       50
176
     1
 40
0.0
176
     1
 40
1.0
176
     1
 90
        0
176
     1
 62
    18
176
     1
 90
       50
176
     1
 90
        3
176
     1
 62
     5
420
      255
176
     1
290
     0
176
     1
 90
       50
176
     1
 90
       50
176
     1
 90
       50
176
     1
290
     0
176
     1
 90
       50
176
     1
 62
   256
176
     0
 40
1.0
176
     0
 90
        2
176
     1
  1
strokes_ogs.tif
176
     1
290
     0
176
     1
 40
1.0
176
     1
 40
1.0
176
     1
  0
VISUALSTYLE
  5
36E6
102
{ACAD_REACTORS
330
36DA
102
}
330
36DA
100
AcDbVisualStyle
  2
Brighten
 70
    12
177
     3
291
     1
 70
    58
 90
        2
176
     1
 90
        2
176
     1
 90
        0
176
     1
 90
        0
176
     1
 40
0.6
176
     1
 40
30.0
176
     1
 62
     7
420
 16777215
176
     1
 90
        1
176
     1
 90
        4
176
     1
 62
     7
176
     1
 62
   257
176
     1
 90
        1
176
     1
 90
        1
176
     1
 40
1.0
176
     1
 90
        8
176
     1
 62
     7
176
     1
 40
1.0
176
     1
 90
        1
176
     1
 90
        6
176
     1
 90
        2
176
     1
 62
     7
176
     1
 90
        5
176
     1
 90
        0
176
     1
 90
        0
176
     1
290
     0
176
     1
 90
        1
176
     1
 40
50.0
176
     1
 90
        0
176
     1
290
     0
176
     1
290
     1
176
     1
290
     1
176
     1
290
     0
176
     1
290
     0
176
     1
290
     0
176
     1
290
     0
176
     1
290
     0
176
     1
290
     0
176
     1
 90
       50
176
     1
 40
0.0
176
     1
 40
1.0
176
     1
 90
        0
176
     1
 62
    18
176
     1
 90
       50
176
     1
 90
        3
176
     1
 62
     5
420
      255
176
     1
290
     0
176
     1
 90
       50
176
     1
 90
       50
176
     1
 90
       50
176
     1
290
     0
176
     1
 90
       50
176
     1
 62
   256
176
     0
 40
1.0
176
     0
 90
        2
176
     1
  1
strokes_ogs.tif
176
     1
290
     0
176
     1
 40
1.0
176
     1
 40
1.0
176
     1
  0
VISUALSTYLE
  5
36EA
102
{ACAD_REACTORS
330
36DA
102
}
330
36DA
100
AcDbVisualStyle
  2
ColorChange
 70
    16
177
     3
291
     1
 70
    58
 90
        2
176
     1
 90
        2
176
     1
 90
        3
176
     1
 90
        0
176
     1
 40
0.6
176
     1
 40
30.0
176
     1
 62
     8
420
  8421504
176
     1
 90
        1
176
     1
 90
        4
176
     1
 62
     7
176
     1
 62
   257
176
     1
 90
        1
176
     1
 90
        1
176
     1
 40
1.0
176
     1
 90
        8
176
     1
 62
     8
420
  8421504
176
     1
 40
1.0
176
     1
 90
        1
176
     1
 90
        6
176
     1
 90
        2
176
     1
 62
     7
176
     1
 90
        5
176
     1
 90
        0
176
     1
 90
        0
176
     1
290
     0
176
     1
 90
        1
176
     1
 40
0.0
176
     1
 90
        0
176
     1
290
     0
176
     1
290
     1
176
     1
290
     1
176
     1
290
     0
176
     1
290
     0
176
     1
290
     0
176
     1
290
     0
176
     1
290
     0
176
     1
290
     0
176
     1
 90
       50
176
     1
 40
0.0
176
     1
 40
1.0
176
     1
 90
        0
176
     1
 62
    18
176
     1
 90
       50
176
     1
 90
        3
176
     1
 62
     5
420
      255
176
     1
290
     0
176
     1
 90
       50
176
     1
 90
       50
176
     1
 90
       50
176
     1
290
     0
176
     1
 90
       50
176
     1
 62
   256
176
     0
 40
1.0
176
     0
 90
        2
176
     1
  1
strokes_ogs.tif
176
     1
290
     0
176
     1
 40
1.0
176
     1
 40
1.0
176
     1
  0
VISUALSTYLE
  5
36E4
102
{ACAD_REACTORS
330
36DA
102
}
330
36DA
100
AcDbVisualStyle
  2
Conceptual
 70
     9
177
     3
291
     0
 70
    58
 90
        3
176
     1
 90
        2
176
     1
 90
        0
176
     1
 90
        0
176
     1
 40
0.6
176
     1
 40
30.0
176
     1
 62
     7
420
 16777215
176
     1
 90
        2
176
     1
 90
        2
176
     1
 62
     7
176
     1
 62
   257
176
     1
 90
        1
176
     1
 90
        1
176
     1
 40
179.0
176
     1
 90
        8
176
     1
 62
     7
176
     1
 40
1.0
176
     1
 90
        1
176
     1
 90
        6
176
     1
 90
        2
176
     1
 62
     7
176
     1
 90
        3
176
     1
 90
        0
176
     1
 90
        0
176
     1
290
     0
176
     1
 90
        1
176
     1
 40
0.0
176
     1
 90
        0
176
     1
290
     0
176
     1
290
     1
176
     1
290
     1
176
     1
290
     0
176
     1
290
     0
176
     1
290
     0
176
     1
290
     0
176
     1
290
     0
176
     1
290
     0
176
     1
 90
       50
176
     1
 40
0.0
176
     1
 40
1.0
176
     1
 90
        0
176
     1
 62
    18
176
     1
 90
       50
176
     1
 90
        3
176
     1
 62
     5
420
      255
176
     1
290
     0
176
     1
 90
       50
176
     1
 90
       50
176
     1
 90
       50
176
     1
290
     0
176
     1
 90
       50
176
     1
 62
   256
176
     0
 40
1.0
176
     0
 90
        2
176
     1
  1
strokes_ogs.tif
176
     1
290
     0
176
     1
 40
1.0
176
     1
 40
1.0
176
     1
  0
VISUALSTYLE
  5
36E5
102
{ACAD_REACTORS
330
36DA
102
}
330
36DA
100
AcDbVisualStyle
  2
Dim
 70
    11
177
     3
291
     1
 70
    58
 90
        2
176
     1
 90
        2
176
     1
 90
        0
176
     1
 90
        0
176
     1
 40
0.6
176
     1
 40
30.0
176
     1
 62
     7
420
 16777215
176
     1
 90
        1
176
     1
 90
        4
176
     1
 62
     7
176
     1
 62
   257
176
     1
 90
        1
176
     1
 90
        1
176
     1
 40
1.0
176
     1
 90
        8
176
     1
 62
     7
176
     1
 40
1.0
176
     1
 90
        1
176
     1
 90
        6
176
     1
 90
        2
176
     1
 62
     7
176
     1
 90
        5
176
     1
 90
        0
176
     1
 90
        0
176
     1
290
     0
176
     1
 90
        1
176
     1
 40
-50.0
176
     1
 90
        0
176
     1
290
     0
176
     1
290
     1
176
     1
290
     1
176
     1
290
     0
176
     1
290
     0
176
     1
290
     0
176
     1
290
     0
176
     1
290
     0
176
     1
290
     0
176
     1
 90
       50
176
     1
 40
0.0
176
     1
 40
1.0
176
     1
 90
        0
176
     1
 62
    18
176
     1
 90
       50
176
     1
 90
        3
176
     1
 62
     5
420
      255
176
     1
290
     0
176
     1
 90
       50
176
     1
 90
       50
176
     1
 90
       50
176
     1
290
     0
176
     1
 90
       50
176
     1
 62
   256
176
     0
 40
1.0
176
     0
 90
        2
176
     1
  1
strokes_ogs.tif
176
     1
290
     0
176
     1
 40
1.0
176
     1
 40
1.0
176
     1
  0
VISUALSTYLE
  5
36ED
102
{ACAD_REACTORS
330
36DA
102
}
330
36DA
100
AcDbVisualStyle
  2
EdgeColorOff
 70
    22
177
     3
291
     1
 70
    58
 90
        2
176
     0
 90
        2
176
     0
 90
        0
176
     0
 90
        0
176
     0
 40
0.6
176
     0
 40
30.0
176
     0
 62
     7
420
 16777215
176
     0
 90
        1
176
     0
 90
        4
176
     0
 62
     7
176
     0
 62
   257
176
     0
 90
        1
176
     0
 90
        1
176
     0
 40
1.0
176
     0
 90
        8
176
     2
 62
     7
176
     0
 40
1.0
176
     0
 90
        1
176
     0
 90
        6
176
     0
 90
        2
176
     0
 62
     7
176
     0
 90
        5
176
     0
 90
        0
176
     0
 90
        0
176
     0
290
     0
176
     0
 90
        1
176
     0
 40
0.0
176
     0
 90
        0
176
     0
290
     0
176
     0
290
     1
176
     0
290
     1
176
     0
290
     0
176
     0
290
     0
176
     0
290
     0
176
     0
290
     0
176
     0
290
     0
176
     0
290
     0
176
     0
 90
       50
176
     0
 40
0.0
176
     0
 40
1.0
176
     0
 90
        0
176
     0
 62
    18
176
     0
 90
       50
176
     0
 90
        3
176
     0
 62
     5
420
      255
176
     0
290
     0
176
     0
 90
       50
176
     0
 90
       50
176
     0
 90
       50
176
     0
290
     0
176
     0
 90
       50
176
     0
 62
   256
176
     0
 40
1.0
176
     0
 90
        2
176
     0
  1
strokes_ogs.tif
176
     0
290
     0
176
     0
 40
1.0
176
     0
 40
1.0
176
     0
  0
VISUALSTYLE
  5
36E9
102
{ACAD_REACTORS
330
36DA
102
}
330
36DA
100
AcDbVisualStyle
  2
Facepattern
 70
    15
177
     3
291
     1
 70
    58
 90
        2
176
     1
 90
        2
176
     1
 90
        0
176
     1
 90
        0
176
     1
 40
0.6
176
     1
 40
30.0
176
     1
 62
     7
420
 16777215
176
     1
 90
        1
176
     1
 90
        4
176
     1
 62
     7
176
     1
 62
   257
176
     1
 90
        1
176
     1
 90
        1
176
     1
 40
1.0
176
     1
 90
        8
176
     1
 62
     7
176
     1
 40
1.0
176
     1
 90
        1
176
     1
 90
        6
176
     1
 90
        2
176
     1
 62
     7
176
     1
 90
        5
176
     1
 90
        0
176
     1
 90
        0
176
     1
290
     0
176
     1
 90
        1
176
     1
 40
0.0
176
     1
 90
        0
176
     1
290
     0
176
     1
290
     1
176
     1
290
     1
176
     1
290
     0
176
     1
290
     0
176
     1
290
     0
176
     1
290
     0
176
     1
290
     0
176
     1
290
     0
176
     1
 90
       50
176
     1
 40
0.0
176
     1
 40
1.0
176
     1
 90
        0
176
     1
 62
    18
176
     1
 90
       50
176
     1
 90
        3
176
     1
 62
     5
420
      255
176
     1
290
     0
176
     1
 90
       50
176
     1
 90
       50
176
     1
 90
       50
176
     1
290
     0
176
     1
 90
       50
176
     1
 62
   256
176
     0
 40
1.0
176
     0
 90
        2
176
     1
  1
strokes_ogs.tif
176
     1
290
     0
176
     1
 40
1.0
176
     1
 40
1.0
176
     1
  0
VISUALSTYLE
  5
36DB
102
{ACAD_REACTORS
330
36DA
102
}
330
36DA
100
AcDbVisualStyle
  2
Flat
 70
     0
177
     3
291
     1
 70
    58
 90
        2
176
     1
 90
        1
176
     1
 90
        1
176
     1
 90
        2
176
     1
 40
0.6
176
     1
 40
30.0
176
     1
 62
     7
420
 16777215
176
     1
 90
        0
176
     1
 90
        0
176
     1
 62
     7
176
     1
 62
   257
176
     1
 90
        1
176
     1
 90
        1
176
     1
 40
1.0
176
     1
 90
        8
176
     1
 62
     7
176
     1
 40
1.0
176
     1
 90
        1
176
     1
 90
        6
176
     1
 90
        2
176
     1
 62
     7
176
     1
 90
        5
176
     1
 90
        0
176
     1
 90
        0
176
     1
290
     0
176
     1
 90
       13
176
     1
 40
0.0
176
     1
 90
        0
176
     1
290
     0
176
     1
290
     1
176
     1
290
     1
176
     1
290
     0
176
     1
290
     0
176
     1
290
     0
176
     1
290
     0
176
     1
290
     0
176
     1
290
     0
176
     1
 90
       50
176
     1
 40
0.0
176
     1
 40
1.0
176
     1
 90
        0
176
     1
 62
    18
176
     1
 90
       50
176
     1
 90
        3
176
     1
 62
     5
420
      255
176
     1
290
     0
176
     1
 90
       50
176
     1
 90
       50
176
     1
 90
       50
176
     1
290
     0
176
     1
 90
       50
176
     1
 62
   256
176
     0
 40
1.0
176
     0
 90
        2
176
     1
  1
strokes_ogs.tif
176
     1
290
     0
176
     1
 40
1.0
176
     1
 40
1.0
176
     1
  0
VISUALSTYLE
  5
36DC
102
{ACAD_REACTORS
330
36DA
102
}
330
36DA
100
AcDbVisualStyle
  2
FlatWithEdges
 70
     1
177
     3
291
     1
 70
    58
 90
        2
176
     1
 90
        1
176
     1
 90
        1
176
     1
 90
        2
176
     1
 40
0.6
176
     1
 40
30.0
176
     1
 62
     7
420
 16777215
176
     1
 90
        1
176
     1
 90
        0
176
     1
 62
     7
176
     1
 62
   257
176
     1
 90
        1
176
     1
 90
        1
176
     1
 40
1.0
176
     1
 90
        0
176
     1
 62
   257
176
     1
 40
1.0
176
     1
 90
        1
176
     1
 90
        6
176
     1
 90
        2
176
     1
 62
     7
176
     1
 90
        5
176
     1
 90
        0
176
     1
 90
        0
176
     1
290
     0
176
     1
 90
       13
176
     1
 40
0.0
176
     1
 90
        0
176
     1
290
     0
176
     1
290
     1
176
     1
290
     1
176
     1
290
     0
176
     1
290
     0
176
     1
290
     0
176
     1
290
     0
176
     1
290
     0
176
     1
290
     0
176
     1
 90
       50
176
     1
 40
0.0
176
     1
 40
1.0
176
     1
 90
        0
176
     1
 62
    18
176
     1
 90
       50
176
     1
 90
        3
176
     1
 62
     5
420
      255
176
     1
290
     0
176
     1
 90
       50
176
     1
 90
       50
176
     1
 90
       50
176
     1
290
     0
176
     1
 90
       50
176
     1
 62
   256
176
     0
 40
1.0
176
     0
 90
        2
176
     1
  1
strokes_ogs.tif
176
     1
290
     0
176
     1
 40
1.0
176
     1
 40
1.0
176
     1
  0
VISUALSTYLE
  5
36DD
102
{ACAD_REACTORS
330
36DA
102
}
330
36DA
100
AcDbVisualStyle
  2
Gouraud
 70
     2
177
     3
291
     1
 70
    58
 90
        2
176
     1
 90
        2
176
     1
 90
        1
176
     1
 90
        2
176
     1
 40
0.6
176
     1
 40
30.0
176
     1
 62
     7
420
 16777215
176
     1
 90
        0
176
     1
 90
        0
176
     1
 62
     7
176
     1
 62
   257
176
     1
 90
        1
176
     1
 90
        1
176
     1
 40
1.0
176
     1
 90
        0
176
     1
 62
     7
176
     1
 40
1.0
176
     1
 90
        1
176
     1
 90
        6
176
     1
 90
        2
176
     1
 62
     7
176
     1
 90
        5
176
     1
 90
        0
176
     1
 90
        0
176
     1
290
     0
176
     1
 90
       13
176
     1
 40
0.0
176
     1
 90
        0
176
     1
290
     0
176
     1
290
     1
176
     1
290
     1
176
     1
290
     0
176
     1
290
     0
176
     1
290
     0
176
     1
290
     0
176
     1
290
     0
176
     1
290
     0
176
     1
 90
       50
176
     1
 40
0.0
176
     1
 40
1.0
176
     1
 90
        0
176
     1
 62
    18
176
     1
 90
       50
176
     1
 90
        3
176
     1
 62
     5
420
      255
176
     1
290
     0
176
     1
 90
       50
176
     1
 90
       50
176
     1
 90
       50
176
     1
290
     0
176
     1
 90
       50
176
     1
 62
   256
176
     0
 40
1.0
176
     0
 90
        2
176
     1
  1
strokes_ogs.tif
176
     1
290
     0
176
     1
 40
1.0
176
     1
 40
1.0
176
     1
  0
VISUALSTYLE
  5
36DE
102
{ACAD_REACTORS
330
36DA
102
}
330
36DA
100
AcDbVisualStyle
  2
GouraudWithEdges
 70
     3
177
     3
291
     1
 70
    58
 90
        2
176
     1
 90
        2
176
     1
 90
        1
176
     1
 90
        2
176
     1
 40
0.6
176
     1
 40
30.0
176
     1
 62
     7
420
 16777215
176
     1
 90
        1
176
     1
 90
        0
176
     1
 62
     7
176
     1
 62
   257
176
     1
 90
        1
176
     1
 90
        1
176
     1
 40
1.0
176
     1
 90
        0
176
     1
 62
   257
176
     1
 40
1.0
176
     1
 90
        1
176
     1
 90
        6
176
     1
 90
        2
176
     1
 62
     7
176
     1
 90
        5
176
     1
 90
        0
176
     1
 90
        0
176
     1
290
     0
176
     1
 90
       13
176
     1
 40
0.0
176
     1
 90
        0
176
     1
290
     0
176
     1
290
     1
176
     1
290
     1
176
     1
290
     0
176
     1
290
     0
176
     1
290
     0
176
     1
290
     0
176
     1
290
     0
176
     1
290
     0
176
     1
 90
       50
176
     1
 40
0.0
176
     1
 40
1.0
176
     1
 90
        0
176
     1
 62
    18
176
     1
 90
       50
176
     1
 90
        3
176
     1
 62
     5
420
      255
176
     1
290
     0
176
     1
 90
       50
176
     1
 90
       50
176
     1
 90
       50
176
     1
290
     0
176
     1
 90
       50
176
     1
 62
   256
176
     0
 40
1.0
176
     0
 90
        2
176
     1
  1
strokes_ogs.tif
176
     1
290
     0
176
     1
 40
1.0
176
     1
 40
1.0
176
     1
  0
VISUALSTYLE
  5
36E1
102
{ACAD_REACTORS
330
36DA
102
}
330
36DA
100
AcDbVisualStyle
  2
Hidden
 70
     6
177
     3
291
     0
 70
    58
 90
        1
176
     1
 90
        2
176
     1
 90
        2
176
     1
 90
        0
176
     1
 40
0.6
176
     1
 40
30.0
176
     1
 62
     7
420
 16777215
176
     1
 90
        2
176
     1
 90
        2
176
     1
 62
     7
176
     1
 62
   257
176
     1
 90
        2
176
     1
 90
        1
176
     1
 40
40.0
176
     1
 90
        0
176
     1
 62
   257
176
     1
 40
1.0
176
     1
 90
        1
176
     1
 90
        6
176
     1
 90
        2
176
     1
 62
     7
176
     1
 90
        3
176
     1
 90
        0
176
     1
 90
        0
176
     1
290
     0
176
     1
 90
        1
176
     1
 40
0.0
176
     1
 90
        0
176
     1
290
     0
176
     1
290
     1
176
     1
290
     1
176
     1
290
     0
176
     1
290
     0
176
     1
290
     0
176
     1
290
     0
176
     1
290
     0
176
     1
290
     0
176
     1
 90
       50
176
     1
 40
0.0
176
     1
 40
1.0
176
     1
 90
        0
176
     1
 62
    18
176
     1
 90
       50
176
     1
 90
        3
176
     1
 62
     5
420
      255
176
     1
290
     0
176
     1
 90
       50
176
     1
 90
       50
176
     1
 90
       50
176
     1
290
     0
176
     1
 90
       50
176
     1
 62
   256
176
     0
 40
1.0
176
     0
 90
        2
176
     1
  1
strokes_ogs.tif
176
     1
290
     0
176
     1
 40
1.0
176
     1
 40
1.0
176
     1
  0
VISUALSTYLE
  5
36EB
102
{ACAD_REACTORS
330
36DA
102
}
330
36DA
100
AcDbVisualStyle
  2
JitterOff
 70
    20
177
     3
291
     1
 70
    58
 90
        2
176
     0
 90
        2
176
     0
 90
        0
176
     0
 90
        0
176
     0
 40
0.6
176
     0
 40
30.0
176
     0
 62
     7
420
 16777215
176
     0
 90
        1
176
     0
 90
        4
176
     0
 62
     7
176
     0
 62
   257
176
     0
 90
        1
176
     0
 90
        1
176
     0
 40
1.0
176
     0
 90
       10
176
     2
 62
     7
176
     0
 40
1.0
176
     0
 90
        1
176
     0
 90
        6
176
     0
 90
        2
176
     0
 62
     7
176
     0
 90
        5
176
     0
 90
        0
176
     0
 90
        0
176
     0
290
     0
176
     0
 90
        1
176
     0
 40
0.0
176
     0
 90
        0
176
     0
290
     0
176
     0
290
     1
176
     0
290
     1
176
     0
290
     0
176
     0
290
     0
176
     0
290
     0
176
     0
290
     0
176
     0
290
     0
176
     0
290
     0
176
     0
 90
       50
176
     0
 40
0.0
176
     0
 40
1.0
176
     0
 90
        0
176
     0
 62
    18
176
     0
 90
       50
176
     0
 90
        3
176
     0
 62
     5
420
      255
176
     0
290
     0
176
     0
 90
       50
176
     0
 90
       50
176
     0
 90
       50
176
     0
290
     0
176
     0
 90
       50
176
     0
 62
   256
176
     0
 40
1.0
176
     0
 90
        2
176
     0
  1
strokes_ogs.tif
176
     0
290
     0
176
     0
 40
1.0
176
     0
 40
1.0
176
     0
  0
VISUALSTYLE
  5
36E8
102
{ACAD_REACTORS
330
36DA
102
}
330
36DA
100
AcDbVisualStyle
  2
Linepattern
 70
    14
177
     3
291
     1
 70
    58
 90
        2
176
     1
 90
        2
176
     1
 90
        0
176
     1
 90
        0
176
     1
 40
0.6
176
     1
 40
30.0
176
     1
 62
     7
420
 16777215
176
     1
 90
        1
176
     1
 90
        4
176
     1
 62
     7
176
     1
 62
   257
176
     1
 90
        7
176
     1
 90
        7
176
     1
 40
1.0
176
     1
 90
        8
176
     1
 62
     7
176
     1
 40
1.0
176
     1
 90
        1
176
     1
 90
        6
176
     1
 90
        2
176
     1
 62
     7
176
     1
 90
        5
176
     1
 90
        0
176
     1
 90
        0
176
     1
290
     0
176
     1
 90
        1
176
     1
 40
0.0
176
     1
 90
        0
176
     1
290
     0
176
     1
290
     1
176
     1
290
     1
176
     1
290
     0
176
     1
290
     0
176
     1
290
     0
176
     1
290
     0
176
     1
290
     0
176
     1
290
     0
176
     1
 90
       50
176
     1
 40
0.0
176
     1
 40
1.0
176
     1
 90
        0
176
     1
 62
    18
176
     1
 90
       50
176
     1
 90
        3
176
     1
 62
     5
420
      255
176
     1
290
     0
176
     1
 90
       50
176
     1
 90
       50
176
     1
 90
       50
176
     1
290
     0
176
     1
 90
       50
176
     1
 62
   256
176
     0
 40
1.0
176
     0
 90
        2
176
     1
  1
strokes_ogs.tif
176
     1
290
     0
176
     1
 40
1.0
176
     1
 40
1.0
176
     1
  0
VISUALSTYLE
  5
36EC
102
{ACAD_REACTORS
330
36DA
102
}
330
36DA
100
AcDbVisualStyle
  2
OverhangOff
 70
    21
177
     3
291
     1
 70
    58
 90
        2
176
     0
 90
        2
176
     0
 90
        0
176
     0
 90
        0
176
     0
 40
0.6
176
     0
 40
30.0
176
     0
 62
     7
420
 16777215
176
     0
 90
        1
176
     0
 90
        4
176
     0
 62
     7
176
     0
 62
   257
176
     0
 90
        1
176
     0
 90
        1
176
     0
 40
1.0
176
     0
 90
        9
176
     2
 62
     7
176
     0
 40
1.0
176
     0
 90
        1
176
     0
 90
        6
176
     0
 90
        2
176
     0
 62
     7
176
     0
 90
        5
176
     0
 90
        0
176
     0
 90
        0
176
     0
290
     0
176
     0
 90
        1
176
     0
 40
0.0
176
     0
 90
        0
176
     0
290
     0
176
     0
290
     1
176
     0
290
     1
176
     0
290
     0
176
     0
290
     0
176
     0
290
     0
176
     0
290
     0
176
     0
290
     0
176
     0
290
     0
176
     0
 90
       50
176
     0
 40
0.0
176
     0
 40
1.0
176
     0
 90
        0
176
     0
 62
    18
176
     0
 90
       50
176
     0
 90
        3
176
     0
 62
     5
420
      255
176
     0
290
     0
176
     0
 90
       50
176
     0
 90
       50
176
     0
 90
       50
176
     0
290
     0
176
     0
 90
       50
176
     0
 62
   256
176
     0
 40
1.0
176
     0
 90
        2
176
     0
  1
strokes_ogs.tif
176
     0
290
     0
176
     0
 40
1.0
176
     0
 40
1.0
176
     0
  0
VISUALSTYLE
  5
36E3
102
{ACAD_REACTORS
330
36DA
102
}
330
36DA
100
AcDbVisualStyle
  2
Realistic
 70
     8
177
     3
291
     0
 70
    58
 90
        2
176
     1
 90
        3
176
     1
 90
        0
176
     1
 90
        2
176
     1
 40
0.6
176
     1
 40
30.0
176
     1
 62
     7
420
 16777215
176
     1
 90
        0
176
     1
 90
        0
176
     1
 62
     7
176
     1
 62
   257
176
     1
 90
        1
176
     1
 90
        1
176
     1
 40
1.0
176
     1
 90
        8
176
     1
 62
   257
176
     1
 40
1.0
176
     1
 90
        1
176
     1
 90
        6
176
     1
 90
        2
176
     1
 62
     7
176
     1
 90
        3
176
     1
 90
        0
176
     1
 90
        0
176
     1
290
     0
176
     1
 90
       13
176
     1
 40
0.0
176
     1
 90
        0
176
     1
290
     0
176
     1
290
     1
176
     1
290
     1
176
     1
290
     0
176
     1
290
     0
176
     1
290
     0
176
     1
290
     0
176
     1
290
     0
176
     1
290
     0
176
     1
 90
       50
176
     1
 40
0.0
176
     1
 40
1.0
176
     1
 90
        0
176
     1
 62
    18
176
     1
 90
       50
176
     1
 90
        3
176
     1
 62
     5
420
      255
176
     1
290
     0
176
     1
 90
       50
176
     1
 90
       50
176
     1
 90
       50
176
     1
290
     0
176
     1
 90
       50
176
     1
 62
   256
176
     0
 40
1.0
176
     0
 90
        2
176
     1
  1
strokes_ogs.tif
176
     1
290
     0
176
     1
 40
1.0
176
     1
 40
1.0
176
     1
  0
VISUALSTYLE
  5
36F2
102
{ACAD_REACTORS
330
36DA
102
}
330
36DA
100
AcDbVisualStyle
  2
Shaded
 70
    27
177
     3
291
     0
 70
    58
 90
        2
176
     1
 90
        2
176
     1
 90
        1
176
     1
 90
        2
176
     1
 40
0.6
176
     1
 40
30.0
176
     1
 62
     7
420
 16777215
176
     1
 90
        0
176
     1
 90
        4
176
     1
 62
     7
176
     1
 62
   257
176
     1
 90
        1
176
     1
 90
        1
176
     1
 40
1.0
176
     1
 90
        8
176
     1
 62
   257
176
     1
 40
1.0
176
     1
 90
        1
176
     1
 90
        6
176
     1
 90
        2
176
     1
 62
     8
420
  7895160
176
     1
 90
        3
176
     1
 90
        0
176
     1
 90
        0
176
     1
290
     0
176
     1
 90
        5
176
     1
 40
0.0
176
     1
 90
        0
176
     1
290
     0
176
     1
290
     1
176
     1
290
     1
176
     1
290
     0
176
     1
290
     0
176
     1
290
     0
176
     1
290
     0
176
     1
290
     0
176
     1
290
     0
176
     1
 90
       50
176
     1
 40
0.0
176
     1
 40
1.0
176
     1
 90
        0
176
     1
 62
    18
176
     1
 90
       50
176
     1
 90
        3
176
     1
 62
     5
420
      255
176
     1
290
     0
176
     1
 90
       50
176
     1
 90
       50
176
     1
 90
       50
176
     1
290
     0
176
     1
 90
       50
176
     1
 62
   256
176
     0
 40
1.0
176
     0
 90
        2
176
     1
  1
strokes_ogs.tif
176
     1
290
     0
176
     1
 40
1.0
176
     1
 40
1.0
176
     1
  0
VISUALSTYLE
  5
36F1
102
{ACAD_REACTORS
330
36DA
102
}
330
36DA
100
AcDbVisualStyle
  2
Shaded with edges
 70
    26
177
     3
291
     0
 70
    58
 90
        2
176
     1
 90
        2
176
     1
 90
        1
176
     1
 90
        2
176
     1
 40
0.6
176
     1
 40
30.0
176
     1
 62
     7
420
 16777215
176
     1
 90
        1
176
     1
 90
       10
176
     1
 62
     7
176
     1
 62
   257
176
     1
 90
        2
176
     1
 90
        1
176
     1
 40
1.0
176
     1
 90
        8
176
     1
 62
   257
176
     1
 40
1.0
176
     1
 90
        1
176
     1
 90
        6
176
     1
 90
        2
176
     1
 62
     7
176
     1
 90
        3
176
     1
 90
        0
176
     1
 90
        0
176
     1
290
     0
176
     1
 90
        5
176
     1
 40
0.0
176
     1
 90
        0
176
     1
290
     0
176
     1
290
     1
176
     1
290
     1
176
     1
290
     0
176
     1
290
     0
176
     1
290
     0
176
     1
290
     0
176
     1
290
     0
176
     1
290
     0
176
     1
 90
       50
176
     1
 40
0.0
176
     1
 40
1.0
176
     1
 90
        0
176
     1
 62
    18
176
     1
 90
       50
176
     1
 90
        3
176
     1
 62
     5
420
      255
176
     1
290
     0
176
     1
 90
       50
176
     1
 90
       50
176
     1
 90
       50
176
     1
290
     0
176
     1
 90
       50
176
     1
 62
   256
176
     0
 40
1.0
176
     0
 90
        2
176
     1
  1
strokes_ogs.tif
176
     1
290
     0
176
     1
 40
1.0
176
     1
 40
1.0
176
     1
  0
VISUALSTYLE
  5
36EE
102
{ACAD_REACTORS
330
36DA
102
}
330
36DA
100
AcDbVisualStyle
  2
Shades of Gray
 70
    23
177
     3
291
     0
 70
    58
 90
        2
176
     1
 90
        2
176
     1
 90
        3
176
     1
 90
        0
176
     1
 40
0.6
176
     1
 40
30.0
176
     1
 62
     7
420
 16777215
176
     1
 90
        2
176
     1
 90
        2
176
     1
 62
     7
176
     1
 62
     7
176
     1
 90
        1
176
     1
 90
        1
176
     1
 40
40.0
176
     1
 90
        8
176
     1
 62
     7
176
     1
 40
1.0
176
     1
 90
        1
176
     1
 90
        6
176
     1
 90
        2
176
     1
 62
     7
176
     1
 90
        3
176
     1
 90
        0
176
     1
 90
        0
176
     1
290
     0
176
     1
 90
        1
176
     1
 40
0.0
176
     1
 90
        0
176
     1
290
     0
176
     1
290
     1
176
     1
290
     1
176
     1
290
     0
176
     1
290
     0
176
     1
290
     0
176
     1
290
     0
176
     1
290
     0
176
     1
290
     0
176
     1
 90
       50
176
     1
 40
0.0
176
     1
 40
1.0
176
     1
 90
        0
176
     1
 62
    18
176
     1
 90
       50
176
     1
 90
        3
176
     1
 62
     5
420
      255
176
     1
290
     0
176
     1
 90
       50
176
     1
 90
       50
176
     1
 90
       50
176
     1
290
     0
176
     1
 90
       50
176
     1
 62
   256
176
     0
 40
1.0
176
     0
 90
        2
176
     1
  1
strokes_ogs.tif
176
     1
290
     0
176
     1
 40
1.0
176
     1
 40
1.0
176
     1
  0
VISUALSTYLE
  5
36EF
102
{ACAD_REACTORS
330
36DA
102
}
330
36DA
100
AcDbVisualStyle
  2
Sketchy
 70
    24
177
     3
291
     0
 70
    58
 90
        1
176
     1
 90
        2
176
     1
 90
        2
176
     1
 90
        0
176
     1
 40
0.6
176
     1
 40
30.0
176
     1
 62
     7
420
 16777215
176
     1
 90
        2
176
     1
 90
        2
176
     1
 62
     7
176
     1
 62
     7
176
     1
 90
        1
176
     1
 90
        1
176
     1
 40
40.0
176
     1
 90
       11
176
     1
 62
     7
176
     1
 40
1.0
176
     1
 90
        1
176
     1
 90
        6
176
     1
 90
        2
176
     1
 62
     7
176
     1
 90
        6
176
     1
 90
        0
176
     1
 90
        0
176
     1
290
     0
176
     1
 90
        1
176
     1
 40
0.0
176
     1
 90
        0
176
     1
290
     0
176
     1
290
     1
176
     1
290
     1
176
     1
290
     0
176
     1
290
     0
176
     1
290
     0
176
     1
290
     0
176
     1
290
     0
176
     1
290
     0
176
     1
 90
       50
176
     1
 40
0.0
176
     1
 40
1.0
176
     1
 90
        0
176
     1
 62
    18
176
     1
 90
       50
176
     1
 90
        3
176
     1
 62
     5
420
      255
176
     1
290
     0
176
     1
 90
       50
176
     1
 90
       50
176
     1
 90
       50
176
     1
290
     0
176
     1
 90
       50
176
     1
 62
   256
176
     0
 40
1.0
176
     0
 90
        2
176
     1
  1
strokes_ogs.tif
176
     1
290
     0
176
     1
 40
1.0
176
     1
 40
1.0
176
     1
  0
VISUALSTYLE
  5
36E7
102
{ACAD_REACTORS
330
36DA
102
}
330
36DA
100
AcDbVisualStyle
  2
Thicken
 70
    13
177
     3
291
     1
 70
    58
 90
        2
176
     1
 90
        2
176
     1
 90
        0
176
     1
 90
        0
176
     1
 40
0.6
176
     1
 40
30.0
176
     1
 62
     7
420
 16777215
176
     1
 90
        1
176
     1
 90
        4
176
     1
 62
     7
176
     1
 62
   257
176
     1
 90
        1
176
     1
 90
        1
176
     1
 40
1.0
176
     1
 90
       12
176
     1
 62
     7
176
     1
 40
1.0
176
     1
 90
        1
176
     1
 90
        6
176
     1
 90
        2
176
     1
 62
     7
176
     1
 90
        5
176
     1
 90
        0
176
     1
 90
        0
176
     1
290
     0
176
     1
 90
        1
176
     1
 40
0.0
176
     1
 90
        0
176
     1
290
     0
176
     1
290
     1
176
     1
290
     1
176
     1
290
     0
176
     1
290
     0
176
     1
290
     0
176
     1
290
     0
176
     1
290
     0
176
     1
290
     0
176
     1
 90
       50
176
     1
 40
0.0
176
     1
 40
1.0
176
     1
 90
        0
176
     1
 62
    18
176
     1
 90
       50
176
     1
 90
        3
176
     1
 62
     5
420
      255
176
     1
290
     0
176
     1
 90
       50
176
     1
 90
       50
176
     1
 90
       50
176
     1
290
     0
176
     1
 90
       50
176
     1
 62
   256
176
     0
 40
1.0
176
     0
 90
        2
176
     1
  1
strokes_ogs.tif
176
     1
290
     0
176
     1
 40
1.0
176
     1
 40
1.0
176
     1
  0
VISUALSTYLE
  5
36E0
102
{ACAD_REACTORS
330
36DA
102
}
330
36DA
100
AcDbVisualStyle
  2
Wireframe
 70
     5
177
     3
291
     0
 70
    58
 90
        0
176
     1
 90
        2
176
     1
 90
        0
176
     1
 90
        0
176
     1
 40
0.6
176
     1
 40
30.0
176
     1
 62
     7
420
 16777215
176
     1
 90
        1
176
     1
 90
        4
176
     1
 62
     7
176
     1
 62
   257
176
     1
 90
        1
176
     1
 90
        1
176
     1
 40
1.0
176
     1
 90
        0
176
     1
 62
   257
176
     1
 40
1.0
176
     1
 90
        1
176
     1
 90
        6
176
     1
 90
        2
176
     1
 62
     7
176
     1
 90
        3
176
     1
 90
        0
176
     1
 90
        0
176
     1
290
     0
176
     1
 90
        1
176
     1
 40
0.0
176
     1
 90
        0
176
     1
290
     0
176
     1
290
     1
176
     1
290
     1
176
     1
290
     0
176
     1
290
     0
176
     1
290
     0
176
     1
290
     0
176
     1
290
     0
176
     1
290
     0
176
     1
 90
       50
176
     1
 40
0.0
176
     1
 40
1.0
176
     1
 90
        0
176
     1
 62
    18
176
     1
 90
       50
176
     1
 90
        3
176
     1
 62
     5
420
      255
176
     1
290
     0
176
     1
 90
       50
176
     1
 90
       50
176
     1
 90
       50
176
     1
290
     0
176
     1
 90
       50
176
     1
 62
   256
176
     0
 40
1.0
176
     0
 90
        2
176
     1
  1
strokes_ogs.tif
176
     1
290
     0
176
     1
 40
1.0
176
     1
 40
1.0
176
     1
  0
VISUALSTYLE
  5
36F0
102
{ACAD_REACTORS
330
36DA
102
}
330
36DA
100
AcDbVisualStyle
  2
X-Ray
 70
    25
177
     3
291
     0
 70
    58
 90
        2
176
     1
 90
        2
176
     1
 90
        1
176
     1
 90
        1
176
     1
 40
0.5
176
     1
 40
30.0
176
     1
 62
     7
420
 16777215
176
     1
 90
        1
176
     1
 90
        0
176
     1
 62
     7
176
     1
 62
   257
176
     1
 90
        1
176
     1
 90
        1
176
     1
 40
1.0
176
     1
 90
        8
176
     1
 62
     7
176
     1
 40
1.0
176
     1
 90
        1
176
     1
 90
        6
176
     1
 90
        2
176
     1
 62
     7
176
     1
 90
        3
176
     1
 90
        0
176
     1
 90
        0
176
     1
290
     0
176
     1
 90
       13
176
     1
 40
0.0
176
     1
 90
        0
176
     1
290
     0
176
     1
290
     1
176
     1
290
     1
176
     1
290
     0
176
     1
290
     0
176
     1
290
     0
176
     1
290
     0
176
     1
290
     0
176
     1
290
     0
176
     1
 90
       50
176
     1
 40
0.0
176
     1
 40
1.0
176
     1
 90
        0
176
     1
 62
    18
176
     1
 90
       50
176
     1
 90
        3
176
     1
 62
     5
420
      255
176
     1
290
     0
176
     1
 90
       50
176
     1
 90
       50
176
     1
 90
       50
176
     1
290
     0
176
     1
 90
       50
176
     1
 62
   256
176
     0
 40
1.0
176
     0
 90
        2
176
     1
  1
strokes_ogs.tif
176
     1
290
     0
176
     1
 40
1.0
176
     1
 40
1.0
176
     1
  0
DICTIONARYVAR
  5
3BA8
102
{ACAD_REACTORS
330
193
102
}
330
193
100
DictionaryVariables
280
     0
  1
1:1
  0
DICTIONARYVAR
  5
3BAA
102
{ACAD_REACTORS
330
193
102
}
330
193
100
DictionaryVariables
280
     0
  1
STANDARD
  0
DICTIONARYVAR
  5
3BA9
102
{ACAD_REACTORS
330
193
102
}
330
193
100
DictionaryVariables
280
     0
  1
STANDARD
  0
DICTIONARYVAR
  5
3BC3
102
{ACAD_REACTORS
330
193
102
}
330
193
100
DictionaryVariables
280
     0
  1
Metric50
  0
DICTIONARYVAR
  5
3BC4
102
{ACAD_REACTORS
330
193
102
}
330
193
100
DictionaryVariables
280
     0
  1
Metric50
  0
DICTIONARYVAR
  5
195
102
{ACAD_REACTORS
330
193
102
}
330
193
100
DictionaryVariables
280
     0
  1
2
  0
DICTIONARYVAR
  5
194
102
{ACAD_REACTORS
330
193
102
}
330
193
100
DictionaryVariables
280
     0
  1
1
  0
DICTIONARYVAR
  5
3BAB
102
{ACAD_REACTORS
330
193
102
}
330
193
100
DictionaryVariables
280
     0
  1
0
  0
DICTIONARYVAR
  5
FE8
102
{ACAD_REACTORS
330
193
102
}
330
193
100
DictionaryVariables
280
     0
  1
112
  0
DICTIONARY
  5
3BB1
330
36F8
100
AcDbDictionary
280
     1
281
     1
  3
ACAD_ROUNDTRIP_2008_TABLESTYLE_CELLSTYLEMAP
360
635C
  0
CELLSTYLEMAP
  5
635C
102
{ACAD_REACTORS
330
3BB1
102
}
330
3BB1
100
AcDbCellStyleMap
 90
        3
300
CELLSTYLE
  1
TABLEFORMAT_BEGIN
 90
        5
170
     1
 91
        0
 92
    32768
 62
   257
 93
        1
300
CONTENTFORMAT
  1
CONTENTFORMAT_BEGIN
 90
        0
 91
        0
 92
        4
 93
        0
300

 40
0.0
140
1.0
 94
        5
 62
     0
340
11
144
6.0
309
CONTENTFORMAT_END
171
     1
301
MARGIN
  1
CELLMARGIN_BEGIN
 40
1.5
 40
1.5
 40
1.5
 40
1.5
 40
0.18
 40
0.18
309
CELLMARGIN_END
 94
        6
 95
        1
302
GRIDFORMAT
  1
GRIDFORMAT_BEGIN
 90
        0
 91
        1
 62
     0
 92
       -2
340
14
 93
        0
 40
0.045
309
GRIDFORMAT_END
 95
        2
302
GRIDFORMAT
  1
GRIDFORMAT_BEGIN
 90
        0
 91
        1
 62
     0
 92
       -2
340
14
 93
        0
 40
0.045
309
GRIDFORMAT_END
 95
        4
302
GRIDFORMAT
  1
GRIDFORMAT_BEGIN
 90
        0
 91
        1
 62
     0
 92
       -2
340
14
 93
        0
 40
0.045
309
GRIDFORMAT_END
 95
        8
302
GRIDFORMAT
  1
GRIDFORMAT_BEGIN
 90
        0
 91
        1
 62
     0
 92
       -2
340
14
 93
        0
 40
0.045
309
GRIDFORMAT_END
 95
       16
302
GRIDFORMAT
  1
GRIDFORMAT_BEGIN
 90
        0
 91
        1
 62
     0
 92
       -2
340
14
 93
        0
 40
0.045
309
GRIDFORMAT_END
 95
       32
302
GRIDFORMAT
  1
GRIDFORMAT_BEGIN
 90
        0
 91
        1
 62
     0
 92
       -2
340
14
 93
        0
 40
0.045
309
GRIDFORMAT_END
309
TABLEFORMAT_END
  1
CELLSTYLE_BEGIN
 90
        1
 91
        1
300
_TITLE
309
CELLSTYLE_END
300
CELLSTYLE
  1
TABLEFORMAT_BEGIN
 90
        5
170
     1
 91
        0
 92
        0
 62
   257
 93
        1
300
CONTENTFORMAT
  1
CONTENTFORMAT_BEGIN
 90
        0
 91
        0
 92
        4
 93
        0
300

 40
0.0
140
1.0
 94
        5
 62
     0
340
11
144
4.5
309
CONTENTFORMAT_END
171
     1
301
MARGIN
  1
CELLMARGIN_BEGIN
 40
1.5
 40
1.5
 40
1.5
 40
1.5
 40
0.18
 40
0.18
309
CELLMARGIN_END
 94
        6
 95
        1
302
GRIDFORMAT
  1
GRIDFORMAT_BEGIN
 90
        0
 91
        1
 62
     0
 92
       -2
340
14
 93
        0
 40
0.045
309
GRIDFORMAT_END
 95
        2
302
GRIDFORMAT
  1
GRIDFORMAT_BEGIN
 90
        0
 91
        1
 62
     0
 92
       -2
340
14
 93
        0
 40
0.045
309
GRIDFORMAT_END
 95
        4
302
GRIDFORMAT
  1
GRIDFORMAT_BEGIN
 90
        0
 91
        1
 62
     0
 92
       -2
340
14
 93
        0
 40
0.045
309
GRIDFORMAT_END
 95
        8
302
GRIDFORMAT
  1
GRIDFORMAT_BEGIN
 90
        0
 91
        1
 62
     0
 92
       -2
340
14
 93
        0
 40
0.045
309
GRIDFORMAT_END
 95
       16
302
GRIDFORMAT
  1
GRIDFORMAT_BEGIN
 90
        0
 91
        1
 62
     0
 92
       -2
340
14
 93
        0
 40
0.045
309
GRIDFORMAT_END
 95
       32
302
GRIDFORMAT
  1
GRIDFORMAT_BEGIN
 90
        0
 91
        1
 62
     0
 92
       -2
340
14
 93
        0
 40
0.045
309
GRIDFORMAT_END
309
TABLEFORMAT_END
  1
CELLSTYLE_BEGIN
 90
        2
 91
        1
300
_HEADER
309
CELLSTYLE_END
300
CELLSTYLE
  1
TABLEFORMAT_BEGIN
 90
        5
170
     1
 91
        0
 92
        0
 62
   257
 93
        1
300
CONTENTFORMAT
  1
CONTENTFORMAT_BEGIN
 90
        0
 91
        0
 92
        4
 93
        0
300

 40
0.0
140
1.0
 94
        2
 62
     0
340
11
144
4.5
309
CONTENTFORMAT_END
171
     1
301
MARGIN
  1
CELLMARGIN_BEGIN
 40
1.5
 40
1.5
 40
1.5
 40
1.5
 40
0.18
 40
0.18
309
CELLMARGIN_END
 94
        6
 95
        1
302
GRIDFORMAT
  1
GRIDFORMAT_BEGIN
 90
        0
 91
        1
 62
     0
 92
       -2
340
14
 93
        0
 40
0.045
309
GRIDFORMAT_END
 95
        2
302
GRIDFORMAT
  1
GRIDFORMAT_BEGIN
 90
        0
 91
        1
 62
     0
 92
       -2
340
14
 93
        0
 40
0.045
309
GRIDFORMAT_END
 95
        4
302
GRIDFORMAT
  1
GRIDFORMAT_BEGIN
 90
        0
 91
        1
 62
     0
 92
       -2
340
14
 93
        0
 40
0.045
309
GRIDFORMAT_END
 95
        8
302
GRIDFORMAT
  1
GRIDFORMAT_BEGIN
 90
        0
 91
        1
 62
     0
 92
       -2
340
14
 93
        0
 40
0.045
309
GRIDFORMAT_END
 95
       16
302
GRIDFORMAT
  1
GRIDFORMAT_BEGIN
 90
        0
 91
        1
 62
     0
 92
       -2
340
14
 93
        0
 40
0.045
309
GRIDFORMAT_END
 95
       32
302
GRIDFORMAT
  1
GRIDFORMAT_BEGIN
 90
        0
 91
        1
 62
     0
 92
       -2
340
14
 93
        0
 40
0.045
309
GRIDFORMAT_END
309
TABLEFORMAT_END
  1
CELLSTYLE_BEGIN
 90
        3
 91
        2
300
_DATA
309
CELLSTYLE_END
  0
ENDSEC
  0
SECTION
  2
ACDSDATA
 70
     2
 71
     7
  0
ACDSSCHEMA
 90
        0
  1
AcDb_Thumbnail_Schema
  2
AcDbDs::ID
280
    10
 91
        8
  2
Thumbnail_Data
280
    15
 91
        0
101
ACDSRECORD
 95
        0
 90
        1
  2
AcDbDs::TreatedAsObjectData
280
     1
291
     1
101
ACDSRECORD
 95
        0
 90
        2
  2
AcDbDs::Legacy
280
     1
291
     1
101
ACDSRECORD
  1
AcDbDs::ID
 90
        3
  2
AcDs:Indexable
280
     1
291
     1
101
ACDSRECORD
  1
AcDbDs::ID
 90
        4
  2
AcDbDs::HandleAttribute
280
     7
282
     1
  0
ACDSSCHEMA
 90
        1
  1
AcDbDs::TreatedAsObjectDataSchema
  2
AcDbDs::TreatedAsObjectData
280
     1
 91
        0
  0
ACDSSCHEMA
 90
        2
  1
AcDbDs::LegacySchema
  2
AcDbDs::Legacy
280
     1
 91
        0
  0
ACDSSCHEMA
 90
        3
  1
AcDbDs::IndexedPropertySchema
  2
AcDs:Indexable
280
     1
 91
        0
  0
ACDSSCHEMA
 90
        4
  1
AcDbDs::HandleAttributeSchema
  2
AcDbDs::HandleAttribute
280
     7
 91
        1
284
     1
  0
ACDSRECORD
 90
        0
  2
AcDbDs::ID
280
    10
320
1E
  2
Thumbnail_Data
280
    15
 94
     2508
310
89504E470D0A1A0A0000000D4948445200000100000000B5080300000087DCD12600000300504C5445FFFFFF000000C8C8C80000000000000000000000000000000000000000000000000000330000660000990000CC0000FF0033000033330033660033990033CC0033FF0066000066330066660066990066CC0066FF0099
310
000099330099660099990099CC0099FF00CC0000CC3300CC6600CC9900CCCC00CCFF00FF0000FF3300FF6600FF9900FFCC00FFFF3300003300333300663300993300CC3300FF3333003333333333663333993333CC3333FF3366003366333366663366993366CC3366FF3399003399333399663399993399CC3399FF33CC00
310
33CC3333CC6633CC9933CCCC33CCFF33FF0033FF3333FF6633FF9933FFCC33FFFF6600006600336600666600996600CC6600FF6633006633336633666633996633CC6633FF6666006666336666666666996666CC6666FF6699006699336699666699996699CC6699FF66CC0066CC3366CC6666CC9966CCCC66CCFF66FF0066
310
FF3366FF6666FF9966FFCC66FFFF9900009900339900669900999900CC9900FF9933009933339933669933999933CC9933FF9966009966339966669966999966CC9966FF9999009999339999669999999999CC9999FF99CC0099CC3399CC6699CC9999CCCC99CCFF99FF0099FF3399FF6699FF9999FFCC99FFFFCC0000CC00
310
33CC0066CC0099CC00CCCC00FFCC3300CC3333CC3366CC3399CC33CCCC33FFCC6600CC6633CC6666CC6699CC66CCCC66FFCC9900CC9933CC9966CC9999CC99CCCC99FFCCCC00CCCC33CCCC66CCCC99CCCCCCCCCCFFCCFF00CCFF33CCFF66CCFF99CCFFCCCCFFFFFF0000FF0033FF0066FF0099FF00CCFF00FFFF3300FF3333
310
FF3366FF3399FF33CCFF33FFFF6600FF6633FF6666FF6699FF66CCFF66FFFF9900FF9933FF9966FF9999FF99CCFF99FFFFCC00FFCC33FFCC66FFCC99FFCCCCFFCCFFFFFF00FFFF33FFFF66FFFF99FFFFCCFFFFFF0000000D0D0D1A1A1A2828283535354343435050505D5D5D6B6B6B787878868686939393A1A1A1AEAEAEBB
310
BBBBC9C9C9D6D6D6E4E4E4F1F1F1FFFFFF000000000000000000000000000000000000000000000000000000000000B0E2D235000003934944415478DAEDDC6172A3300C05606EE06BF8FE07E0CFBB494E5270A0B1B10CCE2410243D4FDB9D52BABB7C9125DB380C0FE76D780CAE1B010840000210800004200001084080EC
310
E079338F332EE1A37F99000420000158056C5DD1655D80000420805500E755C0F87D900E00DB2F3801084000021080000420000108400002108000042000017E09000C700E00EF11002F1180379B4180F3CED60170EAE9AA01C4807704003F008DD4B61D0AA4D3AC027497009B00679C6B0220BDE859FF7009007F00AF2B2E
310
01DCE400F74910DE93209A891046E702FD00F005806D22F4160197AE09DC36023C27C136C00981A00EE0DBC1A003007904B8EB02E726C34B00F0AD08509A0437935B87006BE7854B00405AE3D800C4A961FE62B60B64B96C3918C2F4B1B698FF991D7F36209C76D3E8A22AB04CEAB3FF73282360391EE76040AC2320BC9561
310
EF5906F34068034C9FA35180FF915C8208550E48CD384036B70FD280277D350EB05E6A1057405230D807785EEE94EDA59FD400C122C074458D122602EC5440BD0053819796BA0480D08800E88E80B706D3AE01601A2015FFCD676F15B0012015822A2D44E700630C52C1300C5074891401DE00CAEF46EF00FE7240CCD64F7C
310
0014AB3B8E018A2E005F5D209B1925807F925D808F6F93DC1DE02002A018605E084F3DBC01F05A21910190ADAF6901D84CE64B80AA0CF600688B00E411700470300ED008800DC054EC3E180841611540B124F6D650D81B40351932300E286F71EE0394BF17F7D64315019439A01B60801001B01301074B6253FF07D298C100
310
8014014751332F92C771700B90EE1446C7112002AC7F93038065E7408CE2B61013E380438031CB8B2807C07E00C6757EFCACA5BE00F02C83CB38621D4C6806C01E403DBD9B2F794CFB29E4E8D7371B5CB7C874032C0B488DE85718012B40106638B1BA378AB49120BCB656AA8E80B2C9004305606C87C8D15BC5EB08401842
310
B3B36804D8C90169CBF0B6DB40DC4F01ADF70596AC566F095E3606D7DFCF1FCAF70A4B83011C8E15B208E83AD5164096E42C0164AB22C700834580D7BA58470414DBABAD74814E00AB8FD2CA9F0CB10780F2CDD3E7B55F6C97F70DD059052C031CA4B02B9FA5773B00C8CF4A700480417A8BA01B8056BC5B05F8FDF3347F1D
310
01F8EA79EA00EED10840000210800004200001084000021080000420000108400002108000042000010840000210800004580E996E1D00BE1A010840000210800004200001084000021080003E019CB73F47E398E3D0CDDDE70000000049454E44AE426082F4809C007CE79DBA262240087F071150C7FFE02D323E0046F16E
310
15E0BBEFD5D61801FCD5F3F01F2C000000000000000000000000000000000000000000000C002C971500570500000000000000000000000000000000000000A700BE0BFD05B34F37AA209E5E4A0000000049454E44AE4260821A00F20087334288440D9002E04ED2D9784AEC34C0D1310E84A6093883989910BE03605EC3AC
310
02C09300F34A9985210680F70094B3C605C0DA8B010E33D90820DA6DD817604A19C32808824190F1992800380FE0AD406763C00E00C126E7DB00A63D1C5535008A170A3200ACD9EFB5230F70D81756F702E9D0D5EB06B900DE3E1A9006004E32500B1024EF6C80F9B4876521D5BBDA5216206C96B916510DE07F6F26D881E7
310
2592C465CACB961AB73FF912005B05801C80B8E5C6005000585E8F10464289E57163A85CC08FC227C702B05E9A1D00180FC01BF7C499309865E7427ADAFD018006487A2A53BD43847FA5380170E50E1122093AAE01446B295F0518D58020C34801DC26467AF6A9770CA8B808C010237D840A80EDF174CA830BBF6C00811921
310
E336001BDE71F6B62FE80ADBB7214F3B8407B75538297DD9C22CBD57B8E5605F011BBDC2AB01E331B899008CF3EBC2256378746EBF0230D5FD615D10F2A36619007F11C0DB207A0000F8CA1AE00D1CC33F87288FE084944700545E4099A64C991AE0BF3DB763BA03A0F6DA392E407053576E09BF00900B82F3D45FDA045E09
310
404360381DE7CFFEE3D7004EDF9BE011BD402B409003C0F39B40073862F8F875806FD6800EB76C7A450DA0EEEAFE090050002203FA0840B71BF8FE7E0DC8FCAB0E2F0708EB7FC51DDDDE0790ABEF6F05E87E13EF9FAB01D8F575FA0F2C2880022880022880022880022880022880022880022880026400DE7C70003E752880
310
022880022880022880022880022880022880027C14E0DB07FC03903FD4F0B76FD49B0000000049454E44AE426082024000080001200004C0670104A572B486CEFFC1A8C7B2B7FD3E3EFE03CB78A4A25760F8A20000000049454E44AE426082
  0
ENDSEC
  0
EOF
